osu file format v12

[General]
AudioFilename: B.o.B feat. Bruno Mars - Nothing on you - Cover by --.mp3
AudioLeadIn: 0
PreviewTime: -1
Countdown: 0
SampleSet: Normal
StackLeniency: 0.8
Mode: 0
LetterboxInBreaks: 1
WidescreenStoryboard: 0

[Editor]
DistanceSpacing: 1
BeatDivisor: 6
GridSize: 8
TimelineZoom: 1

[Metadata]
Title:B.o.B feat. Bruno Mars - Nothing on you
TitleUnicode:B.o.B feat. Bruno Mars - Nothing on you
Artist:
ArtistUnicode:阿福
Creator:Hydra
Version:Hard
Source:
Tags:
BeatmapID:408513
BeatmapSetID:168313

[Difficulty]
HPDrainRate:8
CircleSize:4
OverallDifficulty:5
ApproachRate:8
SliderMultiplier:1.4
SliderTickRate:2

[Events]
//Background and Video events
0,0,"Anime-Couple.jpg",0,0
//Break Periods
//Storyboard Layer 0 (Background)
//Storyboard Layer 1 (Fail)
//Storyboard Layer 2 (Pass)
//Storyboard Layer 3 (Foreground)
//Storyboard Sound Samples
//Background Colour Transformations
3,100,163,162,255

[TimingPoints]
0,582.52427184466,4,1,0,100,1,0
37572,-80,4,1,0,100,0,0
73980,-66.6666666666667,4,1,0,100,0,1

[HitObjects]
88,120,291,5,0,0:0:0:0:
160,64,582,1,0,0:0:0:0:
232,120,873,1,0,0:0:0:0:
160,168,1165,2,0,P|128:240|216:240,1,175
280,208,2257,5,0,0:0:0:0:
352,272,2548,1,0,0:0:0:0:
432,208,2839,1,0,0:0:0:0:
352,152,3131,1,0,0:0:0:0:
424,80,3422,2,0,P|352:40|272:80,1,175
80,72,4805,5,0,0:0:0:0:
72,136,5097,1,0,0:0:0:0:
104,192,5388,1,0,0:0:0:0:
152,232,5679,2,0,P|232:264|272:240,1,140
368,304,6553,5,0,0:0:0:0:
368,304,6844,1,0,0:0:0:0:
400,208,7135,1,0,0:0:0:0:
400,208,7427,1,0,0:0:0:0:
376,112,7718,1,0,0:0:0:0:
376,112,8009,2,0,B|280:104|248:128|224:128,1,140
216,64,8883,5,0,0:0:0:0:
144,128,9174,1,0,0:0:0:0:
128,224,9466,1,0,0:0:0:0:
208,288,9757,1,0,0:0:0:0:
304,272,10048,2,0,B|296:216|320:168|424:232|376:192|384:96,1,210
264,144,11504,5,0,0:0:0:0:
264,144,12087,1,0,0:0:0:0:
80,280,13980,5,0,0:0:0:0:
56,184,14271,1,0,0:0:0:0:
168,184,14563,1,0,0:0:0:0:
200,288,14854,2,0,P|296:296|384:248,1,175
368,264,16165,1,0,0:0:0:0:
408,176,16747,2,0,P|424:104|344:64,1,175
216,64,18737,5,0,0:0:0:0:
192,160,19029,1,0,0:0:0:0:
120,80,19320,1,0,0:0:0:0:
120,80,19611,2,0,P|64:168|72:256,1,175
168,296,21067,5,0,0:0:0:0:
256,240,21359,1,0,0:0:0:0:
256,240,21650,2,0,P|208:184|240:88,1,175
360,48,23009,5,0,0:0:0:0:
408,136,23300,1,0,0:0:0:0:
368,224,23592,1,0,0:0:0:0:
280,272,23883,1,0,0:0:0:0:
288,176,24174,2,0,L|216:248,1,70
240,224,24757,1,0,0:0:0:0:
152,264,25048,6,0,L|120:320,2,35
80,176,25631,1,0,0:0:0:0:
104,96,25922,1,0,0:0:0:0:
184,96,26213,1,0,0:0:0:0:
224,168,26504,1,0,0:0:0:0:
384,288,26796,5,0,0:0:0:0:
328,208,27087,1,0,0:0:0:0:
400,144,27378,1,0,0:0:0:0:
328,72,27669,1,0,0:0:0:0:
328,72,27961,1,0,0:0:0:0:
328,72,28252,5,0,0:0:0:0:
400,144,28543,1,0,0:0:0:0:
336,216,28834,2,0,P|272:160|208:192,1,140
208,272,29999,1,0,0:0:0:0:
208,272,30582,1,0,0:0:0:0:
376,288,32524,6,0,L|416:224,1,70
352,160,33106,1,0,0:0:0:0:
264,136,33398,1,0,0:0:0:0:
256,192,33640,12,0,37427,0:0:0:0:
128,112,37718,5,0,0:0:0:0:
128,112,37864,1,0,0:0:0:0:
128,112,38009,1,0,0:0:0:0:
160,144,38155,1,0,0:0:0:0:
208,152,38300,1,0,0:0:0:0:
288,80,38592,5,0,0:0:0:0:
288,80,38883,1,0,0:0:0:0:
368,128,39174,5,0,0:0:0:0:
352,232,39466,1,0,0:0:0:0:
272,288,39757,1,0,0:0:0:0:
272,288,40048,1,0,0:0:0:0:
232,200,40339,1,0,0:0:0:0:
232,200,40631,1,0,0:0:0:0:
176,120,40922,2,0,P|128:128|128:160,1,87.5
80,224,42087,5,0,0:0:0:0:
120,200,42233,1,0,0:0:0:0:
168,208,42378,1,0,0:0:0:0:
200,176,42524,1,0,0:0:0:0:
248,176,42669,1,0,0:0:0:0:
328,192,42961,2,0,P|296:240|352:272,1,131.25
384,280,43543,6,0,B|440:264|416:232|432:168,1,131.25
432,120,44417,1,0,0:0:0:0:
304,64,44708,1,0,0:0:0:0:
304,64,44999,1,0,0:0:0:0:
248,160,45291,2,0,P|280:248|216:288,1,175
136,272,46893,6,0,L|88:328,2,58.3333333333333
72,216,47572,1,0,0:0:0:0:
72,216,47864,1,0,0:0:0:0:
72,136,48155,1,0,0:0:0:0:
128,72,48446,1,0,0:0:0:0:
128,72,48737,1,0,0:0:0:0:
248,72,49223,5,0,0:0:0:0:
248,112,49368,1,0,0:0:0:0:
248,152,49514,1,0,0:0:0:0:
320,200,49805,2,0,L|376:160,2,43.75
224,256,50388,5,0,0:0:0:0:
168,216,50679,1,0,0:0:0:0:
120,168,50970,1,0,0:0:0:0:
168,96,51262,2,0,L|272:136,1,105
392,192,52135,6,0,P|440:200|456:232,1,87.5
392,272,52718,6,0,P|328:232|328:216,1,87.5
248,240,53300,1,0,0:0:0:0:
232,160,53592,1,0,0:0:0:0:
160,120,53883,1,0,0:0:0:0:
160,120,54174,1,0,0:0:0:0:
80,136,54466,6,0,P|56:176|72:216,1,87.5
144,184,55048,6,0,P|168:224|152:264,1,87.5
160,264,55631,1,0,0:0:0:0:
160,264,55922,1,0,0:0:0:0:
384,296,56650,5,0,0:0:0:0:
384,264,56796,1,0,0:0:0:0:
384,232,56941,1,0,0:0:0:0:
384,200,57087,1,0,0:0:0:0:
280,160,57524,1,0,0:0:0:0:
280,192,57669,1,0,0:0:0:0:
280,224,57815,1,0,0:0:0:0:
280,256,57961,1,0,0:0:0:0:
200,248,58252,2,0,P|144:256|120:240,1,87.5
160,160,58834,6,0,L|160:72,1,87.5
256,64,59417,2,0,L|352:64,1,87.5
424,120,59999,2,0,L|424:232,1,87.5
328,232,60582,5,0,0:0:0:0:
200,280,60873,2,0,L|152:328,2,43.75
136,216,61456,1,0,0:0:0:0:
136,216,61747,1,0,0:0:0:0:
136,128,62038,1,0,0:0:0:0:
136,128,62330,1,0,0:0:0:0:
200,72,62621,2,0,P|264:64|288:104,1,87.5
248,160,63398,5,0,0:0:0:0:
320,208,63689,1,0,0:0:0:0:
384,144,63981,1,0,0:0:0:0:
320,208,64272,1,0,0:0:0:0:
240,240,64563,1,0,0:0:0:0:
240,240,64854,1,0,0:0:0:0:
160,216,65146,1,0,0:0:0:0:
72,72,65437,6,0,P|40:120|48:152,1,87.5
136,128,66019,2,0,P|160:176|120:224,1,87.5
64,224,66602,1,0,0:0:0:0:
136,272,66893,1,0,0:0:0:0:
352,304,67718,6,0,P|384:256|376:224,1,87.5
288,248,68300,2,0,P|264:200|304:152,1,87.5
360,152,68883,1,0,0:0:0:0:
288,104,69174,1,0,0:0:0:0:
112,80,69757,5,0,0:0:0:0:
112,80,70048,1,0,0:0:0:0:
88,160,70339,1,0,0:0:0:0:
88,160,70631,1,0,0:0:0:0:
104,248,70922,1,0,0:0:0:0:
184,288,71213,1,0,0:0:0:0:
272,288,71504,1,0,0:0:0:0:
360,272,71796,2,0,P|392:224|400:192,1,87.5
336,136,72378,2,0,P|304:184|296:216,1,87.5
88,264,74126,5,0,0:0:0:0:
160,320,74417,1,0,0:0:0:0:
232,264,74708,1,0,0:0:0:0:
168,208,74999,2,0,P|136:136|232:136,1,210.000008010865
312,192,76092,5,0,0:0:0:0:
384,128,76383,1,0,0:0:0:0:
464,192,76674,1,0,0:0:0:0:
384,248,76966,1,0,0:0:0:0:
456,320,77257,2,0,P|384:360|280:288,1,210.000008010865
80,312,78640,5,0,0:0:0:0:
72,248,78932,1,0,0:0:0:0:
104,192,79223,1,0,0:0:0:0:
152,152,79514,2,0,P|240:96|336:136,1,210.000008010865
368,80,80388,5,0,0:0:0:0:
368,80,80679,1,0,0:0:0:0:
400,176,80970,1,0,0:0:0:0:
400,176,81262,1,0,0:0:0:0:
376,272,81553,1,0,0:0:0:0:
376,272,81844,2,0,B|280:280|248:256|224:240,1,157.500006008148
216,320,82718,5,0,0:0:0:0:
144,256,83009,1,0,0:0:0:0:
128,160,83300,1,0,0:0:0:0:
208,96,83592,1,0,0:0:0:0:
352,96,83883,2,0,B|344:168|368:216|472:152|424:192|336:328,1,280.000010681153
264,240,85339,5,0,0:0:0:0:
264,240,85922,1,0,0:0:0:0:
80,104,87669,5,0,0:0:0:0:
56,200,87960,1,0,0:0:0:0:
168,200,88252,1,0,0:0:0:0:
192,96,88543,1,0,0:0:0:0:
304,56,88834,6,0,P|400:48|384:152,1,210.000008010865
408,208,89999,1,0,0:0:0:0:
408,208,90485,2,0,P|424:280|312:312,1,210.000008010865
216,320,92475,5,0,0:0:0:0:
192,224,92766,1,0,0:0:0:0:
120,304,93058,1,0,0:0:0:0:
120,304,93349,2,0,P|64:216|80:112,1,210.000008010865
168,88,94805,5,0,0:0:0:0:
256,144,95097,1,0,0:0:0:0:
280,232,95388,2,0,P|224:296|232:360,2,140.000005340576
360,336,96844,5,0,0:0:0:0:
408,248,97135,1,0,0:0:0:0:
368,160,97427,1,0,0:0:0:0:
280,112,97718,1,0,0:0:0:0:
288,248,98009,2,0,L|208:168,1,105.000004005432
152,120,98592,5,0,0:0:0:0:
152,120,98883,6,0,L|120:64,2,52.5000020027161
80,208,99466,1,0,0:0:0:0:
104,288,99757,1,0,0:0:0:0:
184,288,100048,1,0,0:0:0:0:
224,216,100339,1,0,0:0:0:0:
384,96,100631,5,0,0:0:0:0:
328,176,100922,1,0,0:0:0:0:
400,240,101213,1,0,0:0:0:0:
328,312,101504,1,0,0:0:0:0:
328,312,101796,1,0,0:0:0:0:
328,312,102087,5,0,0:0:0:0:
400,240,102378,1,0,0:0:0:0:
336,160,102669,2,0,P|272:224|176:176,1,210.000008010865
256,112,103834,1,0,0:0:0:0:
256,112,104417,1,0,0:0:0:0:
376,96,106407,6,0,L|432:192,1,105.000004005432
352,224,106989,1,0,0:0:0:0:
264,248,107281,1,0,0:0:0:0:
