osu file format v12

[General]
AudioFilename: B-Complex - Beautiful Lies (No Podcast).mp3
AudioLeadIn: 0
PreviewTime: 88451
Countdown: 0
SampleSet: Normal
StackLeniency: 0.4
Mode: 0
LetterboxInBreaks: 1
WidescreenStoryboard: 1

[Editor]
Bookmarks: 88451,110520,154658,176727,198796,242934
DistanceSpacing: 2
BeatDivisor: 4
GridSize: 4

[Metadata]
Title:Beautiful Lies
TitleUnicode:Beautiful Lies
Artist:B-Complex
ArtistUnicode:B-Complex
Creator:galvenize
Version:2
Source:
Tags:
BeatmapID:351865
BeatmapSetID:137804

[Difficulty]
HPDrainRate:7
CircleSize:4
OverallDifficulty:7
ApproachRate:9
SliderMultiplier:1.8
SliderTickRate:1

[Events]
//Background and Video events
0,0,"wp1.jpg",0,0
//Break Periods
2,221064,242334
2,254169,258886
2,259686,261644
//Storyboard Layer 0 (Background)
//Storyboard Layer 1 (Fail)
//Storyboard Layer 2 (Pass)
//Storyboard Layer 3 (Foreground)
//Storyboard Sound Samples
//Background Colour Transformations
3,100,163,162,255

[TimingPoints]
176,344.827586206897,4,1,0,60,1,0
110434,-83.3333333333333,4,1,0,60,0,0
131296,-83.3333333333333,4,1,0,40,0,0
132503,-100,4,1,0,60,0,0
198710,-83.3333333333333,4,1,0,60,0,0
220434,-133.333333333333,4,1,0,60,0,0
242848,-133.333333333333,4,1,0,60,0,0
264917,-83.3333333333333,4,1,0,60,0,0
286986,-100,4,1,0,60,0,0

[Colours]
Combo1 : 248,227,148
Combo2 : 181,240,251
Combo3 : 95,72,219

[HitObjects]
256,192,88451,1,4,0:0:0:0:
324,136,88624,2,0,P|376:128|420:136,1,90,0|8,0:0|0:0,0:0:0:0:
372,212,88969,1,0,0:0:0:0:
464,36,89141,1,0,0:0:0:0:
432,332,89313,1,0,0:0:0:0:
348,296,89486,2,0,P|284:300|232:304,1,90,8|0,0:0|0:0,0:0:0:0:
112,84,89831,5,0,0:0:0:0:
32,128,90003,2,0,P|40:184|48:228,1,90,0|8,0:0|0:0,0:0:0:0:
112,276,90348,1,0,0:0:0:0:
28,304,90520,1,0,0:0:0:0:
112,84,90693,1,0,0:0:0:0:
104,364,90865,2,0,P|160:352|188:308,1,90,8|0,0:0|0:0,0:0:0:0:
180,328,91124,1,0,0:0:0:0:
180,328,91210,5,0,0:0:0:0:
344,192,91382,1,0,0:0:0:0:
168,192,91555,2,0,P|144:152|148:100,1,90,8|0,0:0|0:0,0:0:0:0:
188,32,91900,1,0,0:0:0:0:
344,192,92072,2,0,P|368:232|364:284,1,90,0|8,0:0|0:0,0:0:0:0:
324,352,92417,1,0,0:0:0:0:
256,188,92589,5,0,0:0:0:0:
256,104,92762,1,0,0:0:0:0:
256,280,92934,6,0,P|328:292|368:260,1,90,8|0,0:0|0:0,0:0:0:0:
256,280,93279,2,0,P|184:268|144:300,1,90,0|0,0:0|0:0,0:0:0:0:
72,320,93624,1,8,0:0:0:0:
432,240,93796,1,0,0:0:0:0:
256,280,93969,5,4,0:0:0:0:
228,196,94141,2,0,P|240:128|284:96,1,90,0|8,0:0|0:0,0:0:0:0:
324,168,94486,1,0,0:0:0:0:
168,260,94658,2,0,P|116:248|88:216,1,90
324,168,95003,2,0,L|344:264,1,90,8|0,0:0|0:0,0:0:0:0:
256,276,95348,1,0,0:0:0:0:
432,240,95520,1,0,0:0:0:0:
388,320,95693,1,8,0:0:0:0:
408,136,95865,2,0,P|376:92|316:80,1,90
48,120,96210,1,0,0:0:0:0:
153,148,96382,2,0,B|184:116|176:64,1,90,8|0,0:0|0:0,0:0:0:0:
176,64,96641,1,0,0:0:0:0:
176,64,96727,6,0,P|228:20|280:28,1,90
336,320,97072,2,0,P|284:364|232:356,1,90,8|0,0:0|0:0,0:0:0:0:
256,276,97417,1,0,0:0:0:0:
428,324,97589,1,0,0:0:0:0:
164,320,97762,1,8,0:0:0:0:
328,228,97934,1,0,0:0:0:0:
328,228,98020,1,0,0:0:0:0:
328,228,98107,6,0,P|296:192|244:184,1,90
74,329,98451,2,0,L|164:320,1,90,8|0,0:0|0:0,0:0:0:0:
256,276,98796,5,0,0:0:0:0:
256,276,98969,1,0,0:0:0:0:
80,192,99141,1,8,0:0:0:0:
256,108,99313,1,0,0:0:0:0:
432,192,99486,2,0,L|416:296,2,90,4|0|8,0:0|0:0|0:0,0:0:0:0:
484,344,100003,1,0,0:0:0:0:
340,192,100176,2,0,L|328:80,1,90
420,88,100520,1,8,0:0:0:0:
256,188,100693,1,0,0:0:0:0:
92,88,100865,6,0,P|120:44|160:28,1,90
180,116,101210,1,8,0:0:0:0:
420,296,101382,2,0,P|392:340|352:356,1,90
332,268,101727,1,0,0:0:0:0:
128,232,101900,1,8,0:0:0:0:
384,152,102072,5,0,0:0:0:0:
384,152,102158,1,0,0:0:0:0:
384,152,102244,2,0,P|444:184|452:212,1,90
128,232,102589,2,0,P|68:200|60:172,1,90,8|0,0:0|0:0,0:0:0:0:
144,144,102934,5,0,0:0:0:0:
216,196,103107,2,0,L|228:288,1,90,0|8,0:0|0:0,0:0:0:0:
148,328,103451,1,0,0:0:0:0:
328,240,103624,2,0,P|356:196|356:152,1,90
272,132,103969,1,8,0:0:0:0:
464,224,104141,1,0,0:0:0:0:
328,240,104313,2,0,P|304:280|308:328,1,90
392,300,104658,1,8,0:0:0:0:
140,196,104831,1,0,0:0:0:0:
388,136,105003,5,4,0:0:0:0:
332,68,105176,2,0,P|292:48|236:52,1,90,0|8,0:0|0:0,0:0:0:0:
160,68,105520,1,0,0:0:0:0:
224,220,105693,2,0,P|196:272|140:272,1,90
140,196,106038,1,8,0:0:0:0:
280,136,106210,1,0,0:0:0:0:
244,344,106382,2,0,L|356:352,1,90
424,352,106727,1,8,0:0:0:0:
140,196,106900,2,0,P|136:256|164:288,1,90
224,220,107244,1,0,0:0:0:0:
80,336,107417,1,8,0:0:0:0:
64,120,107589,1,0,0:0:0:0:
64,120,107676,1,0,0:0:0:0:
64,120,107762,6,0,P|120:104|160:96,1,90
360,97,108107,2,0,P|404:107|448:120,1,90,8|0,0:0|0:0,0:0:0:0:
388,188,108451,1,0,0:0:0:0:
304,28,108624,2,0,P|268:80|284:136,1,90,0|8,0:0|0:0,0:0:0:0:
308,236,108969,1,0,0:0:0:0:
224,340,109141,6,0,P|164:344|120:316,1,90,4|0,0:0|0:0,0:0:0:0:
404,224,109486,2,0,P|408:284|380:328,1,90,4|0,0:0|0:0,0:0:0:0:
288,44,109831,2,0,P|348:40|392:68,1,90,4|0,0:0|0:0,0:0:0:0:
108,160,110176,2,0,P|104:100|132:56,1,90,4|0,0:0|0:0,0:0:0:0:
288,44,110520,5,4,0:0:0:0:
404,224,110693,1,0,0:0:0:0:
108,160,110865,1,0,0:0:0:0:
468,180,111038,2,0,P|468:284|360:284,1,215.999993408203
284,240,111555,1,0,0:0:0:0:
108,160,111727,1,0,0:0:0:0:
108,160,111813,1,0,0:0:0:0:
108,160,111900,5,0,0:0:0:0:
196,312,112072,1,0,0:0:0:0:
388,96,112244,1,0,0:0:0:0:
91,72,112417,2,0,P|23:126|64:244,1,215.999993408203
196,312,112934,5,0,0:0:0:0:
248,72,113107,1,0,0:0:0:0:
248,72,113193,1,0,0:0:0:0:
248,72,113279,1,0,0:0:0:0:
196,312,113451,1,0,0:0:0:0:
440,60,113624,1,0,0:0:0:0:
256,212,113796,2,0,B|148:188|128:264|32:196,1,215.999993408203
344,188,114313,2,0,P|340:252|304:288,2,107.999996704102
256,72,114831,5,0,0:0:0:0:
16,60,115003,1,0,0:0:0:0:
256,88,115176,1,0,0:0:0:0:
496,76,115348,1,0,0:0:0:0:
256,104,115520,1,0,0:0:0:0:
16,92,115692,1,0,0:0:0:0:
128,56,115865,1,0,0:0:0:0:
128,56,115951,1,0,0:0:0:0:
128,56,116038,5,0,0:0:0:0:
200,196,116210,1,0,0:0:0:0:
420,36,116382,1,0,0:0:0:0:
120,168,116555,2,0,P|160:272|256:272,1,215.999993408203
344,220,117072,1,0,0:0:0:0:
424,292,117244,1,0,0:0:0:0:
424,292,117331,1,0,0:0:0:0:
424,292,117417,1,0,0:0:0:0:
316,136,117589,1,0,0:0:0:0:
184,336,117762,1,0,0:0:0:0:
392,104,117934,6,0,P|276:64|236:144,1,215.999993408203
224,236,118451,1,0,0:0:0:0:
120,212,118624,1,0,0:0:0:0:
120,212,118710,1,0,0:0:0:0:
120,212,118796,1,0,0:0:0:0:
176,108,118969,1,0,0:0:0:0:
304,344,119141,1,0,0:0:0:0:
100,72,119313,2,0,P|204:24|256:100,1,215.999993408203
276,196,119831,2,0,B|264:272|264:272|256:320,2,107.999996704102
312,72,120348,5,0,0:0:0:0:
364,188,120520,1,0,0:0:0:0:
312,72,120693,1,0,0:0:0:0:
204,312,120865,1,0,0:0:0:0:
312,72,121038,1,0,0:0:0:0:
416,336,121210,2,0,B|308:352|304:300|196:312,1,215.999993408203
100,288,121727,1,0,0:0:0:0:
100,288,121900,1,0,0:0:0:0:
164,200,122072,2,0,P|192:80|108:52,1,215.999993408203
84,148,122589,5,0,0:0:0:0:
300,96,122762,1,0,0:0:0:0:
300,96,122848,1,0,0:0:0:0:
300,96,122934,1,0,0:0:0:0:
264,292,123107,1,0,0:0:0:0:
408,36,123279,1,0,0:0:0:0:
212,360,123451,2,0,P|184:252|264:208,1,215.999993408203
368,204,123969,5,0,0:0:0:0:
376,312,124141,1,0,0:0:0:0:
376,312,124227,1,0,0:0:0:0:
376,312,124313,1,0,0:0:0:0:
224,152,124486,1,0,0:0:0:0:
128,324,124658,1,0,0:0:0:0:
296,92,124831,2,0,P|192:64|128:152,1,215.999993408203
116,244,125348,2,0,P|52:272|0:276,2,107.999996704102
216,200,125865,5,0,0:0:0:0:
412,108,126038,1,0,0:0:0:0:
456,320,126210,1,0,0:0:0:0:
412,108,126382,1,0,0:0:0:0:
208,184,126555,1,0,0:0:0:0:
412,108,126727,2,0,P|424:164|440:224,1,107.999996704102
436,213,126986,1,0,0:0:0:0:
436,213,127072,5,0,0:0:0:0:
232,280,127244,1,0,0:0:0:0:
304,132,127417,1,0,0:0:0:0:
292,344,127589,2,0,B|212:380|169:327|169:327|68:344,1,215.999993408203
89,340,128107,1,0,0:0:0:0:
184,148,128279,1,0,0:0:0:0:
184,148,128365,1,0,0:0:0:0:
184,148,128451,1,0,0:0:0:0:
48,228,128624,1,0,0:0:0:0:
380,224,128796,1,0,0:0:0:0:
96,152,128969,2,0,P|168:64|264:104,1,215.999993408203
280,196,129486,1,0,0:0:0:0:
188,252,129658,1,0,0:0:0:0:
188,252,129744,1,0,0:0:0:0:
188,252,129831,1,0,0:0:0:0:
320,292,130003,5,0,0:0:0:0:
88,260,130176,1,0,0:0:0:0:
388,360,130348,2,0,B|424:292|392:236|392:236|456:132,1,215.999993408203
468,60,130865,1,0,0:0:0:0:
360,64,131038,1,0,0:0:0:0:
360,64,131124,1,0,0:0:0:0:
360,64,131210,1,0,0:0:0:0:
184,192,131382,5,2,2:0:0:0:
256,60,131555,1,0,2:0:0:0:
116,328,131727,1,2,2:0:0:0:
116,56,131900,1,0,2:0:0:0:
256,324,132072,1,2,2:0:0:0:
212,80,132244,1,2,2:0:0:0:
164,296,132417,1,0,2:0:0:0:
184,192,132589,6,0,P|132:192|92:184,1,90,4|0,0:0|0:0,0:0:0:0:
24,128,132934,1,0,0:0:0:0:
308,76,133107,2,0,P|336:124|328:176,1,90
248,140,133451,1,0,0:0:0:0:
284,224,133624,2,0,P|344:240|388:224,1,90
224,60,133969,2,0,P|172:88|164:124,1,90
188,200,134313,1,0,0:0:0:0:
308,76,134486,1,0,0:0:0:0:
328,68,134572,1,0,0:0:0:0:
348,64,134658,1,0,0:0:0:0:
440,68,134831,1,0,0:0:0:0:
384,136,135003,5,0,0:0:0:0:
436,260,135176,1,0,0:0:0:0:
336,352,135348,2,0,P|284:356|244:352,1,90
164,320,135693,1,0,0:0:0:0:
224,168,135865,2,0,L|328:196,1,90
252,260,136210,1,0,0:0:0:0:
248,80,136382,1,0,0:0:0:0:
224,168,136555,1,0,0:0:0:0:
168,100,136727,2,0,P|108:112|40:124,1,90
308,144,137072,1,0,0:0:0:0:
140,208,137244,1,0,0:0:0:0:
136,224,137331,1,0,0:0:0:0:
132,240,137417,2,0,P|144:300|184:328,1,90
252,340,137762,5,0,0:0:0:0:
44,296,137934,1,0,0:0:0:0:
228,252,138107,2,0,P|280:252|336:280,1,90
388,316,138451,1,0,0:0:0:0:
340,132,138624,2,0,P|332:80|356:36,1,90
436,24,138969,1,0,0:0:0:0:
392,212,139141,2,0,L|288:216,1,90
212,220,139486,1,0,0:0:0:0:
96,104,139658,1,0,0:0:0:0:
188,100,139831,1,0,0:0:0:0:
140,176,140003,1,0,0:0:0:0:
128,200,140089,1,0,0:0:0:0:
128,228,140176,2,0,P|140:284|156:336,1,90
240,308,140520,5,0,0:0:0:0:
48,200,140693,1,0,0:0:0:0:
268,144,140865,2,0,P|272:88|252:36,1,90
176,28,141210,1,0,0:0:0:0:
96,64,141382,2,0,P|92:120|112:172,1,90
188,124,141727,1,0,0:0:0:0:
372,64,141900,1,0,0:0:0:0:
204,208,142072,1,0,0:0:0:0:
396,144,142244,6,0,L|384:240,1,90
304,192,142589,1,0,0:0:0:0:
476,248,142762,1,0,0:0:0:0:
476,248,142848,1,0,0:0:0:0:
476,248,142934,1,0,0:0:0:0:
360,308,143107,1,0,0:0:0:0:
480,88,143279,2,0,P|436:52|384:44,1,90
140,144,143624,6,0,L|136:240,1,90
128,324,143969,1,0,0:0:0:0:
40,100,144141,2,0,P|80:56|128:52,1,90
288,136,144486,1,0,0:0:0:0:
344,208,144658,2,0,P|380:160|372:104,1,90
216,192,145003,6,0,L|228:292,1,90
308,312,145348,1,0,0:0:0:0:
132,236,145520,1,0,0:0:0:0:
132,236,145607,1,0,0:0:0:0:
132,236,145693,1,0,0:0:0:0:
392,284,145865,1,0,0:0:0:0:
376,372,146038,5,0,0:0:0:0:
304,208,146210,1,0,0:0:0:0:
484,216,146382,2,0,P|488:280|488:328,1,90
392,284,146727,1,0,0:0:0:0:
304,128,146900,2,0,P|248:144|224:192,1,90
204,252,147244,1,0,0:0:0:0:
392,176,147417,2,0,L|412:72,1,90
500,96,147762,5,0,0:0:0:0:
328,32,147934,1,0,0:0:0:0:
292,216,148107,1,0,0:0:0:0:
216,168,148279,1,0,0:0:0:0:
216,168,148365,1,0,0:0:0:0:
216,168,148451,1,0,0:0:0:0:
204,252,148624,1,0,0:0:0:0:
296,124,148796,2,0,P|248:84|208:80,2,90
292,216,149313,1,0,0:0:0:0:
216,168,149486,1,0,0:0:0:0:
280,308,149658,2,0,L|388:328,1,90
292,216,150003,1,0,0:0:0:0:
204,252,150176,2,0,P|184:304|196:344,1,90
280,308,150520,5,0,0:0:0:0:
128,200,150693,1,0,0:0:0:0:
76,272,150865,1,0,0:0:0:0:
216,168,151038,1,0,0:0:0:0:
212,144,151124,1,0,0:0:0:0:
208,120,151210,2,0,L|104:96,1,90
48,156,151555,5,0,0:0:0:0:
256,36,151727,1,0,0:0:0:0:
464,156,151900,2,0,L|456:268,1,90
256,348,152244,1,0,0:0:0:0:
54,245,152417,2,0,L|48:156,1,90
384,208,152762,1,0,0:0:0:0:
128,176,152934,1,0,0:0:0:0:
256,192,153107,1,0,0:0:0:0:
256,192,153193,1,0,0:0:0:0:
256,192,153279,1,0,0:0:0:0:
256,192,153451,12,0,154313,0:0:0:0:
256,88,154658,5,4,0:0:0:0:
196,156,154831,2,0,P|192:208|208:248,1,90,0|8,0:0|0:0,0:0:0:0:
292,264,155176,1,0,0:0:0:0:
288,176,155348,5,0,0:0:0:0:
108,128,155520,1,0,0:0:0:0:
492,136,155693,2,0,P|476:192|424:216,1,90,8|0,0:0|0:0,0:0:0:0:
372,252,156038,5,0,0:0:0:0:
364,164,156210,1,0,0:0:0:0:
464,304,156382,1,8,0:0:0:0:
404,88,156555,2,0,P|344:80|300:104,1,90
148,200,156900,1,0,0:0:0:0:
248,248,157072,2,0,L|236:148,1,90,8|0,0:0|0:0,0:0:0:0:
238,159,157331,1,0,0:0:0:0:
238,159,157417,5,4,0:0:0:0:
60,180,157589,1,0,0:0:0:0:
148,200,157762,1,8,0:0:0:0:
256,56,157934,1,0,0:0:0:0:
364,200,158107,2,0,L|352:304,1,90
256,328,158451,1,8,0:0:0:0:
452,192,158624,1,0,0:0:0:0:
256,56,158796,2,0,P|200:80|180:116,1,90
156,188,159141,1,8,0:0:0:0:
344,84,159313,1,0,0:0:0:0:
272,140,159486,6,0,P|252:76|280:24,1,90
416,28,159831,2,0,P|436:92|408:144,1,90,8|0,0:0|0:0,0:0:0:0:
312,280,160176,5,4,0:0:0:0:
376,344,160348,2,0,P|424:336|460:304,1,90,0|8,0:0|0:0,0:0:0:0:
392,244,160693,1,0,0:0:0:0:
292,368,160865,2,0,P|240:336|228:276,1,90
220,16,161210,2,0,P|272:48|284:108,1,90,8|0,0:0|0:0,0:0:0:0:
296,164,161555,5,0,0:0:0:0:
232,228,161727,1,0,0:0:0:0:
380,184,161900,1,8,0:0:0:0:
208,144,162072,2,0,P|156:172|144:224,1,90
296,164,162417,1,0,0:0:0:0:
380,184,162589,2,0,P|424:168|448:128,1,90,8|0,0:0|0:0,0:0:0:0:
446,133,162848,1,0,0:0:0:0:
448,132,162934,6,0,P|438:75|462:35,1,90,0|0,0:0|0:0,0:0:0:0:
316,248,163279,2,0,P|326:305|302:345,1,90,8|0,0:0|0:0,0:0:0:0:
232,272,163624,1,0,0:0:0:0:
408,240,163796,1,0,0:0:0:0:
300,96,163969,1,8,0:0:0:0:
368,156,164141,5,0,0:0:0:0:
280,176,164313,2,0,P|228:152|220:96,1,90
468,32,164658,2,0,L|364:68,1,90,8|0,0:0|0:0,0:0:0:0:
300,96,165003,1,0,0:0:0:0:
368,156,165176,5,0,0:0:0:0:
256,28,165348,1,8,0:0:0:0:
144,156,165520,1,0,0:0:0:0:
256,28,165693,1,4,0:0:0:0:
256,28,165865,2,0,L|256:128,1,90,0|8,0:0|0:0,0:0:0:0:
256,200,166210,1,0,0:0:0:0:
172,236,166382,5,0,0:0:0:0:
352,256,166555,1,0,0:0:0:0:
144,156,166727,2,0,P|100:184|88:228,1,90,8|0,0:0|0:0,0:0:0:0:
256,200,167072,2,0,L|220:88,1,90
60,108,167417,1,8,0:0:0:0:
312,96,167589,2,0,L|416:108,1,90
468,168,167934,1,0,0:0:0:0:
220,116,168107,1,8,0:0:0:0:
256,200,168279,1,0,0:0:0:0:
256,200,168365,1,0,0:0:0:0:
256,200,168451,6,0,P|244:252|232:296,1,90
144,288,168796,1,8,0:0:0:0:
264,364,168969,1,0,0:0:0:0:
144,156,169141,1,0,0:0:0:0:
220,116,169313,2,0,P|276:108|328:148,1,90,0|8,0:0|0:0,0:0:0:0:
372,180,169658,1,0,0:0:0:0:
108,84,169831,2,0,P|64:120|60:168,1,90
256,200,170176,5,8,0:0:0:0:
144,288,170348,1,0,0:0:0:0:
220,116,170520,1,0,0:0:0:0:
144,156,170693,1,0,0:0:0:0:
276,52,170865,2,0,P|232:32|176:44,1,90,8|0,0:0|0:0,0:0:0:0:
108,84,171210,5,0,0:0:0:0:
312,132,171382,2,0,L|404:112,1,90,0|8,0:0|0:0,0:0:0:0:
444,192,171727,1,0,0:0:0:0:
488,112,171900,5,0,0:0:0:0:
352,208,172072,1,0,0:0:0:0:
276,52,172244,2,0,L|180:56,1,90,8|0,0:0|0:0,0:0:0:0:
44,208,172589,6,0,P|52:256|96:288,1,90
352,208,172934,1,8,0:0:0:0:
440,232,173107,2,0,P|408:280|360:292,1,90
256,192,173451,1,0,0:0:0:0:
316,124,173624,1,8,0:0:0:0:
196,260,173796,1,0,0:0:0:0:
196,260,173882,1,0,0:0:0:0:
196,260,173969,6,0,P|164:216|172:152,1,90
316,124,174313,2,0,P|348:168|340:232,1,90,8|0,0:0|0:0,0:0:0:0:
256,192,174658,1,0,0:0:0:0:
404,60,174831,2,0,L|288:28,1,90,0|8,0:0|0:0,0:0:0:0:
228,40,175176,1,0,0:0:0:0:
256,192,175348,2,0,P|200:216|136:200,1,90
188,124,175693,1,8,0:0:0:0:
176,304,175865,1,0,0:0:0:0:
32,196,176038,2,0,P|28:140|52:96,1,90
480,148,176382,5,8,0:0:0:0:
256,192,176555,1,0,0:0:0:0:
32,148,176727,6,0,L|72:56,1,90,4|0,0:0|0:0,0:0:0:0:
156,48,177072,1,0,0:0:0:0:
480,236,177244,2,0,L|440:328,1,90
356,336,177589,1,0,0:0:0:0:
256,104,177762,5,0,0:0:0:0:
156,192,177934,1,0,0:0:0:0:
256,280,178107,2,0,L|352:252,1,90
428,228,178451,1,0,0:0:0:0:
200,356,178624,6,0,P|164:312|168:256,1,90
312,28,178969,2,0,P|348:72|344:128,1,90
256,192,179313,1,0,0:0:0:0:
120,176,179486,2,0,P|68:200|48:232,1,90
392,208,179831,2,0,P|444:184|464:152,1,90
24,256,180176,2,0,P|52:296|100:312,1,90
488,128,180520,2,0,P|460:88|412:72,1,90
292,48,180865,5,0,0:0:0:0:
128,120,181038,1,0,0:0:0:0:
276,224,181210,1,0,0:0:0:0:
236,132,181382,1,0,0:0:0:0:
236,132,181469,1,0,0:0:0:0:
236,132,181555,1,0,0:0:0:0:
180,204,181727,5,0,0:0:0:0:
356,172,181900,1,0,0:0:0:0:
216,284,182072,1,0,0:0:0:0:
128,120,182244,2,0,L|184:32,1,90
268,48,182589,1,0,0:0:0:0:
384,264,182762,2,0,L|328:352,1,90
244,336,183107,1,0,0:0:0:0:
268,48,183279,1,0,0:0:0:0:
232,248,183451,1,0,0:0:0:0:
280,136,183624,6,0,P|336:136|380:164,1,90
244,336,183969,1,0,0:0:0:0:
160,300,184141,2,0,P|144:252|164:196,1,90
232,248,184486,1,0,0:0:0:0:
52,264,184658,1,0,0:0:0:0:
244,336,184831,1,0,0:0:0:0:
392,232,185003,6,0,L|368:128,1,90
264,24,185348,2,0,L|244:140,1,90
152,352,185693,2,0,L|132:232,1,90
76,32,186038,1,0,0:0:0:0:
32,180,186210,1,0,0:0:0:0:
4,96,186382,6,0,P|76:108|128:116,1,90
184,124,186727,1,0,0:0:0:0:
356,68,186900,1,0,0:0:0:0:
356,68,186986,1,0,0:0:0:0:
356,68,187072,1,0,0:0:0:0:
300,140,187244,5,0,0:0:0:0:
244,48,187417,1,0,0:0:0:0:
480,56,187589,1,0,0:0:0:0:
424,148,187762,2,0,P|416:208|416:252,1,90
468,308,188107,1,0,0:0:0:0:
88,236,188279,2,0,P|96:176|96:132,1,90
44,76,188624,1,0,0:0:0:0:
32,320,188796,5,0,0:0:0:0:
164,340,188969,1,0,0:0:0:0:
216,216,189141,2,0,P|268:208|332:204,1,90
440,188,189486,1,0,0:0:0:0:
396,316,189658,2,0,P|336:352|288:344,1,90
116,68,190003,2,0,P|176:32|224:40,1,90
440,32,190348,5,0,0:0:0:0:
440,32,190520,2,0,P|384:48|348:60,1,90
72,352,190865,2,0,P|128:336|164:324,1,90
492,80,191210,2,0,L|392:88,1,90
20,304,191555,2,0,L|120:296,1,90
244,284,191900,5,0,0:0:0:0:
336,184,192072,1,0,0:0:0:0:
228,104,192244,1,0,0:0:0:0:
136,200,192417,1,0,0:0:0:0:
136,200,192503,1,0,0:0:0:0:
136,200,192589,1,0,0:0:0:0:
232,192,192762,1,0,0:0:0:0:
124,112,192934,1,0,0:0:0:0:
224,20,193107,1,0,0:0:0:0:
332,100,193279,6,0,P|332:172|336:200,1,90
344,280,193624,1,0,0:0:0:0:
140,356,193796,2,0,P|116:308|120:264,1,90
124,184,194141,1,0,0:0:0:0:
196,240,194313,1,0,0:0:0:0:
32,216,194486,1,0,0:0:0:0:
274,278,194658,6,0,P|284:234|272:192,1,90
236,108,195003,1,0,0:0:0:0:
224,352,195176,2,0,L|320:368,1,90
288,32,195520,2,0,L|192:16,1,90
316,272,195865,5,0,0:0:0:0:
316,272,196038,2,0,L|408:300,1,90
176,252,196382,2,0,L|148:344,1,90
196,112,196727,2,0,L|104:84,1,90
336,132,197071,2,0,L|364:40,1,90
316,272,197417,5,0,0:0:0:0:
196,112,197589,1,0,0:0:0:0:
176,252,197762,1,0,0:0:0:0:
336,132,197934,2,0,P|392:120|436:144,1,90
176,252,198279,2,0,P|120:264|76:240,2,90
272,216,198796,5,0,0:0:0:0:
352,280,198969,1,0,0:0:0:0:
264,68,199141,1,0,0:0:0:0:
264,300,199313,2,0,P|336:368|440:284,1,215.999993408203
480,224,199831,1,0,0:0:0:0:
324,124,200003,1,0,0:0:0:0:
324,124,200089,1,0,0:0:0:0:
324,124,200176,5,0,0:0:0:0:
220,152,200348,1,0,0:0:0:0:
476,36,200520,1,0,0:0:0:0:
168,228,200693,2,0,P|128:148|228:60,1,215.999993408203
308,32,201210,1,0,0:0:0:0:
356,244,201382,1,0,0:0:0:0:
356,244,201469,1,0,0:0:0:0:
356,244,201555,1,0,0:0:0:0:
276,172,201727,1,0,0:0:0:0:
476,36,201900,1,0,0:0:0:0:
436,304,202072,2,0,B|352:364|280:296|280:296|240:324,1,215.999993408203
136,300,202589,2,0,P|72:304|8:296,2,107.999996704102
228,240,203107,5,0,0:0:0:0:
108,60,203279,1,0,0:0:0:0:
228,240,203451,1,0,0:0:0:0:
448,52,203624,1,0,0:0:0:0:
228,240,203796,1,0,0:0:0:0:
108,60,203969,5,0,0:0:0:0:
216,76,204141,1,0,0:0:0:0:
216,76,204227,1,0,0:0:0:0:
216,76,204313,5,0,0:0:0:0:
152,176,204486,1,0,0:0:0:0:
464,224,204658,1,0,0:0:0:0:
38,221,204831,2,0,P|24:119|108:60,1,215.999993408203
216,76,205348,1,0,0:0:0:0:
320,48,205520,1,0,0:0:0:0:
320,48,205607,1,0,0:0:0:0:
320,48,205693,5,0,0:0:0:0:
348,236,205865,1,0,0:0:0:0:
112,152,206038,1,0,0:0:0:0:
464,224,206210,2,0,P|452:336|324:348,1,215.999993408203
260,348,206727,1,0,0:0:0:0:
212,184,206900,1,0,0:0:0:0:
212,184,206986,1,0,0:0:0:0:
212,184,207072,1,0,0:0:0:0:
124,244,207244,1,0,0:0:0:0:
376,40,207417,1,0,0:0:0:0:
92,328,207589,2,0,P|24:236|96:168,1,215.999993408203
252,88,208107,2,0,P|320:80|384:92,2,107.999996704102
32,168,208624,5,0,0:0:0:0:
256,188,208796,1,0,0:0:0:0:
480,168,208969,1,0,0:0:0:0:
256,204,209141,1,0,0:0:0:0:
32,184,209313,1,0,0:0:0:0:
340,80,209486,2,0,B|348:184|404:176|384:292,1,215.999993408203
284,320,210003,1,0,0:0:0:0:
152,80,210176,1,0,0:0:0:0:
248,132,210348,6,0,P|152:184|52:128,1,215.999993408203
344,80,210865,1,0,0:0:0:0:
344,188,211038,1,0,0:0:0:0:
344,188,211124,1,0,0:0:0:0:
344,188,211210,1,0,0:0:0:0:
252,244,211382,1,0,0:0:0:0:
256,24,211555,1,0,0:0:0:0:
156,328,211727,2,0,B|264:360|304:296|408:360,1,215.999993408203
240,132,212244,5,0,0:0:0:0:
136,160,212417,1,0,0:0:0:0:
136,160,212503,1,0,0:0:0:0:
136,160,212589,1,0,0:0:0:0:
156,52,212762,1,0,0:0:0:0:
24,288,212934,1,0,0:0:0:0:
240,132,213107,2,0,P|348:120|440:192,1,215.999993408203
460,284,213624,2,0,P|416:320|368:336,2,107.999996704102
464,176,214141,5,0,0:0:0:0:
252,68,214313,1,0,0:0:0:0:
236,336,214486,1,0,0:0:0:0:
252,68,214658,1,0,0:0:0:0:
420,216,214831,1,0,0:0:0:0:
252,68,215003,1,0,0:0:0:0:
224,308,215176,1,0,0:0:0:0:
224,308,215262,1,0,0:0:0:0:
224,308,215348,5,0,0:0:0:0:
60,168,215520,1,0,0:0:0:0:
420,216,215693,1,0,0:0:0:0:
132,320,215865,2,0,P|168:216|268:228,1,215.999993408203
258,220,216382,1,0,0:0:0:0:
344,284,216555,1,0,0:0:0:0:
344,284,216641,1,0,0:0:0:0:
344,284,216727,1,0,0:0:0:0:
420,216,216900,1,0,0:0:0:0:
224,308,217072,1,0,0:0:0:0:
64,164,217244,2,0,P|104:56|204:52,1,215.999993408203
300,68,217762,1,0,0:0:0:0:
240,160,217934,1,0,0:0:0:0:
240,160,218020,1,0,0:0:0:0:
240,160,218107,1,0,0:0:0:0:
320,232,218279,1,0,0:0:0:0:
300,68,218451,1,0,0:0:0:0:
276,320,218624,6,0,P|384:308|420:216,1,215.999993408203
408,112,219141,1,0,0:0:0:0:
84,128,219313,1,0,0:0:0:0:
240,28,219486,5,4,0:0:0:0:
256,192,219658,1,0,0:0:0:0:
272,356,219831,1,4,0:0:0:0:
256,192,220003,1,0,0:0:0:0:
16,216,220176,1,4,0:0:0:0:
256,192,220348,1,0,0:0:0:0:
496,168,220520,2,0,P|500:260|456:284,1,135.000005149842,4|4,0:0|0:0,0:0:0:0:
256,88,242934,6,0,L|256:228,1,135.000005149842
256,324,243451,1,0,0:0:0:0:
256,324,243624,1,0,0:0:0:0:
164,44,244658,5,0,0:0:0:0:
256,88,244831,1,0,0:0:0:0:
348,44,245003,1,0,0:0:0:0:
480,32,245693,5,0,0:0:0:0:
256,128,246038,1,0,0:0:0:0:
32,32,246382,1,0,0:0:0:0:
396,248,247417,5,0,0:0:0:0:
296,272,247589,1,0,0:0:0:0:
196,296,247762,1,0,0:0:0:0:
196,296,248451,6,0,L|224:144,1,135.000005149842
244,64,248969,1,0,0:0:0:0:
244,64,249141,1,0,0:0:0:0:
88,312,250176,5,0,0:0:0:0:
72,212,250348,1,0,0:0:0:0:
88,312,250520,1,0,0:0:0:0:
92,44,251210,5,0,0:0:0:0:
256,336,251555,1,0,0:0:0:0:
420,44,251900,1,0,0:0:0:0:
420,44,252934,5,0,0:0:0:0:
256,336,253107,1,0,0:0:0:0:
92,44,253279,1,0,0:0:0:0:
256,192,253969,5,0,0:0:0:0:
160,76,259486,5,0,0:0:0:0:
256,192,262244,12,0,264658,0:0:0:0:
256,192,265003,5,0,0:0:0:0:
92,256,265176,1,0,0:0:0:0:
92,256,265262,1,0,0:0:0:0:
92,256,265348,1,0,0:0:0:0:
420,128,265520,2,0,P|352:56|244:100,1,215.999993408203
256,192,266038,1,0,0:0:0:0:
340,276,266210,1,0,0:0:0:0:
340,276,266296,1,0,0:0:0:0:
340,276,266382,5,0,0:0:0:0:
224,296,266555,1,0,0:0:0:0:
476,224,266727,1,0,0:0:0:0:
92,256,266900,2,0,P|80:148|184:112,1,215.999993408203
416,120,267417,1,0,0:0:0:0:
316,56,267589,1,0,0:0:0:0:
316,56,267676,1,0,0:0:0:0:
316,56,267762,1,0,0:0:0:0:
320,164,267934,1,0,0:0:0:0:
480,32,268107,1,0,0:0:0:0:
216,188,268279,2,0,B|248:268|336:264|336:264|352:324,1,215.999993408203
244,336,268796,1,0,0:0:0:0:
432,268,268969,1,0,0:0:0:0:
432,268,269055,1,0,0:0:0:0:
432,268,269141,1,0,0:0:0:0:
132,56,269313,5,0,0:0:0:0:
96,160,269486,1,0,0:0:0:0:
132,56,269658,1,0,0:0:0:0:
200,240,269831,1,0,0:0:0:0:
132,56,270003,1,0,0:0:0:0:
108,324,270176,2,0,P|56:336|-16:348,1,107.999996704102
2,345,270434,1,0,0:0:0:0:
2,345,270520,5,0,0:0:0:0:
336,256,270693,5,0,0:0:0:0:
200,240,270865,1,0,0:0:0:0:
368,336,271038,2,0,P|424:292|368:168,1,215.999993408203
284,120,271555,1,0,0:0:0:0:
72,176,271727,1,0,0:0:0:0:
72,176,271813,1,0,0:0:0:0:
72,176,271900,1,0,0:0:0:0:
200,240,272072,1,0,0:0:0:0:
208,56,272244,1,0,0:0:0:0:
120,292,272417,2,0,P|224:332|296:260,1,215.999993408203
328,168,272934,1,0,0:0:0:0:
432,192,273107,1,0,0:0:0:0:
432,192,273193,1,0,0:0:0:0:
432,192,273279,1,0,0:0:0:0:
360,272,273451,5,0,0:0:0:0:
380,56,273624,1,0,0:0:0:0:
180,136,273796,2,0,B|144:172|140:240|140:240|172:276|232:280,1,215.999993408203
360,272,274313,5,0,0:0:0:0:
432,192,274486,1,0,0:0:0:0:
432,192,274572,1,0,0:0:0:0:
432,192,274658,1,0,0:0:0:0:
260,192,274831,1,0,0:0:0:0:
288,372,275003,1,0,0:0:0:0:
260,192,275176,1,0,0:0:0:0:
44,192,275348,1,0,0:0:0:0:
260,192,275520,1,0,0:0:0:0:
476,180,275693,2,0,P|464:88|340:64,1,215.999993408203
252,84,276210,1,0,0:0:0:0:
260,300,276382,1,0,0:0:0:0:
260,192,276555,6,0,L|40:192,1,215.999993408203
108,104,277072,1,0,0:0:0:0:
260,300,277244,1,0,0:0:0:0:
260,300,277331,1,0,0:0:0:0:
260,300,277417,1,0,0:0:0:0:
344,236,277589,1,0,0:0:0:0:
60,224,277762,1,0,0:0:0:0:
368,336,277934,2,0,P|440:264|400:160,1,215.999993408203
328,92,278451,1,0,0:0:0:0:
240,156,278624,1,0,0:0:0:0:
240,156,278710,1,0,0:0:0:0:
240,156,278796,5,0,0:0:0:0:
428,60,278969,5,0,0:0:0:0:
276,276,279141,1,0,0:0:0:0:
88,96,279313,2,0,P|176:44|268:120,1,215.999993408203
324,192,279831,2,0,P|388:212|452:240,2,107.999996704102
216,204,280348,5,0,0:0:0:0:
56,60,280520,1,0,0:0:0:0:
180,232,280693,5,0,0:0:0:0:
144,20,280865,1,0,0:0:0:0:
152,252,281038,5,0,0:0:0:0:
236,56,281210,2,0,P|300:52|344:48,1,107.999996704102
343,48,281469,1,0,0:0:0:0:
343,48,281555,5,0,0:0:0:0:
372,196,281727,1,0,0:0:0:0:
276,144,281900,1,0,0:0:0:0:
400,296,282072,2,0,P|480:224|416:112,1,215.999993408203
236,56,282589,1,0,0:0:0:0:
72,196,282762,1,0,0:0:0:0:
72,196,282848,1,0,0:0:0:0:
72,196,282934,5,0,0:0:0:0:
180,184,283107,5,0,0:0:0:0:
72,40,283279,1,0,0:0:0:0:
88,336,283451,2,0,B|200:352|196:304|328:312,1,215.999993408203
408,316,283969,1,0,0:0:0:0:
452,216,284141,1,0,0:0:0:0:
452,216,284227,1,0,0:0:0:0:
452,216,284313,1,0,0:0:0:0:
304,56,284486,5,0,0:0:0:0:
396,112,284658,1,0,0:0:0:0:
176,60,284831,2,0,P|72:136|88:236,1,215.999993408203
168,268,285348,2,0,P|152:344|144:376,2,107.999996704102
256,192,285865,5,0,0:0:0:0:
464,128,286038,1,0,0:0:0:0:
256,192,286210,1,0,0:0:0:0:
56,116,286382,1,0,0:0:0:0:
372,140,286555,1,0,0:0:0:0:
160,136,286727,2,0,P|136:196|144:240,1,107.999996704102
142,237,286986,1,0,0:0:0:0:
142,237,287072,5,4,0:0:0:0:
200,308,287244,2,0,P|264:304|316:300,1,90,0|8,0:0|0:0,0:0:0:0:
380,292,287589,1,0,0:0:0:0:
100,312,287762,6,0,P|64:276|60:228,1,90
412,72,288107,2,0,P|448:108|452:156,1,90,8|0,0:0|0:0,0:0:0:0:
460,236,288451,1,0,0:0:0:0:
256,192,288624,1,0,0:0:0:0:
268,184,288710,1,0,0:0:0:0:
280,176,288796,1,8,0:0:0:0:
212,268,288969,6,0,P|168:228|188:152,1,135
204,120,289313,1,0,0:0:0:0:
280,72,289486,5,8,0:0:0:0:
72,192,289658,1,0,0:0:0:0:
280,312,289831,2,0,P|340:304|380:296,1,90
196,40,290176,2,0,P|136:48|96:56,1,90,8|0,0:0|0:0,0:0:0:0:
52,124,290520,1,0,0:0:0:0:
400,192,290693,2,0,L|420:88,1,90,0|8,0:0|0:0,0:0:0:0:
336,68,291038,1,0,0:0:0:0:
464,272,291210,6,0,P|404:292|356:280,1,90
52,280,291555,2,0,P|92:261|137:263,1,90,8|0,0:0|0:0,0:0:0:0:
256,308,291900,1,0,0:0:0:0:
52,280,292072,1,0,0:0:0:0:
464,272,292244,1,8,0:0:0:0:
256,308,292417,1,0,0:0:0:0:
256,308,292503,1,0,0:0:0:0:
256,308,292589,5,4,0:0:0:0:
276,132,292762,2,0,L|264:240,1,90,0|8,0:0|0:0,0:0:0:0:
266,221,293107,1,0,0:0:0:0:
376,112,293279,5,0,0:0:0:0:
88,100,293451,1,0,0:0:0:0:
396,208,293624,2,0,P|452:180|464:136,1,90,8|0,0:0|0:0,0:0:0:0:
184,48,293969,6,0,L|176:148,1,90
176,137,294227,1,0,0:0:0:0:
176,137,294313,1,8,0:0:0:0:
72,352,294486,2,0,P|136:292|120:228,1,135
124,208,294831,1,0,0:0:0:0:
32,272,295003,5,8,0:0:0:0:
264,320,295176,1,0,0:0:0:0:
468,204,295348,2,0,P|452:148|440:108,1,90
360,84,295693,1,8,0:0:0:0:
432,28,295865,1,0,0:0:0:0:
432,28,295951,1,0,0:0:0:0:
432,28,296038,1,0,0:0:0:0:
332,168,296210,2,0,P|288:136|280:84,1,90,0|8,0:0|0:0,0:0:0:0:
360,84,296555,1,0,0:0:0:0:
388,240,296727,6,0,L|368:336,1,90
124,144,297072,2,0,L|144:48,1,90,8|0,0:0|0:0,0:0:0:0:
256,40,297417,5,0,0:0:0:0:
144,248,297589,1,0,0:0:0:0:
368,136,297762,1,8,0:0:0:0:
256,344,297934,1,0,0:0:0:0:
256,192,298107,2,0,P|240:144|200:108,2,90,0|0|8,0:0|0:0|0:0,0:0:0:0:
256,344,298624,1,0,0:0:0:0:
32,280,298796,5,0,0:0:0:0:
256,312,298969,1,0,0:0:0:0:
480,280,299141,2,0,L|468:180,1,90,8|0,0:0|0:0,0:0:0:0:
280,28,299486,6,0,P|256:80|272:136,1,90
259,111,299744,1,0,0:0:0:0:
259,111,299831,1,8,0:0:0:0:
372,328,300003,2,0,P|332:348|236:336,1,135
200,324,300348,1,0,0:0:0:0:
116,352,300520,5,8,0:0:0:0:
276,272,300693,1,0,0:0:0:0:
32,312,300865,2,0,L|24:212,1,90
480,72,301210,2,0,L|488:172,1,90,8|0,0:0|0:0,0:0:0:0:
492,252,301555,1,0,0:0:0:0:
328,124,301727,2,0,P|280:144|260:180,1,90,0|8,0:0|0:0,0:0:0:0:
236,260,302072,1,0,0:0:0:0:
36,148,302244,2,0,L|52:40,1,90
148,184,302589,2,0,L|132:292,1,90,8|0,0:0|0:0,0:0:0:0:
52,236,302934,5,0,0:0:0:0:
172,48,303107,1,0,0:0:0:0:
236,260,303279,1,8,0:0:0:0:
148,184,303451,1,0,0:0:0:0:
148,184,303538,1,0,0:0:0:0:
148,184,303624,1,4,0:0:0:0:
220,132,303796,2,0,P|280:124|316:120,1,90,0|8,0:0|0:0,0:0:0:0:
400,108,304141,1,0,0:0:0:0:
348,36,304313,5,0,0:0:0:0:
408,304,304486,1,0,0:0:0:0:
332,264,304658,2,0,P|368:224|416:216,1,90,8|0,0:0|0:0,0:0:0:0:
408,304,305003,5,0,0:0:0:0:
256,192,305176,1,0,0:0:0:0:
256,192,305262,1,0,0:0:0:0:
256,192,305348,1,8,0:0:0:0:
136,324,305520,2,0,P|64:276|68:224,1,135
80,192,305865,1,0,0:0:0:0:
432,192,306038,1,8,0:0:0:0:
256,192,306210,1,0,0:0:0:0:
336,152,306382,6,0,P|344:200|332:244,1,90
176,232,306727,2,0,P|168:184|180:140,1,90,8|0,0:0|0:0,0:0:0:0:
256,64,307072,1,0,0:0:0:0:
256,320,307244,2,0,P|204:328|156:336,1,90,0|8,0:0|0:0,0:0:0:0:
80,352,307589,1,0,0:0:0:0:
256,192,307762,2,0,P|308:184|356:176,1,90
436,164,308107,5,8,0:0:0:0:
256,64,308279,1,0,0:0:0:0:
76,164,308451,1,0,0:0:0:0:
400,52,308624,5,0,0:0:0:0:
112,52,308796,1,8,0:0:0:0:
436,164,308969,5,0,0:0:0:0:
76,164,309141,2,0,P|72:232|72:264,2,90,4|0|8,0:0|0:0|0:0,0:0:0:0:
164,148,309658,1,0,0:0:0:0:
252,128,309831,5,0,0:0:0:0:
112,52,310003,1,0,0:0:0:0:
152,288,310176,2,0,P|204:304|252:288,1,90,8|0,0:0|0:0,0:0:0:0:
416,272,310520,2,0,P|364:256|316:272,1,90
330,263,310779,5,0,0:0:0:0:
330,263,310865,1,8,0:0:0:0:
80,356,311038,2,0,P|56:296|92:216,1,135
104,196,311382,1,0,0:0:0:0:
152,288,311555,5,8,0:0:0:0:
56,104,311727,1,0,0:0:0:0:
104,196,311900,6,0,P|148:192|196:172,1,90
408,188,312244,2,0,P|364:192|316:212,1,90,8|0,0:0|0:0,0:0:0:0:
380,280,312589,1,0,0:0:0:0:
420,92,312762,6,0,P|476:116|492:160,1,90,0|8,0:0|0:0,0:0:0:0:
256,272,313107,1,0,0:0:0:0:
23,139,313279,2,0,P|49:103|92:92,1,90
184,92,313624,1,8,0:0:0:0:
328,292,313796,1,0,0:0:0:0:
120,248,313969,1,0,0:0:0:0:
392,136,314141,1,0,0:0:0:0:
256,192,314313,2,0,P|208:196|156:196,1,90,8|0,0:0|0:0,0:0:0:0:
166,196,314572,1,0,0:0:0:0:
166,196,314658,5,4,0:0:0:0:
392,136,314831,2,0,P|408:188|388:228,1,90,0|8,0:0|0:0,0:0:0:0:
328,292,315176,1,0,0:0:0:0:
304,92,315348,5,0,0:0:0:0:
484,128,315520,1,0,0:0:0:0:
200,36,315693,2,0,P|152:60|132:104,1,90,8|0,0:0|0:0,0:0:0:0:
124,180,316038,1,0,0:0:0:0:
48,136,316210,1,0,0:0:0:0:
44,116,316296,1,0,0:0:0:0:
40,96,316382,1,8,0:0:0:0:
200,240,316555,2,0,P|140:280|68:264,1,135
60,264,316900,5,0,0:0:0:0:
212,152,317072,1,8,0:0:0:0:
196,344,317244,1,0,0:0:0:0:
152,84,317417,6,0,P|208:64|264:84,1,90
360,300,317762,2,0,P|304:320|248:300,1,90,8|0,0:0|0:0,0:0:0:0:
180,280,318107,1,0,0:0:0:0:
424,88,318279,2,0,P|452:128|452:180,1,90,0|8,0:0|0:0,0:0:0:0:
432,264,318624,1,0,0:0:0:0:
88,296,318796,2,0,P|60:256|60:204,1,90
80,120,319141,5,8,0:0:0:0:
256,324,319313,1,0,0:0:0:0:
432,120,319486,1,0,0:0:0:0:
80,264,319658,5,0,0:0:0:0:
256,60,319830,1,8,0:0:0:0:
432,264,320003,1,0,0:0:0:0:
360,332,320176,5,4,0:0:0:0:
256,324,320348,2,0,P|232:272|248:204,1,90
244,152,320693,1,0,0:0:0:0:
320,200,320865,5,0,0:0:0:0:
156,144,321038,1,0,0:0:0:0:
244,152,321210,2,0,P|208:220|184:240,1,90
108,220,321555,1,0,0:0:0:0:
72,136,321727,1,0,0:0:0:0:
76,124,321813,1,0,0:0:0:0:
80,112,321900,1,0,0:0:0:0:
156,144,322072,5,0,0:0:0:0:
24,208,322244,1,0,0:0:0:0:
144,48,322417,1,0,0:0:0:0:
144,48,322589,2,0,P|200:40|240:32,1,90
412,28,322934,6,0,P|376:60|360:112,1,90
376,268,323279,2,0,P|412:236|428:184,1,90,0|0,0:0|0:0,0:0:0:0:
272,36,323624,2,0,P|280:80|312:112,1,90
500,248,323969,2,0,P|492:204|460:172,1,90
380,136,324313,5,0,0:0:0:0:
308,188,324486,1,0,0:0:0:0:
308,188,324572,1,0,0:0:0:0:
308,188,324658,1,0,0:0:0:0:
220,160,324831,2,0,P|176:164|136:192,1,90
308,188,325176,2,0,L|284:80,1,90
200,76,325520,1,0,0:0:0:0:
240,252,325693,6,0,P|300:280|356:272,1,90
392,224,326038,1,0,0:0:0:0:
376,136,326210,2,0,P|352:88|352:44,1,90
350,52,326555,1,0,0:0:0:0:
440,72,326727,1,0,0:0:0:0:
464,160,326900,1,0,0:0:0:0:
304,192,327072,2,0,P|264:168|220:160,1,90
132,144,327417,1,0,0:0:0:0:
40,316,327589,2,0,P|80:340|144:328,1,90
188,276,327934,2,0,P|148:252|84:264,2,90
248,344,328451,5,0,0:0:0:0:
248,344,328624,1,0,0:0:0:0:
44,228,328796,1,0,0:0:0:0:
44,228,328969,1,0,0:0:0:0:
232,128,329141,1,0,0:0:0:0:
232,128,329313,1,0,0:0:0:0:
176,240,329486,5,0,0:0:0:0:
176,240,329658,1,0,0:0:0:0:
132,160,329831,6,0,L|112:56,1,90
196,32,330176,1,0,0:0:0:0:
332,80,330348,6,0,L|352:184,1,90
268,208,330693,1,0,0:0:0:0:
440,88,330865,1,0,0:0:0:0:
332,80,331038,1,0,0:0:0:0:
468,232,331210,6,0,P|468:292|456:328,1,90
372,344,331555,1,0,0:0:0:0:
268,208,331727,2,0,P|212:212|176:216,1,90
88,228,332072,1,0,0:0:0:0:
312,280,332244,2,0,P|348:240|352:200,1,90
352,205,332503,1,0,0:0:0:0:
352,205,332589,6,0,P|336:144|352:96,1,90
428,148,332934,1,0,0:0:0:0:
312,280,333107,2,0,L|220:304,1,90
88,228,333451,2,0,P|104:172|152:144,1,90
180,228,333796,1,0,0:0:0:0:
40,104,333969,6,0,L|88:16,1,90
83,24,334313,1,0,0:0:0:0:
220,72,334486,2,0,P|272:68|312:56,1,90
308,57,334831,1,0,0:0:0:0:
396,36,335003,1,0,0:0:0:0:
420,124,335176,1,0,0:0:0:0:
416,136,335262,1,0,0:0:0:0:
412,148,335348,2,0,P|408:204|416:244,1,90
444,324,335693,1,0,0:0:0:0:
264,324,335865,2,0,P|276:268|312:240,1,90
444,324,336210,2,0,L|332:320,1,90
264,324,336555,1,0,0:0:0:0:
176,332,336727,6,0,P|152:288|160:244,1,90
204,176,337072,1,0,0:0:0:0:
356,148,337244,2,0,P|368:88|324:40,1,90
272,96,337589,1,0,0:0:0:0:
296,236,337762,2,0,L|396:272,1,90
120,208,338107,2,0,P|120:152|156:100,1,90
204,176,338451,1,0,0:0:0:0:
196,264,338624,2,0,P|148:292|92:288,1,90
204,176,338969,1,0,0:0:0:0:
272,332,339141,1,0,0:0:0:0:
296,236,339313,1,0,0:0:0:0:
296,236,339400,1,0,0:0:0:0:
296,236,339486,6,0,P|328:184|368:168,1,90
436,140,339831,1,0,0:0:0:0:
276,40,340003,2,0,L|184:56,1,90
108,96,340348,1,0,0:0:0:0:
128,184,340520,1,0,0:0:0:0:
108,96,340693,1,0,0:0:0:0:
76,256,340865,6,0,P|128:276|172:260,1,90
244,236,341210,1,0,0:0:0:0:
436,128,341382,6,0,P|384:108|340:124,1,90
268,148,341727,1,0,0:0:0:0:
340,204,341900,1,0,0:0:0:0:
160,188,342072,1,0,0:0:0:0:
436,128,342244,1,0,0:0:0:0:
