osu file format v13

[General]
AudioFilename: B!B!K!K!B!K!K!.mp3
AudioLeadIn: 0
PreviewTime: -1
Countdown: 1
SampleSet: None
StackLeniency: 0.7
Mode: 0
LetterboxInBreaks: 1
WidescreenStoryboard: 1

[Editor]
DistanceSpacing: 1
BeatDivisor: 4
GridSize: 4
TimelineZoom: 1

[Metadata]
Title:B!B!K!K!B!K!K!
TitleUnicode:B!B!K!K!B!K!K!
Artist:
ArtistUnicode:ニコニコ動画
Creator:Furan_495
Version:KBStrio
Source:
Tags:
BeatmapID:549950
BeatmapSetID:237134

[Difficulty]
HPDrainRate:0
CircleSize:3
OverallDifficulty:4
ApproachRate:9
SliderMultiplier:1.4
SliderTickRate:1

[Events]
//Background and Video events
0,0,"imagesRCDPUJWF.jpg",0,0
//Break Periods
2,57500,64400
//Storyboard Layer 0 (Background)
//Storyboard Layer 1 (Fail)
//Storyboard Layer 2 (Pass)
//Storyboard Layer 3 (Foreground)
//Storyboard Sound Samples
//Background Colour Transformations
3,100,163,162,255

[TimingPoints]
0,400,4,1,0,100,1,0
0,400,4,1,0,100,1,0
0,-100,4,1,0,100,0,0

[HitObjects]
76,104,2600,5,0,0:0:0:0:
80,224,3000,1,0,0:0:0:0:
104,88,3600,5,0,0:0:0:0:
120,248,4000,1,0,0:0:0:0:
180,60,4300,1,0,0:0:0:0:
208,228,4700,1,0,0:0:0:0:
164,124,5400,1,0,0:0:0:0:
176,240,5700,1,0,0:0:0:0:
136,88,6400,5,0,0:0:0:0:
152,232,6800,1,0,0:0:0:0:
240,88,7200,1,0,0:0:0:0:
272,208,7500,1,0,0:0:0:0:
232,100,7900,1,0,0:0:0:0:
240,232,8200,1,0,0:0:0:0:
152,80,9200,5,0,0:0:0:0:
132,348,9300,1,0,0:0:0:0:
168,224,9600,1,0,0:0:0:0:
276,88,10000,1,0,0:0:0:0:
312,248,10300,1,0,0:0:0:0:
120,64,11000,5,0,0:0:0:0:
156,184,11400,1,0,0:0:0:0:
80,76,12100,1,0,0:0:0:0:
96,224,12500,1,0,0:0:0:0:
176,84,12800,1,0,0:0:0:0:
208,204,13200,1,0,0:0:0:0:
272,84,13500,1,0,0:0:0:0:
280,200,13900,1,0,0:0:0:0:
400,96,14200,1,0,0:0:0:0:
404,200,14500,1,0,0:0:0:0:
212,56,14900,1,0,0:0:0:0:
248,224,15300,1,0,0:0:0:0:
320,84,15600,1,0,0:0:0:0:
60,96,16000,1,0,0:0:0:0:
120,232,16300,1,0,0:0:0:0:
260,132,16700,1,0,0:0:0:0:
140,92,17100,5,0,0:0:0:0:
192,268,17400,1,0,0:0:0:0:
88,52,17900,5,0,0:0:0:0:
100,208,18300,1,0,0:0:0:0:
160,68,18600,1,0,0:0:0:0:
224,220,18900,1,0,0:0:0:0:
280,76,19300,1,0,0:0:0:0:
344,240,19600,1,0,0:0:0:0:
404,88,20000,1,0,0:0:0:0:
472,236,20300,1,0,0:0:0:0:
180,68,20500,1,0,0:0:0:0:
196,200,20900,1,0,0:0:0:0:
300,100,21300,1,0,0:0:0:0:
304,200,21600,1,0,0:0:0:0:
148,124,21900,1,0,0:0:0:0:
400,128,22000,1,0,0:0:0:0:
252,128,22700,1,0,0:0:0:0:
104,216,23400,1,0,0:0:0:0:
288,256,24100,5,0,0:0:0:0:
368,192,24400,1,0,0:0:0:0:
232,148,24800,1,0,0:0:0:0:
280,176,25200,1,0,0:0:0:0:
328,240,25500,1,0,0:0:0:0:
384,272,25800,1,0,0:0:0:0:
424,140,26200,1,0,0:0:0:0:
320,128,26600,1,0,0:0:0:0:
216,112,26900,1,0,0:0:0:0:
168,200,27300,1,0,0:0:0:0:
252,232,27600,1,0,0:0:0:0:
336,200,28000,1,0,0:0:0:0:
280,112,28300,1,0,0:0:0:0:
368,84,28700,1,0,0:0:0:0:
100,60,29100,5,0,0:0:0:0:
112,200,29400,1,0,0:0:0:0:
192,84,29700,1,0,0:0:0:0:
212,224,30100,1,0,0:0:0:0:
296,152,30700,5,0,0:0:0:0:
296,272,31100,1,0,0:0:0:0:
396,212,31500,1,0,0:0:0:0:
88,60,31800,5,0,0:0:0:0:
116,144,32200,1,0,0:0:0:0:
188,136,32500,1,0,0:0:0:0:
184,236,32900,1,0,0:0:0:0:
280,212,33300,1,0,0:0:0:0:
104,68,33600,5,0,0:0:0:0:
132,80,34700,5,0,0:0:0:0:
156,168,35000,1,0,0:0:0:0:
252,104,35400,1,0,0:0:0:0:
268,196,35700,1,0,0:0:0:0:
376,84,36000,1,0,0:0:0:0:
400,200,36400,1,0,0:0:0:0:
464,92,36800,1,0,0:0:0:0:
292,72,37600,5,0,0:0:0:0:
304,196,37900,1,0,0:0:0:0:
172,224,38200,1,0,0:0:0:0:
120,96,38500,1,0,0:0:0:0:
256,128,38900,1,0,0:0:0:0:
280,220,39200,1,0,0:0:0:0:
396,148,39600,1,0,0:0:0:0:
400,248,39900,1,0,0:0:0:0:
80,44,40400,5,0,0:0:0:0:
88,180,40700,1,0,0:0:0:0:
192,64,41000,1,0,0:0:0:0:
208,200,41400,1,0,0:0:0:0:
296,64,41700,1,0,0:0:0:0:
312,244,42100,1,0,0:0:0:0:
424,136,42500,1,0,0:0:0:0:
104,56,43200,5,0,0:0:0:0:
120,168,43500,1,0,0:0:0:0:
192,72,43900,1,0,0:0:0:0:
216,172,44200,1,0,0:0:0:0:
296,64,44500,1,0,0:0:0:0:
392,100,44700,1,0,0:0:0:0:
116,64,44900,5,0,0:0:0:0:
180,216,45300,1,0,0:0:0:0:
232,280,45600,1,0,0:0:0:0:
300,132,45800,1,0,0:0:0:0:
344,256,46000,1,0,0:0:0:0:
80,112,46100,5,0,0:0:0:0:
120,220,46300,1,0,0:0:0:0:
192,104,46700,1,0,0:0:0:0:
208,208,47000,1,0,0:0:0:0:
248,108,47400,1,0,0:0:0:0:
296,240,47700,1,0,0:0:0:0:
392,176,48100,1,0,0:0:0:0:
96,48,48800,5,0,0:0:0:0:
100,236,49100,1,0,0:0:0:0:
204,64,49500,1,0,0:0:0:0:
204,228,49900,1,0,0:0:0:0:
280,80,50200,1,0,0:0:0:0:
284,224,50600,1,0,0:0:0:0:
376,84,50900,1,0,0:0:0:0:
372,240,51300,1,0,0:0:0:0:
148,168,51700,1,0,0:0:0:0:
184,136,52300,5,0,0:0:0:0:
220,72,53000,1,0,0:0:0:0:
272,172,53100,1,0,0:0:0:0:
224,56,53800,1,0,0:0:0:0:
380,56,54400,1,0,0:0:0:0:
120,200,54800,1,0,0:0:0:0:
272,232,55100,1,0,0:0:0:0:
380,148,55500,1,0,0:0:0:0:
100,92,56300,5,0,0:0:0:0:
140,160,57300,1,4,0:0:0:0:
32,76,65000,5,0,0:0:0:0:
128,80,65700,1,0,0:0:0:0:
80,188,66400,1,0,0:0:0:0:
232,120,67200,5,0,0:0:0:0:
204,260,67900,1,0,0:0:0:0:
268,268,68200,1,0,0:0:0:0:
96,56,68500,5,0,0:0:0:0:
160,48,68900,1,0,0:0:0:0:
216,56,69300,1,0,0:0:0:0:
288,92,69600,1,0,0:0:0:0:
376,52,70000,1,0,0:0:0:0:
328,156,70700,1,0,0:0:0:0:
272,168,71100,1,0,0:0:0:0:
212,160,71400,1,0,0:0:0:0:
36,84,72100,1,0,0:0:0:0:
100,208,72500,1,0,0:0:0:0:
56,72,72900,5,0,0:0:0:0:
168,68,73200,1,0,0:0:0:0:
140,112,73600,1,0,0:0:0:0:
136,172,73900,1,0,0:0:0:0:
204,160,74200,1,0,0:0:0:0:
248,108,74600,1,0,0:0:0:0:
88,76,75000,5,0,0:0:0:0:
120,220,75300,1,0,0:0:0:0:
180,76,75600,1,0,0:0:0:0:
224,224,76000,1,0,0:0:0:0:
304,80,76300,1,0,0:0:0:0:
344,224,76700,1,0,0:0:0:0:
100,64,77000,5,0,0:0:0:0:
112,128,77400,1,0,0:0:0:0:
144,200,77700,1,0,0:0:0:0:
216,288,78100,1,0,0:0:0:0:
296,140,78400,1,0,0:0:0:0:
88,72,79900,5,0,0:0:0:0:
120,220,80200,1,0,0:0:0:0:
176,64,80600,1,0,0:0:0:0:
244,252,80900,1,0,0:0:0:0:
292,60,81300,1,0,0:0:0:0:
372,252,81600,1,0,0:0:0:0:
452,164,82000,1,0,0:0:0:0:
148,100,82700,5,0,0:0:0:0:
184,244,83000,1,0,0:0:0:0:
228,80,83400,1,0,0:0:0:0:
260,208,83700,1,0,0:0:0:0:
336,88,84100,1,0,0:0:0:0:
380,212,84500,1,0,0:0:0:0:
464,136,84800,1,0,0:0:0:0:
272,144,85200,1,0,0:0:0:0:
76,68,85500,5,0,0:0:0:0:
152,256,85900,1,0,0:0:0:0:
168,64,86200,1,0,0:0:0:0:
240,248,86600,1,0,0:0:0:0:
288,84,86900,1,0,0:0:0:0:
384,244,87300,1,0,0:0:0:0:
428,112,87600,1,0,0:0:0:0:
124,48,88300,5,8,0:0:0:0:
144,160,88600,1,8,0:0:0:0:
192,32,89000,1,8,0:0:0:0:
232,160,89400,1,8,0:0:0:0:
104,88,89800,1,0,0:0:0:0:
100,304,89900,2,0,B|416:116|392:192|404:164,1,315
136,64,91100,5,0,0:0:0:0:
140,168,91400,1,0,0:0:0:0:
224,84,91700,1,0,0:0:0:0:
260,176,91900,1,0,0:0:0:0:
348,68,92200,1,0,0:0:0:0:
168,284,92600,1,0,0:0:0:0:
348,228,92800,1,0,0:0:0:0:
180,112,93100,1,0,0:0:0:0:
92,44,94100,5,8,0:0:0:0:
112,128,94700,1,8,0:0:0:0:
120,184,94900,1,8,0:0:0:0:
192,216,95400,1,8,0:0:0:0:
224,148,95700,1,8,0:0:0:0:
292,208,95900,1,8,0:0:0:0:
344,136,96200,1,8,0:0:0:0:
368,228,96400,1,8,0:0:0:0:
416,132,96700,1,8,0:0:0:0:
80,64,98200,5,8,0:0:0:0:
152,60,98500,1,8,0:0:0:0:
216,68,98900,1,8,0:0:0:0:
288,72,99300,1,8,0:0:0:0:
348,76,99600,1,8,0:0:0:0:
124,200,100300,1,8,0:0:0:0:
216,204,101000,1,8,0:0:0:0:
312,208,101300,1,8,0:0:0:0:
404,208,101800,1,8,0:0:0:0:
288,312,102100,1,8,0:0:0:0:
44,96,102500,5,0,0:0:0:0:
120,268,102800,1,0,0:0:0:0:
284,96,103200,1,0,0:0:0:0:
300,244,103500,1,0,0:0:0:0:
440,108,103800,1,0,0:0:0:0:
88,88,104000,5,12,0:0:0:0:
208,84,104400,1,12,0:0:0:0:
280,88,105000,1,12,0:0:0:0:
92,56,106700,5,0,0:0:0:0:
120,176,107100,1,0,0:0:0:0:
292,128,107400,5,2,0:0:0:0:
192,64,107500,1,0,0:0:0:0:
60,60,108700,1,14,0:0:0:0:
116,60,109100,1,14,0:0:0:0:
168,64,109500,1,14,0:0:0:0:
212,68,109900,1,14,0:0:0:0:
248,72,110200,1,14,0:0:0:0:
324,72,110600,1,14,0:0:0:0:
164,164,110900,1,14,0:0:0:0:
284,192,111700,1,14,0:0:0:0:
112,256,112400,1,14,0:0:0:0:
220,268,112700,1,14,0:0:0:0:
232,148,113100,1,14,0:0:0:0:
344,272,113400,1,14,0:0:0:0:
80,84,113800,5,2,0:0:0:0:
88,200,114100,1,2,0:0:0:0:
152,72,114400,1,2,0:0:0:0:
208,208,114800,1,2,0:0:0:0:
260,72,115100,1,2,0:0:0:0:
296,208,115500,1,2,0:0:0:0:
368,72,115800,1,2,0:0:0:0:
376,220,116200,1,2,0:0:0:0:
156,224,116600,1,14,0:0:0:0:
204,156,116900,1,14,0:0:0:0:
260,168,117300,1,14,0:0:0:0:
272,256,117700,1,14,0:0:0:0:
336,160,118000,1,14,0:0:0:0:
20,84,118300,5,0,0:0:0:0:
116,264,118700,1,0,0:0:0:0:
120,80,119400,1,0,0:0:0:0:
184,240,119800,1,0,0:0:0:0:
240,96,120100,1,0,0:0:0:0:
300,256,120500,1,0,0:0:0:0:
56,72,120800,5,2,0:0:0:0:
80,212,121100,1,2,0:0:0:0:
168,72,121500,1,2,0:0:0:0:
212,212,121900,1,2,0:0:0:0:
88,72,122200,5,0,0:0:0:0:
112,200,122600,1,0,0:0:0:0:
196,56,122900,1,0,0:0:0:0:
220,208,123300,1,0,0:0:0:0:
120,84,124000,5,14,0:0:0:0:
316,84,124400,1,14,0:0:0:0:
252,244,124700,1,14,0:0:0:0:
