osu file format v13

[General]
AudioFilename: B!B!K!K!B!K!K!.mp3
AudioLeadIn: 0
PreviewTime: 3271
Countdown: 1
SampleSet: None
StackLeniency: 0.7
Mode: 0
LetterboxInBreaks: 1
WidescreenStoryboard: 1

[Editor]
DistanceSpacing: 1
BeatDivisor: 4
GridSize: 4
TimelineZoom: 1

[Metadata]
Title:B!B!K!K!B!K!K!
TitleUnicode:B!B!K!K!B!K!K!
Artist:
ArtistUnicode:ニコニコ動画
Creator:Furan_495
Version:KBS
Source:
Tags:
BeatmapID:549949
BeatmapSetID:237134

[Difficulty]
HPDrainRate:0
CircleSize:3
OverallDifficulty:4
ApproachRate:9
SliderMultiplier:1.4
SliderTickRate:1

[Events]
//Background and Video events
0,0,"imagesRCDPUJWF.jpg",0,0
//Break Periods
2,57200,67900
//Storyboard Layer 0 (Background)
//Storyboard Layer 1 (Fail)
//Storyboard Layer 2 (Pass)
//Storyboard Layer 3 (Foreground)
//Storyboard Sound Samples
//Background Colour Transformations
3,100,163,162,255

[TimingPoints]
0,400,4,1,0,100,1,0
0,400,4,1,0,100,1,0
0,-100,4,1,0,100,0,0

[HitObjects]
256,192,3300,12,0,11000,0:0:0:0:
256,192,12000,12,0,17300,0:0:0:0:
256,192,17900,12,0,21900,0:0:0:0:
68,96,22700,5,0,0:0:0:0:
172,152,23400,1,0,0:0:0:0:
112,220,24800,1,0,0:0:0:0:
256,88,26200,1,0,0:0:0:0:
80,92,27600,1,0,0:0:0:0:
236,92,28400,1,0,0:0:0:0:
256,232,28700,1,0,0:0:0:0:
80,72,29000,5,0,0:0:0:0:
220,148,30500,1,0,0:0:0:0:
96,104,31800,1,0,0:0:0:0:
96,52,34700,5,0,0:0:0:0:
96,248,35000,1,0,0:0:0:0:
232,64,35400,1,0,0:0:0:0:
216,268,35700,1,0,0:0:0:0:
296,72,36100,1,0,0:0:0:0:
332,276,36500,1,0,0:0:0:0:
432,140,36800,1,0,0:0:0:0:
64,72,37600,5,0,0:0:0:0:
76,196,37900,1,0,0:0:0:0:
204,132,38200,1,0,0:0:0:0:
232,244,38600,1,0,0:0:0:0:
352,128,38900,1,0,0:0:0:0:
352,284,39200,1,0,0:0:0:0:
460,172,39600,1,0,0:0:0:0:
324,204,40000,1,0,0:0:0:0:
76,88,40300,1,0,0:0:0:0:
80,124,40700,5,0,0:0:0:0:
92,236,41000,1,0,0:0:0:0:
160,108,41400,1,0,0:0:0:0:
192,232,41700,1,0,0:0:0:0:
228,132,42100,1,0,0:0:0:0:
280,244,42500,1,0,0:0:0:0:
64,84,43200,5,0,0:0:0:0:
72,192,43500,1,0,0:0:0:0:
160,104,43900,1,0,0:0:0:0:
168,208,44200,1,0,0:0:0:0:
248,120,44500,1,0,0:0:0:0:
168,132,44900,5,0,0:0:0:0:
208,184,45100,1,0,0:0:0:0:
228,212,45300,1,0,0:0:0:0:
264,264,45500,1,0,0:0:0:0:
284,288,45600,1,0,0:0:0:0:
304,320,45800,1,0,0:0:0:0:
328,192,46400,5,0,0:0:0:0:
376,88,46700,1,0,0:0:0:0:
416,252,47100,1,0,0:0:0:0:
164,168,47400,1,0,0:0:0:0:
236,112,47800,1,0,0:0:0:0:
224,288,48100,1,0,0:0:0:0:
20,72,48800,5,0,0:0:0:0:
64,224,49100,1,0,0:0:0:0:
156,104,49500,1,0,0:0:0:0:
176,224,49800,1,0,0:0:0:0:
264,76,50200,1,0,0:0:0:0:
288,232,50600,1,0,0:0:0:0:
404,84,50900,1,0,0:0:0:0:
420,224,51200,1,0,0:0:0:0:
128,68,51600,5,0,0:0:0:0:
284,124,52300,1,0,0:0:0:0:
60,232,53000,1,0,0:0:0:0:
328,276,53800,1,0,0:0:0:0:
136,60,54500,5,0,0:0:0:0:
156,192,54800,1,0,0:0:0:0:
312,88,55100,1,0,0:0:0:0:
320,200,55500,1,0,0:0:0:0:
96,128,56300,5,0,0:0:0:0:
208,212,56600,1,0,0:0:0:0:
360,220,57000,1,0,0:0:0:0:
80,96,68500,5,0,0:0:0:0:
84,256,68900,1,0,0:0:0:0:
160,104,69300,1,0,0:0:0:0:
176,248,69600,1,0,0:0:0:0:
224,116,70000,1,0,0:0:0:0:
256,252,70400,1,0,0:0:0:0:
324,168,70700,1,0,0:0:0:0:
100,84,71500,5,0,0:0:0:0:
104,212,71800,1,0,0:0:0:0:
192,100,72100,1,0,0:0:0:0:
220,248,72500,1,0,0:0:0:0:
296,96,72800,1,0,0:0:0:0:
328,248,73100,1,0,0:0:0:0:
392,112,73500,1,0,0:0:0:0:
60,72,74200,5,0,0:0:0:0:
72,228,74500,1,0,0:0:0:0:
140,88,74900,1,0,0:0:0:0:
168,228,75300,1,0,0:0:0:0:
248,80,75600,1,0,0:0:0:0:
260,236,76000,1,0,0:0:0:0:
352,116,76400,1,0,0:0:0:0:
368,224,76700,1,0,0:0:0:0:
108,104,77100,5,0,0:0:0:0:
120,252,77400,1,0,0:0:0:0:
196,136,77800,1,0,0:0:0:0:
228,264,78100,1,0,0:0:0:0:
104,44,78400,5,0,0:0:0:0:
124,220,78800,1,0,0:0:0:0:
116,52,79900,5,0,0:0:0:0:
108,208,80200,1,0,0:0:0:0:
232,68,80500,1,0,0:0:0:0:
232,216,80900,1,0,0:0:0:0:
304,52,81300,1,0,0:0:0:0:
324,240,81600,1,0,0:0:0:0:
452,128,82000,1,0,0:0:0:0:
72,52,82700,5,0,0:0:0:0:
80,208,83000,1,0,0:0:0:0:
164,60,83400,1,0,0:0:0:0:
192,216,83700,1,0,0:0:0:0:
280,68,84100,1,0,0:0:0:0:
296,228,84400,1,0,0:0:0:0:
384,68,84800,1,0,0:0:0:0:
396,212,85100,1,0,0:0:0:0:
104,48,85500,5,0,0:0:0:0:
116,204,85800,1,0,0:0:0:0:
192,32,86200,1,0,0:0:0:0:
220,200,86600,1,0,0:0:0:0:
288,56,87000,1,0,0:0:0:0:
336,224,87300,1,0,0:0:0:0:
140,144,87600,1,0,0:0:0:0:
60,72,88300,5,0,0:0:0:0:
80,208,88700,1,0,0:0:0:0:
156,108,89100,1,0,0:0:0:0:
212,236,89400,1,0,0:0:0:0:
328,112,89700,1,0,0:0:0:0:
168,88,90100,5,0,0:0:0:0:
212,148,90300,1,0,0:0:0:0:
264,244,90600,1,0,0:0:0:0:
312,300,90900,1,0,0:0:0:0:
328,312,91100,1,0,0:0:0:0:
92,96,91200,5,0,0:0:0:0:
100,208,91400,1,0,0:0:0:0:
160,88,91700,1,0,0:0:0:0:
208,200,91900,1,0,0:0:0:0:
256,116,92200,1,0,0:0:0:0:
56,72,92500,5,0,0:0:0:0:
72,200,92800,1,0,0:0:0:0:
148,84,93100,1,0,0:0:0:0:
168,188,93200,1,0,0:0:0:0:
264,52,94000,5,0,0:0:0:0:
276,216,94600,1,0,0:0:0:0:
356,80,95500,5,0,0:0:0:0:
360,192,95700,1,0,0:0:0:0:
144,104,95900,1,0,0:0:0:0:
136,248,96100,1,0,0:0:0:0:
256,96,96400,1,0,0:0:0:0:
260,268,96600,1,0,0:0:0:0:
64,88,96900,5,0,0:0:0:0:
92,216,97100,1,0,0:0:0:0:
156,96,97400,1,0,0:0:0:0:
188,208,97500,1,0,0:0:0:0:
224,104,97800,1,0,0:0:0:0:
76,88,98200,5,0,0:0:0:0:
68,220,98400,1,0,0:0:0:0:
160,96,98900,1,0,0:0:0:0:
172,244,99300,1,0,0:0:0:0:
248,88,99600,1,0,0:0:0:0:
44,92,100300,5,0,0:0:0:0:
132,128,101000,1,0,0:0:0:0:
168,216,101400,1,0,0:0:0:0:
296,132,101800,1,0,0:0:0:0:
340,220,102000,1,0,0:0:0:0:
360,264,102100,1,0,0:0:0:0:
72,96,102500,5,0,0:0:0:0:
72,252,102800,1,0,0:0:0:0:
168,116,103200,1,0,0:0:0:0:
180,280,103500,1,0,0:0:0:0:
268,152,103900,1,0,0:0:0:0:
64,72,104100,5,0,0:0:0:0:
60,184,104300,1,0,0:0:0:0:
160,76,104500,1,0,0:0:0:0:
168,220,104800,1,0,0:0:0:0:
260,52,105000,1,0,0:0:0:0:
68,112,105600,5,0,0:0:0:0:
160,152,105700,1,0,0:0:0:0:
200,252,106000,1,0,0:0:0:0:
240,208,106400,1,0,0:0:0:0:
280,296,106700,1,0,0:0:0:0:
344,152,107100,1,0,0:0:0:0:
392,276,107400,1,0,0:0:0:0:
116,80,108100,1,0,0:0:0:0:
132,212,108400,1,0,0:0:0:0:
180,104,108800,1,0,0:0:0:0:
200,212,109200,1,0,0:0:0:0:
72,88,109500,5,0,0:0:0:0:
104,248,109900,1,0,0:0:0:0:
164,124,110200,1,0,0:0:0:0:
204,264,110600,1,0,0:0:0:0:
264,136,111000,1,0,0:0:0:0:
300,256,111200,1,0,0:0:0:0:
360,120,111400,1,0,0:0:0:0:
392,248,111600,1,0,0:0:0:0:
420,148,111900,5,0,0:0:0:0:
460,252,112100,1,0,0:0:0:0:
64,72,112400,5,0,0:0:0:0:
84,232,112700,1,0,0:0:0:0:
132,72,113100,1,0,0:0:0:0:
180,280,113400,1,0,0:0:0:0:
200,84,113800,5,0,0:0:0:0:
224,232,114000,1,0,0:0:0:0:
284,88,114300,1,0,0:0:0:0:
316,264,114500,1,0,0:0:0:0:
384,80,114700,1,0,0:0:0:0:
408,272,115000,1,0,0:0:0:0:
448,112,115200,1,0,0:0:0:0:
336,224,115400,1,0,0:0:0:0:
96,156,115700,1,0,0:0:0:0:
80,108,116200,1,0,0:0:0:0:
44,60,116600,5,0,0:0:0:0:
60,224,116800,1,0,0:0:0:0:
136,48,117100,1,0,0:0:0:0:
192,232,117200,1,0,0:0:0:0:
264,76,117600,1,0,0:0:0:0:
304,248,118000,1,0,0:0:0:0:
392,76,118300,1,0,0:0:0:0:
32,116,118800,5,0,0:0:0:0:
208,112,119600,5,0,0:0:0:0:
212,236,119900,1,0,0:0:0:0:
284,120,120100,1,0,0:0:0:0:
324,264,120400,1,0,0:0:0:0:
384,116,120800,1,0,0:0:0:0:
408,248,121200,1,0,0:0:0:0:
472,128,121500,1,0,0:0:0:0:
472,248,121800,1,0,0:0:0:0:
100,104,122300,5,0,0:0:0:0:
116,252,122400,1,0,0:0:0:0:
224,88,122700,1,0,0:0:0:0:
248,264,122900,1,0,0:0:0:0:
332,88,123200,1,0,0:0:0:0:
388,244,123400,1,0,0:0:0:0:
128,136,124000,5,0,0:0:0:0:
212,160,124300,1,0,0:0:0:0:
324,152,124700,1,0,0:0:0:0:
