osu file format v13

[General]
AudioFilename: B!B!K!K!B!K!K!.mp3
AudioLeadIn: 0
PreviewTime: -1
Countdown: 1
SampleSet: Normal
StackLeniency: 0.7
Mode: 2
LetterboxInBreaks: 1
WidescreenStoryboard: 1

[Editor]
DistanceSpacing: 1
BeatDivisor: 4
GridSize: 4
TimelineZoom: 1

[Metadata]
Title:B!B!K!K!B!K!K!
TitleUnicode:B!B!K!K!B!K!K!
Artist:
ArtistUnicode:ニコニコ動画
Creator:Furan_495
Version:CTB is Not God.
Source:
Tags:
BeatmapID:550139
BeatmapSetID:237134

[Difficulty]
HPDrainRate:6
CircleSize:4
OverallDifficulty:8
ApproachRate:8
SliderMultiplier:1.4
SliderTickRate:1

[Events]
//Background and Video events
0,0,"imagesRCDPUJWF.jpg",0,0
//Break Periods
2,57100,67850
//Storyboard Layer 0 (Background)
//Storyboard Layer 1 (Fail)
//Storyboard Layer 2 (Pass)
//Storyboard Layer 3 (Foreground)
//Storyboard Sound Samples
//Background Colour Transformations
3,100,163,162,255

[TimingPoints]
0,400,4,1,0,100,1,0
0,400,4,1,0,100,1,0
0,-100,4,1,0,100,0,0

[HitObjects]
76,116,1700,5,0,0:0:0:0:
88,316,2000,1,0,0:0:0:0:
172,144,2300,1,0,0:0:0:0:
192,304,2600,1,0,0:0:0:0:
272,168,3000,1,0,0:0:0:0:
36,188,3700,1,0,0:0:0:0:
388,180,4000,1,0,0:0:0:0:
112,104,4300,5,0,0:0:0:0:
120,288,4700,1,0,0:0:0:0:
216,84,5000,1,0,0:0:0:0:
248,288,5400,1,0,0:0:0:0:
312,128,5700,1,0,0:0:0:0:
28,180,6500,1,0,0:0:0:0:
344,180,6800,1,0,0:0:0:0:
88,80,7200,5,0,0:0:0:0:
108,292,7500,1,0,0:0:0:0:
200,120,7800,1,0,0:0:0:0:
220,288,8200,1,0,0:0:0:0:
272,128,8600,1,0,0:0:0:0:
56,188,9300,5,0,0:0:0:0:
368,184,9600,1,0,0:0:0:0:
136,108,10000,1,0,0:0:0:0:
156,264,10400,1,0,0:0:0:0:
104,128,11100,5,0,0:0:0:0:
128,296,11400,1,0,0:0:0:0:
256,196,11700,1,0,0:0:0:0:
60,196,12100,5,0,0:0:0:0:
448,188,12500,1,0,0:0:0:0:
76,196,12800,1,0,0:0:0:0:
408,192,13200,1,0,0:0:0:0:
80,196,13500,1,0,0:0:0:0:
416,200,13900,1,0,0:0:0:0:
96,200,14200,1,0,0:0:0:0:
408,192,14600,1,0,0:0:0:0:
96,80,14900,1,0,0:0:0:0:
120,240,15200,1,0,0:0:0:0:
192,108,15600,5,0,0:0:0:0:
224,236,16000,1,0,0:0:0:0:
72,64,16300,5,0,0:0:0:0:
80,216,16700,1,0,0:0:0:0:
188,64,17000,1,0,0:0:0:0:
220,248,17400,1,0,0:0:0:0:
296,60,17700,1,0,0:0:0:0:
320,224,18100,1,0,0:0:0:0:
384,80,18400,1,0,0:0:0:0:
436,188,18800,1,0,0:0:0:0:
68,92,19100,5,0,0:0:0:0:
96,240,19500,1,0,0:0:0:0:
176,108,19800,1,0,0:0:0:0:
212,256,20200,1,0,0:0:0:0:
280,96,20600,1,0,0:0:0:0:
316,256,20900,1,0,0:0:0:0:
376,112,21200,1,0,0:0:0:0:
72,152,21700,5,0,0:0:0:0:
260,160,21800,1,0,0:0:0:0:
276,216,22000,1,0,0:0:0:0:
136,112,22700,5,0,0:0:0:0:
200,88,23400,1,0,0:0:0:0:
212,184,23700,1,0,0:0:0:0:
208,208,24100,1,0,0:0:0:0:
208,256,24400,1,0,0:0:0:0:
60,188,24800,5,0,0:0:0:0:
72,288,25200,1,0,0:0:0:0:
112,200,25500,1,0,0:0:0:0:
144,296,25900,1,0,0:0:0:0:
224,168,26400,5,0,0:0:0:0:
224,272,26700,1,0,0:0:0:0:
312,136,27000,1,0,0:0:0:0:
320,280,27300,1,0,0:0:0:0:
416,128,27600,1,0,0:0:0:0:
424,292,28000,1,0,0:0:0:0:
0,88,28300,5,0,0:0:0:0:
48,252,28700,1,0,0:0:0:0:
124,96,29100,1,0,0:0:0:0:
160,272,29400,1,0,0:0:0:0:
248,80,29700,1,0,0:0:0:0:
288,260,30100,1,0,0:0:0:0:
24,216,30500,5,0,0:0:0:0:
364,192,30800,1,0,0:0:0:0:
160,280,31100,1,0,0:0:0:0:
176,112,31500,1,0,0:0:0:0:
284,96,32200,5,0,0:0:0:0:
284,248,32500,1,0,0:0:0:0:
392,116,32900,1,0,0:0:0:0:
424,184,33300,1,0,0:0:0:0:
16,204,34600,5,0,0:0:0:0:
408,192,35000,1,0,0:0:0:0:
76,216,35400,1,0,0:0:0:0:
412,176,35800,1,0,0:0:0:0:
68,208,36100,1,0,0:0:0:0:
392,180,36500,1,0,0:0:0:0:
68,224,36800,1,0,0:0:0:0:
112,208,37500,5,0,0:0:0:0:
408,192,37900,1,0,0:0:0:0:
76,220,38200,1,0,0:0:0:0:
392,144,38600,1,0,0:0:0:0:
112,196,38900,1,0,0:0:0:0:
368,168,39300,1,0,0:0:0:0:
48,232,39600,1,0,0:0:0:0:
344,132,40000,1,0,0:0:0:0:
88,304,40300,5,0,0:0:0:0:
344,104,40700,1,0,0:0:0:0:
108,316,41000,1,0,0:0:0:0:
372,120,41400,1,0,0:0:0:0:
128,324,41700,1,0,0:0:0:0:
360,144,42100,1,0,0:0:0:0:
128,328,42400,1,0,0:0:0:0:
116,280,43100,5,0,0:0:0:0:
360,120,43500,1,0,0:0:0:0:
116,316,43900,1,0,0:0:0:0:
368,124,44200,1,0,0:0:0:0:
120,336,44500,1,0,0:0:0:0:
112,104,44900,5,0,0:0:0:0:
128,256,45100,1,0,0:0:0:0:
188,120,45300,1,0,0:0:0:0:
208,268,45500,1,0,0:0:0:0:
264,120,45700,1,0,0:0:0:0:
320,212,45800,1,0,0:0:0:0:
72,200,46000,5,0,0:0:0:0:
392,160,46300,1,0,0:0:0:0:
132,232,46700,1,0,0:0:0:0:
352,164,47100,1,0,0:0:0:0:
152,244,47400,1,0,0:0:0:0:
360,144,47800,1,0,0:0:0:0:
96,272,48100,1,0,0:0:0:0:
96,296,48800,5,0,0:0:0:0:
404,128,49200,1,0,0:0:0:0:
116,288,49500,1,0,0:0:0:0:
404,128,49900,1,0,0:0:0:0:
88,300,50200,1,0,0:0:0:0:
380,144,50600,1,0,0:0:0:0:
96,300,50900,1,0,0:0:0:0:
352,164,51300,1,0,0:0:0:0:
32,320,51600,5,0,0:0:0:0:
400,128,52300,1,0,0:0:0:0:
76,320,53000,1,0,0:0:0:0:
416,132,53800,1,0,0:0:0:0:
76,312,54500,5,0,0:0:0:0:
396,144,54800,1,0,0:0:0:0:
92,320,55200,1,0,0:0:0:0:
360,164,55500,1,0,0:0:0:0:
92,100,56200,5,0,0:0:0:0:
108,284,56600,1,0,0:0:0:0:
316,144,56900,1,0,0:0:0:0:
64,208,68600,5,0,0:0:0:0:
360,192,68900,1,0,0:0:0:0:
92,216,69300,1,0,0:0:0:0:
368,200,69700,1,0,0:0:0:0:
104,236,70000,1,0,0:0:0:0:
376,204,70400,1,0,0:0:0:0:
128,228,70700,1,0,0:0:0:0:
112,216,71400,5,0,0:0:0:0:
388,208,71800,1,0,0:0:0:0:
64,216,72100,1,0,0:0:0:0:
416,192,72500,1,0,0:0:0:0:
104,216,72900,1,0,0:0:0:0:
372,200,73200,1,0,0:0:0:0:
116,220,73600,1,0,0:0:0:0:
384,200,73900,1,0,0:0:0:0:
152,224,74200,5,0,0:0:0:0:
404,200,74600,1,0,0:0:0:0:
140,220,74900,1,0,0:0:0:0:
416,192,75300,1,0,0:0:0:0:
104,224,75600,1,0,0:0:0:0:
436,180,76000,1,0,0:0:0:0:
104,224,76400,1,0,0:0:0:0:
412,184,76700,1,0,0:0:0:0:
144,104,77100,5,0,0:0:0:0:
160,280,77400,1,0,0:0:0:0:
288,128,77800,1,0,0:0:0:0:
320,300,78100,1,0,0:0:0:0:
368,128,78500,1,0,0:0:0:0:
428,304,78800,1,0,0:0:0:0:
64,192,79900,5,0,0:0:0:0:
344,188,80200,1,0,0:0:0:0:
104,196,80600,1,0,0:0:0:0:
424,188,81000,1,0,0:0:0:0:
88,200,81300,1,0,0:0:0:0:
448,184,81600,1,0,0:0:0:0:
140,188,82000,1,0,0:0:0:0:
136,324,82700,5,0,0:0:0:0:
344,144,83000,1,0,0:0:0:0:
180,348,83400,1,0,0:0:0:0:
176,112,83800,1,0,0:0:0:0:
296,336,84100,1,0,0:0:0:0:
340,128,84500,1,0,0:0:0:0:
160,288,84800,1,0,0:0:0:0:
240,120,85200,1,0,0:0:0:0:
116,140,85600,5,0,0:0:0:0:
144,288,85900,1,0,0:0:0:0:
256,120,86200,1,0,0:0:0:0:
288,304,86600,1,0,0:0:0:0:
352,132,86900,1,0,0:0:0:0:
396,288,87300,1,0,0:0:0:0:
424,164,87600,1,0,0:0:0:0:
56,192,88300,5,0,0:0:0:0:
372,192,88700,1,0,0:0:0:0:
76,200,89100,1,0,0:0:0:0:
352,160,89400,1,0,0:0:0:0:
100,92,90100,5,0,0:0:0:0:
136,300,90200,1,0,0:0:0:0:
196,124,90400,1,0,0:0:0:0:
232,344,90600,1,0,0:0:0:0:
264,116,90700,1,0,0:0:0:0:
312,320,90900,1,0,0:0:0:0:
80,176,91100,5,0,0:0:0:0:
352,164,91400,1,0,0:0:0:0:
164,280,91700,1,0,0:0:0:0:
196,64,91900,1,0,0:0:0:0:
312,312,92100,1,0,0:0:0:0:
100,120,92600,5,0,0:0:0:0:
144,304,92900,1,0,0:0:0:0:
276,108,93100,1,0,0:0:0:0:
320,268,93300,1,0,0:0:0:0:
88,168,94000,5,0,0:0:0:0:
256,96,94700,1,0,0:0:0:0:
272,244,94800,1,0,0:0:0:0:
388,88,95200,1,0,0:0:0:0:
424,280,95400,1,0,0:0:0:0:
152,176,95700,1,0,0:0:0:0:
160,296,95900,1,0,0:0:0:0:
260,132,96200,1,0,0:0:0:0:
288,280,96400,1,0,0:0:0:0:
328,112,96600,1,0,0:0:0:0:
388,224,96800,1,0,0:0:0:0:
124,96,97400,5,0,0:0:0:0:
128,288,97600,1,0,0:0:0:0:
248,96,97800,1,0,0:0:0:0:
272,316,98200,1,0,0:0:0:0:
352,96,98500,1,0,0:0:0:0:
384,288,98700,1,0,0:0:0:0:
416,88,98900,1,0,0:0:0:0:
136,208,99300,1,0,0:0:0:0:
160,84,99700,1,0,0:0:0:0:
284,120,100300,5,0,0:0:0:0:
60,116,101000,1,0,0:0:0:0:
112,272,101400,1,0,0:0:0:0:
160,116,101700,1,0,0:0:0:0:
192,296,101900,1,0,0:0:0:0:
248,128,102100,1,0,0:0:0:0:
72,184,102500,5,0,0:0:0:0:
356,172,102700,1,0,0:0:0:0:
128,216,103000,1,0,0:0:0:0:
176,84,103200,1,0,0:0:0:0:
232,208,103400,1,0,0:0:0:0:
336,212,103700,1,0,0:0:0:0:
352,272,103900,1,0,0:0:0:0:
96,128,104200,1,0,0:0:0:0:
120,308,104400,1,0,0:0:0:0:
236,80,104600,1,0,0:0:0:0:
268,304,104800,1,0,0:0:0:0:
344,96,105100,1,0,0:0:0:0:
108,96,105300,5,0,0:0:0:0:
124,280,105500,1,0,0:0:0:0:
256,88,105700,1,0,0:0:0:0:
304,296,105900,1,0,0:0:0:0:
380,108,106300,1,0,0:0:0:0:
396,276,106700,1,0,0:0:0:0:
172,140,107100,1,0,0:0:0:0:
328,112,107400,1,0,0:0:0:0:
116,192,108100,5,0,0:0:0:0:
388,184,108300,1,0,0:0:0:0:
104,192,108600,1,0,0:0:0:0:
388,160,108800,1,0,0:0:0:0:
136,192,109100,1,0,0:0:0:0:
352,196,109500,1,0,0:0:0:0:
104,208,109900,1,0,0:0:0:0:
160,120,110300,5,0,0:0:0:0:
172,280,110600,1,0,0:0:0:0:
328,132,110900,1,0,0:0:0:0:
344,280,111100,1,0,0:0:0:0:
416,80,111400,1,0,0:0:0:0:
448,260,111600,1,0,0:0:0:0:
180,152,111900,1,0,0:0:0:0:
180,288,112100,1,0,0:0:0:0:
276,120,112300,1,0,0:0:0:0:
396,180,113100,5,0,0:0:0:0:
56,188,113400,1,0,0:0:0:0:
416,188,113800,1,0,0:0:0:0:
120,184,114000,1,0,0:0:0:0:
396,180,114300,1,0,0:0:0:0:
124,176,114500,1,0,0:0:0:0:
408,184,114700,1,0,0:0:0:0:
40,188,114900,1,0,0:0:0:0:
424,188,115200,1,0,0:0:0:0:
128,208,115500,1,0,0:0:0:0:
136,200,115900,5,0,0:0:0:0:
416,184,116200,1,0,0:0:0:0:
132,192,116600,1,0,0:0:0:0:
396,184,116800,1,0,0:0:0:0:
112,184,117000,1,0,0:0:0:0:
416,184,117200,1,0,0:0:0:0:
100,192,118000,5,0,0:0:0:0:
388,192,118400,1,0,0:0:0:0:
144,192,118700,1,0,0:0:0:0:
100,192,119400,1,0,0:0:0:0:
360,184,119600,1,0,0:0:0:0:
112,192,119800,1,0,0:0:0:0:
400,200,119900,1,0,0:0:0:0:
116,196,120100,1,0,0:0:0:0:
396,208,120500,1,0,0:0:0:0:
104,164,120900,5,0,0:0:0:0:
128,280,121100,1,0,0:0:0:0:
240,80,121300,1,0,0:0:0:0:
324,248,121500,1,0,0:0:0:0:
336,92,121600,1,0,0:0:0:0:
376,224,121800,1,0,0:0:0:0:
132,200,122200,1,0,0:0:0:0:
388,192,122400,1,0,0:0:0:0:
132,184,122600,1,0,0:0:0:0:
400,192,122800,1,0,0:0:0:0:
72,52,123200,5,0,0:0:0:0:
128,244,123400,1,0,0:0:0:0:
112,192,124000,5,0,0:0:0:0:
368,204,124300,1,0,0:0:0:0:
108,208,124700,1,0,0:0:0:0:
236,180,125200,1,0,0:0:0:0:
