osu file format v14

[General]
AudioFilename: Musaigen no Phantom WorldED1.mp3
AudioLeadIn: 0
PreviewTime: 56485
Countdown: 0
SampleSet: Soft
StackLeniency: 0.7
Mode: 0
LetterboxInBreaks: 0
WidescreenStoryboard: 0

[Editor]
DistanceSpacing: 1.1
BeatDivisor: 4
GridSize: 4
TimelineZoom: 1

[Metadata]
Title:Junshin Always
TitleUnicode:純真Always
Artist:Azusa Tadokoro
ArtistUnicode:田所あずさ
Creator:Rizia
Version:Hard
Source:無彩限のファントム・ワールド
Tags:Musaigen no Phantom World Myriad Colors tv size ending kawaiwkyik happy623 sekaii einess iamkwan skystar
BeatmapID:874049
BeatmapSetID:401869

[Difficulty]
HPDrainRate:6
CircleSize:4
OverallDifficulty:6
ApproachRate:8
SliderMultiplier:1.6
SliderTickRate:1

[Events]
//Background and Video events
0,0,"always.png",0,0
Video,10,"alwaysss.avi"
//Break Periods
//Storyboard Layer 0 (Background)
//Storyboard Layer 1 (Fail)
//Storyboard Layer 2 (Pass)
//Storyboard Layer 3 (Foreground)
//Storyboard Sound Samples

[TimingPoints]
-98,333.333333333333,4,2,1,60,1,0
1235,-166.666666666667,4,2,1,60,0,0
5235,-133.333333333333,4,2,1,60,0,0
6568,-100,4,2,1,60,0,0
6901,-100,4,2,1,40,0,0
7235,-100,4,2,1,50,0,0
7568,-100,4,2,1,70,0,0
18568,-166.666666666667,4,2,1,60,0,0
18735,-166.666666666667,4,2,0,60,0,0
19485,-166.666666666667,4,2,1,60,0,0
19901,-125,4,2,1,60,0,0
25235,-111.111111111111,4,2,1,70,0,0
30568,-125,4,2,1,60,0,0
35901,-111.111111111111,4,2,1,70,0,0
54568,-100,4,2,1,70,0,0
56568,-83.3333333333333,4,2,1,45,0,0
56735,-83.3333333333333,4,2,1,50,0,0
56901,-83.3333333333333,4,2,1,55,0,0
57068,-83.3333333333333,4,2,1,60,0,0
57235,-100,4,2,1,70,0,1
86901,-100,4,2,1,40,0,1
87235,-100,4,2,1,50,0,1
87901,-100,4,2,1,60,0,1
88568,-100,4,2,1,70,0,1
89068,-100,4,2,1,60,0,0

[Colours]
Combo1 : 0,128,0
Combo2 : 255,203,23
Combo3 : 255,0,0
Combo4 : 128,0,255

[HitObjects]
72,104,1235,6,0,B|72:132|104:160|104:160|200:116|200:116|316:148,1,287.999991210938,4|0,0:0|0:0,0:0:0:0:
328,240,2568,2,0,B|212:209|212:209|244:309|244:309|228:336|232:372,1,287.999991210938,4|0,0:0|0:0,0:0:0:0:
316,356,3901,2,0,B|360:344|360:344|472:368|472:368|436:312|436:312|456:236,1,287.999991210938,4|0,0:0|0:0,0:0:0:0:
412,80,5235,6,0,L|420:160,1,60.0000022888184,4|0,0:0|0:0,0:0:0:0:
336,108,5568,2,0,L|344:188,1,60.0000022888184,0|0,1:0|0:0,0:0:0:0:
256,140,5901,2,0,L|264:220,1,60.0000022888184,0|0,1:0|0:0,0:0:0:0:
176,168,6235,2,0,L|181:224,3,30.0000011444092,8|8|8|8,0:0|0:0|0:0|0:0,0:0:0:0:
184,236,6568,6,0,P|152:264|40:256,1,160,4|0,0:0|1:0,0:0:0:0:
12,180,7068,1,0,1:0:0:0:
44,108,7235,2,0,P|88:92|128:88,1,80,0|0,1:0|1:0,0:0:0:0:
176,168,7568,2,0,P|220:184|260:188,1,80,0|0,1:0|1:0,0:0:0:0:
336,144,7901,5,0,1:0:0:0:
336,144,8068,1,0,1:0:0:0:
460,56,8568,2,0,L|452:104,7,40,8|8|8|8|8|8|8|8,0:0|0:0|0:0|0:0|0:0|0:0|0:0|0:0,0:0:0:0:
480,128,9235,6,0,P|432:124|316:104,1,160,4|8,0:0|0:0,0:0:0:0:
240,76,9735,1,0,0:0:0:0:
182,138,9901,2,0,P|216:158|255:160,1,80,2|2,0:0|0:0,0:0:0:0:
340,192,10235,2,0,P|328:248|320:308,1,80,8|0,0:0|0:0,0:0:0:0:
276,344,10568,6,0,P|320:356|408:288,2,160,2|8|2,0:0|0:0|0:0,0:0:0:0:
208,284,11401,1,2,0:0:0:0:
136,336,11568,2,0,L|52:328,1,80,8|0,0:0|0:0,0:0:0:0:
8,256,11901,6,0,P|0:216|64:104,1,160,2|8,0:0|0:0,0:0:0:0:
132,80,12401,1,0,0:0:0:0:
212,112,12568,2,0,P|228:152|220:208,1,80,2|2,0:0|0:0,0:0:0:0:
156,240,12901,2,0,P|140:200|148:144,1,80,8|0,0:0|0:0,0:0:0:0:
132,80,13235,6,0,P|168:40|276:56,1,160,2|12,0:0|0:0,0:0:0:0:
336,100,13735,1,0,0:0:0:0:
424,88,13901,2,0,L|472:80,7,40,10|8|8|8|8|8|8|8,0:0|0:0|0:0|0:0|0:0|0:0|0:0|0:0,0:0:0:0:
500,96,14568,6,0,P|480:148|464:260,1,160,4|8,0:0|0:0,0:0:0:0:
476,336,15068,1,0,0:0:0:0:
392,368,15235,2,0,P|352:376|300:364,1,80,2|2,0:0|0:0,0:0:0:0:
232,336,15568,2,0,P|192:329|153:337,1,80,8|0,0:0|0:0,0:0:0:0:
76,376,15901,6,0,P|40:348|48:228,1,160,2|8,0:0|0:0,0:0:0:0:
88,172,16401,1,0,0:0:0:0:
152,232,16568,2,0,P|172:180|148:104,1,120,2|0,0:0|0:0,0:0:0:0:
124,92,16901,2,0,L|24:96,1,80,8|0,0:0|0:0,0:0:0:0:
196,36,17235,6,0,L|384:44,1,160,2|12,0:0|0:0,0:0:0:0:
492,156,17901,1,8,0:0:0:0:
492,156,18068,1,8,0:0:0:0:
404,192,18235,2,0,P|403:231|418:268,2,80,8|8|0,0:0|0:0|0:0,0:0:0:0:
344,116,18735,5,2,0:0:0:0:
344,116,18901,2,0,L|228:124,1,95.9999970703126,2|2,0:2|0:0,0:0:0:0:
168,128,19401,1,2,0:0:0:0:
88,132,19568,2,0,L|48:128,4,23.9999992675781,8|8|8|8|6,0:0|0:0|0:0|0:0|0:0,0:0:0:0:
204,232,20235,5,2,0:0:0:0:
100,344,20568,2,0,P|60:356|20:352,1,64,2|0,0:0|0:0,0:0:0:0:
56,280,20901,2,0,P|96:268|136:272,1,64,2|0,0:0|0:0,0:0:0:0:
172,324,21235,6,0,P|232:328|308:320,1,128,2|2,0:0|0:0,0:0:0:0:
372,348,21734,2,0,P|384:304|392:260,1,64,0|2,0:0|0:0,0:0:0:0:
456,248,22068,2,0,P|444:203|429:161,1,64,0|2,0:0|0:0,0:0:0:0:
488,128,22401,1,0,0:0:0:0:
488,128,22568,6,0,P|444:86|381:43,1,128,2|2,0:0|0:0,0:0:0:0:
316,28,23068,1,0,0:0:0:0:
252,72,23235,2,0,P|240:36|244:4,1,64,2|0,0:0|0:0,0:0:0:0:
320,108,23568,2,0,P|316:148|312:184,1,64,2|0,0:0|0:0,0:0:0:0:
264,232,23901,5,2,0:0:0:0:
88,204,24235,1,2,0:0:0:0:
204,68,24568,1,2,0:0:0:0:
188,156,24735,2,0,L|180:212,2,32,0|0|10,0:0|0:0|0:0,0:0:0:0:
320,308,25235,6,0,P|352:260|332:164,2,143.999995605469,4|8|2,0:0|0:0|0:0,0:0:0:0:
248,344,26068,1,2,0:0:0:0:
168,352,26235,2,0,L|92:348,1,71.9999978027344,8|0,0:0|0:0,0:0:0:0:
44,264,26568,6,0,L|120:260,1,71.9999978027344,2|2,0:0|0:0,0:0:0:0:
176,180,26901,2,0,L|100:176,1,71.9999978027344,8|0,0:0|0:0,0:0:0:0:
44,124,27235,2,0,P|32:84|40:44,1,71.9999978027344,2|2,0:0|0:0,0:0:0:0:
108,8,27568,2,0,P|120:48|112:88,1,71.9999978027344,8|0,0:0|0:0,0:0:0:0:
200,100,27901,6,0,P|260:92|376:84,1,143.999995605469,2|8,0:0|0:0,0:0:0:0:
416,116,28401,2,0,P|440:156|416:256,1,143.999995605469,0|2,0:0|0:0,0:0:0:0:
352,280,28901,1,8,0:0:0:0:
352,280,29068,1,0,0:0:0:0:
272,288,29235,6,0,L|192:280,2,71.9999978027344,0|0|12,0:0|0:0|0:0,0:0:0:0:
316,108,29901,2,0,L|387:115,1,71.9999978027344,0|8,0:0|0:0,0:0:0:0:
396,196,30235,2,0,L|324:188,1,71.9999978027344,8|8,0:0|0:0,0:0:0:0:
248,172,30568,6,0,P|208:160|112:204,1,128,4|2,0:0|0:0,0:0:0:0:
76,244,31068,1,0,0:0:0:0:
28,304,31235,2,0,L|36:368,1,64,2|0,0:0|0:0,0:0:0:0:
112,380,31568,2,0,L|104:316,1,64,2|0,0:0|0:0,0:0:0:0:
156,260,31901,6,0,P|196:268|300:280,1,128,2|2,0:0|0:0,0:0:0:0:
356,304,32401,1,0,0:0:0:0:
356,304,32568,2,0,P|364:264|376:160,1,128,2|2,0:0|0:0,0:0:0:0:
360,100,33068,1,8,0:0:0:0:
324,32,33235,6,0,P|292:64|300:148,1,128,2|2,0:0|0:0,0:0:0:0:
172,232,33901,2,0,P|112:220|32:212,1,128,2|2,0:0|0:0,0:0:0:0:
136,60,34568,5,2,0:0:0:0:
256,192,34901,1,2,0:0:0:0:
376,60,35235,1,0,0:0:0:0:
300,108,35401,2,0,L|260:100,5,32,8|8|8|8|8|8,0:0|0:0|0:0|0:0|0:0|0:0,0:0:0:0:
316,124,35901,6,0,P|340:160|312:264,1,143.999995605469,4|8,0:0|0:0,0:0:0:0:
248,276,36401,1,0,0:0:0:0:
176,244,36568,2,0,L|72:252,1,71.9999978027344,2|2,0:0|0:0,0:0:0:0:
56,332,36901,2,0,L|160:340,1,71.9999978027344,8|0,0:0|0:0,0:0:0:0:
216,372,37235,6,0,P|256:356|292:360,1,71.9999978027344,2|0,0:0|0:0,0:0:0:0:
376,368,37568,2,0,P|382:325|403:296,1,71.9999978027344,8|0,0:0|0:0,0:0:0:0:
472,244,37901,2,0,P|438:217|423:184,1,71.9999978027344,2|2,0:0|0:0,0:0:0:0:
420,96,38235,2,0,P|379:112|344:108,1,71.9999978027344,8|0,0:0|0:0,0:0:0:0:
268,72,38568,6,0,P|220:56|112:96,1,143.999995605469,2|8,0:0|0:0,0:0:0:0:
72,152,39068,2,0,L|80:228,1,71.9999978027344,0|2,0:0|0:0,0:0:0:0:
168,260,39401,2,0,L|172:224,2,35.9999989013672,0|0|8,0:0|0:0|0:0,0:0:0:0:
208,344,39735,6,0,P|244:312|250:216,1,143.999995605469,4|0,0:0|0:0,0:0:0:0:
208,148,40235,1,8,0:0:0:0:
208,148,40401,1,8,0:0:0:0:
268,88,40568,2,0,L|372:100,1,71.9999978027344,0|0,0:0|0:0,0:0:0:0:
439,167,40901,2,0,L|368:176,1,71.9999978027344,8|8,0:0|0:0,0:0:0:0:
308,240,41235,6,0,P|320:292|336:384,1,143.999995605469,4|8,0:0|0:0,0:0:0:0:
244,356,41735,1,2,0:0:0:0:
152,372,41901,2,0,P|100:360|8:344,1,143.999995605469,8|8,0:0|0:0,0:0:0:0:
0,252,42401,1,2,0:0:0:0:
68,188,42568,6,0,P|112:176|200:232,2,143.999995605469,8|8|8,0:0|0:0|0:0,0:0:0:0:
200,56,43568,1,8,0:0:0:0:
292,76,43735,1,2,0:0:0:0:
368,132,43901,6,0,P|416:124|516:116,1,143.999995605469,8|8,0:0|0:0,0:0:0:0:
488,240,44401,2,0,P|459:244|399:249,1,71.9999978027344,2|10,0:0|0:0,0:0:0:0:
332,208,44735,2,0,P|303:203|243:198,1,71.9999978027344,2|10,0:0|0:0,0:0:0:0:
208,280,45068,6,0,P|168:308|64:292,1,143.999995605469,2|2,0:0|0:0,0:0:0:0:
132,224,45568,2,0,P|136:188|119:152,1,71.9999978027344,8|2,0:0|0:0,0:0:0:0:
48,100,45901,2,0,P|109:66|179:79,1,143.999995605469,8|12,0:0|0:0,0:0:0:0:
284,236,46568,6,0,L|440:216,2,143.999995605469,2|2|2,0:0|0:0|0:0,0:0:0:0:
208,276,47401,1,0,0:0:0:0:
164,352,47568,2,0,P|116:364|80:356,1,71.9999978027344,2|0,0:0|0:0,0:0:0:0:
24,312,47901,6,0,L|32:232,1,71.9999978027344,2|0,0:0|0:0,0:0:0:0:
92,176,48235,2,0,L|84:96,1,71.9999978027344,2|0,0:0|0:0,0:0:0:0:
20,48,48568,2,0,P|68:76|164:32,1,143.999995605469,2|8,0:0|0:0,0:0:0:0:
304,128,49235,5,6,0:0:0:0:
304,128,49401,2,0,L|400:120,2,71.9999978027344,2|8|0,0:0|0:0|0:0,0:0:0:0:
256,200,49901,2,0,L|184:205,2,71.9999978027344,2|2|8,0:0|0:0|0:0,0:0:0:0:
300,276,50401,5,0,0:0:0:0:
300,276,50568,2,0,P|312:324|312:360,2,71.9999978027344,2|2|12,0:0|0:0|0:0,0:0:0:0:
212,276,51068,1,0,0:0:0:0:
212,276,51235,2,0,P|200:324|200:360,2,71.9999978027344,8|8|8,0:0|0:0|0:0,0:0:0:0:
256,200,51735,1,8,0:0:0:0:
200,132,51901,6,0,P|148:124|56:192,1,143.999995605469,0|12,0:0|0:0,0:0:0:0:
164,360,52568,2,0,P|216:368|308:300,1,143.999995605469,0|12,0:0|0:0,0:0:0:0:
144,44,53235,6,0,P|111:85|123:198,1,143.999995605469,4|8,0:0|0:0,0:0:0:0:
200,132,53735,2,0,P|259:93|330:98,1,143.999995605469,8|8,0:0|0:0,0:0:0:0:
412,160,54235,1,8,0:0:0:0:
256,192,54568,12,8,56901,0:0:0:0:
104,136,57235,6,0,P|172:128|272:116,1,160,4|8,0:0|0:0,0:0:0:0:
348,144,57735,1,0,0:0:0:0:
296,216,57901,2,0,P|284:256|288:316,1,80,2|2,0:0|0:0,0:0:0:0:
368,272,58235,2,0,L|447:279,1,80,8|0,0:0|0:0,0:0:0:0:
340,360,58568,6,0,P|300:376|256:376,1,80,2|2,0:0|0:0,0:0:0:0:
192,324,58901,2,0,P|148:312|48:368,1,160,8|2,0:0|0:0,0:0:0:0:
0,292,59401,1,0,0:0:0:0:
52,220,59568,2,0,L|44:140,1,80,8|0,0:0|0:0,0:0:0:0:
4,60,59901,6,0,P|36:32|156:48,1,160,2|8,0:0|0:0,0:0:0:0:
208,104,60401,1,0,0:0:0:0:
208,104,60568,1,2,0:0:0:0:
284,60,60735,2,0,L|376:68,2,80,2|8|0,0:0|0:0|0:0,0:0:0:0:
208,104,61235,6,0,P|224:176|240:296,1,160,2|8,0:0|0:0,0:0:0:0:
176,328,61735,1,0,0:0:0:0:
94,331,61901,2,0,P|101:292|124:260,1,80,2|2,0:0|0:0,0:0:0:0:
260,340,62235,2,0,P|304:332|364:324,1,80,8|8,0:0|0:0,0:0:0:0:
364,332,62485,1,0,0:0:0:0:
388,340,62568,6,0,P|412:304|520:308,2,160,2|12|2,0:0|0:0|0:0,0:0:0:0:
324,264,63401,1,2,0:0:0:0:
260,340,63568,2,0,P|248:296|244:252,1,80,12|0,0:0|0:0,0:0:0:0:
368,172,63901,5,2,0:0:0:0:
368,172,64068,2,0,P|324:184|280:188,1,80,2|12,0:0|0:0,0:0:0:0:
168,124,64401,1,0,0:0:0:0:
168,123,64568,2,0,P|206:112|246:107,1,80,12|8,0:0|0:0,0:0:0:0:
380,192,64901,2,0,P|336:204|292:208,1,80,8|8,0:0|0:0,0:0:0:0:
204,216,65235,6,0,P|172:256|188:344,1,120,4|0,0:0|0:0,0:0:0:0:
208,348,65568,2,0,L|300:360,1,80,8|0,0:0|0:0,0:0:0:0:
384,324,65901,2,0,P|416:284|400:196,1,120,2|0,0:0|0:0,0:0:0:0:
380,192,66234,2,0,L|288:180,1,80,8|0,0:0|0:0,0:0:0:0:
204,216,66568,6,0,P|188:176|240:52,1,160,4|8,0:0|0:0,0:0:0:0:
316,52,67068,1,0,0:0:0:0:
404,92,67235,2,0,P|420:132|368:256,1,160,4|8,0:0|0:0,0:0:0:0:
228,344,67901,6,0,P|144:336|56:328,1,160,4|8,0:0|0:0,0:0:0:0:
12,252,68401,2,0,P|52:244|100:236,1,80,0|2,0:0|0:0,0:0:0:0:
156,164,68735,2,0,P|116:156|68:148,1,80,2|8,0:0|0:0,0:0:0:0:
16,76,69068,6,0,P|95:68|175:61,1,160,0|2,0:0|0:0,0:0:0:0:
260,88,69568,2,0,P|308:100|436:40,1,160,8|2,0:0|0:0,0:0:0:0:
492,104,70068,1,0,0:0:0:0:
420,156,70235,2,0,P|404:200|416:256,1,80,8|0,0:0|0:0,0:0:0:0:
472,288,70568,6,0,P|432:272|340:356,1,160,2|8,0:0|0:0,0:0:0:0:
250,366,71068,2,0,P|259:327|264:288,1,80,0|2,0:0|0:0,0:0:0:0:
162,241,71401,2,0,P|167:280|176:320,1,80,2|8,0:0|0:0,0:0:0:0:
100,364,71735,6,0,P|52:376|0:288,1,160,0|0,0:0|0:0,0:0:0:0:
56,228,72235,1,12,0:0:0:0:
112,160,72401,1,0,0:0:0:0:
112,160,72568,2,0,P|76:140|-4:160,2,120,8|8|0,0:0|0:0|0:0,0:0:0:0:
136,244,73235,6,0,P|176:248|228:228,1,80,4|0,0:0|0:0,0:0:0:0:
308,312,73568,2,0,P|312:272|292:220,1,80,8|0,0:0|0:0,0:0:0:0:
376,140,73901,2,0,P|336:136|284:156,1,80,8|0,0:0|0:0,0:0:0:0:
204,72,74234,2,0,P|200:112|220:164,1,80,8|0,0:0|0:0,0:0:0:0:
213,236,74568,6,0,P|217:276|197:328,1,80,8|0,0:0|0:0,0:0:0:0:
136,368,74901,2,0,P|96:372|44:352,1,80,12|0,0:0|0:0,0:0:0:0:
4,292,75235,2,0,P|0:252|20:200,1,80,8|0,0:0|0:0,0:0:0:0:
81,160,75568,2,0,P|121:156|173:176,1,80,8|8,0:0|0:0,0:0:0:0:
212,236,75901,6,0,P|256:256|360:196,2,160,4|8|12,0:0|0:0|0:0,0:0:0:0:
272,172,76735,1,0,0:0:0:0:
224,100,76901,2,0,B|220:72|220:72|232:12,1,80,8|0,0:0|0:0,0:0:0:0:
304,68,77235,5,12,0:0:0:0:
440,284,77901,6,0,L|488:276,7,40,8|8|8|8|8|8|8|8,0:0|0:0|0:0|0:0|0:0|0:0|0:0|0:0,0:0:0:0:
424,312,78568,2,0,P|380:300|248:280,1,160,4|8,0:0|0:0,0:0:0:0:
180,304,79068,1,0,0:0:0:0:
116,368,79235,2,0,P|72:356|24:352,1,80,8|0,0:0|0:0,0:0:0:0:
0,272,79568,2,0,P|39:267|78:256,1,80,8|0,0:0|0:0,0:0:0:0:
156,216,79901,6,0,P|168:168|112:76,1,160,8|8,0:0|0:0,0:0:0:0:
84,160,80401,1,0,0:0:0:0:
84,160,80568,2,0,L|256:120,1,160,8|8,0:0|0:0,0:0:0:0:
324,100,81068,1,0,0:0:0:0:
404,140,81235,6,0,P|412:184|416:228,1,80,8|0,0:0|0:0,0:0:0:0:
492,264,81568,2,0,P|476:306|458:346,1,80,8|0,0:0|0:0,0:0:0:0:
376,344,81901,2,0,P|339:327|301:314,1,80,8|0,0:0|0:0,0:0:0:0:
216,340,82235,2,0,P|178:353|141:369,1,80,8|0,0:0|0:0,0:0:0:0:
60,340,82568,5,8,0:0:0:0:
128,284,82735,1,0,0:0:0:0:
44,256,82901,1,8,0:0:0:0:
112,200,83068,1,0,0:0:0:0:
32,168,83235,2,0,P|20:112|12:4,1,160,8|12,0:0|0:0,0:0:0:0:
96,56,83735,1,0,0:0:0:0:
188,88,83901,6,0,P|248:96|352:56,1,160,12|8,0:0|0:0,0:0:0:0:
428,84,84401,1,0,0:0:0:0:
492,144,84568,2,0,P|504:200|496:232,1,80,8|0,0:0|0:0,0:0:0:0:
416,192,84901,2,0,L|332:188,1,80,8|0,0:0|0:0,0:0:0:0:
352,276,85235,6,0,L|431:279,1,80,8|0,0:0|0:0,0:0:0:0:
448,368,85568,2,0,L|368:364,1,80,8|0,0:0|0:0,0:0:0:0:
280,356,85901,1,12,0:0:0:0:
280,356,86068,1,0,0:0:0:0:
192,344,86235,2,0,P|180:304|192:248,1,80,8|0,0:0|0:0,0:0:0:0:
240,200,86568,6,0,P|200:220|108:168,1,160,4|8,0:0|0:0,0:0:0:0:
188,132,87068,1,8,0:0:0:0:
120,76,87235,1,8,0:0:0:0:
120,76,87401,1,8,0:0:0:0:
40,116,87568,2,0,P|20:164|12:204,1,80,8|8,0:0|0:0,0:0:0:0:
40,276,87901,6,0,P|88:296|128:304,1,80,8|8,0:0|0:0,0:0:0:0:
192,344,88235,2,0,P|243:337|282:324,1,80,8|8,0:0|0:0,0:0:0:0:
328,264,88568,5,12,0:0:0:0:
356,348,88735,1,8,0:0:0:0:
416,284,88901,1,8,0:0:0:0:
388,200,89068,1,8,0:0:0:0:
