osu file format v14

[General]
AudioFilename: Musaigen no Phantom WorldED1.mp3
AudioLeadIn: 0
PreviewTime: 56485
Countdown: 0
SampleSet: Soft
StackLeniency: 0.7
Mode: 0
LetterboxInBreaks: 0
WidescreenStoryboard: 0

[Editor]
DistanceSpacing: 1.4
BeatDivisor: 4
GridSize: 4
TimelineZoom: 1

[Metadata]
Title:Junshin Always
TitleUnicode:純真Always
Artist:Azusa Tadokoro
ArtistUnicode:田所あずさ
Creator:Rizia
Version:Extra
Source:無彩限のファントム・ワールド
Tags:Musaigen no Phantom World Myriad Colors tv size ending kawaiwkyik happy623 sekaii einess iamkwan skystar
BeatmapID:874048
BeatmapSetID:401869

[Difficulty]
HPDrainRate:7
CircleSize:4
OverallDifficulty:9
ApproachRate:9.3
SliderMultiplier:1.8
SliderTickRate:1

[Events]
//Background and Video events
0,0,"always.png",0,0
Video,10,"alwaysss.avi"
//Break Periods
//Storyboard Layer 0 (Background)
//Storyboard Layer 1 (Fail)
//Storyboard Layer 2 (Pass)
//Storyboard Layer 3 (Foreground)
//Storyboard Sound Samples

[TimingPoints]
-98,333.333333333333,4,2,1,60,1,0
1235,-166.666666666667,4,2,1,60,0,0
5235,-133.333333333333,4,2,1,60,0,0
6568,-100,4,2,1,60,0,0
6901,-100,4,2,1,40,0,0
7235,-100,4,2,1,50,0,0
7568,-100,4,2,1,70,0,0
7901,-100,4,2,1,70,0,0
18568,-166.666666666667,4,2,1,60,0,0
18735,-166.666666666667,4,2,0,60,0,0
19485,-166.666666666667,4,2,1,60,0,0
19901,-125,4,2,1,60,0,0
25235,-111.111111111111,4,2,1,70,0,0
30568,-125,4,2,1,60,0,0
35901,-111.111111111111,4,2,1,70,0,0
52235,-83.3333333333333,4,2,1,70,0,0
52568,-111.111111111111,4,2,1,70,0,0
52901,-83.3333333333333,4,2,1,70,0,0
53235,-111.111111111111,4,2,1,70,0,0
54568,-100,4,2,1,70,0,0
56568,-83.3333333333333,4,2,1,45,0,0
56735,-83.3333333333333,4,2,1,50,0,0
56901,-83.3333333333333,4,2,1,55,0,0
57068,-83.3333333333333,4,2,1,60,0,0
57235,-100,4,2,1,70,0,1
86901,-100,4,2,1,40,0,1
87235,-100,4,2,1,50,0,1
87901,-100,4,2,1,60,0,1
88568,-100,4,2,1,70,0,1
89068,-100,4,2,1,60,0,0

[Colours]
Combo1 : 0,128,0
Combo2 : 255,203,23
Combo3 : 255,0,0
Combo4 : 128,0,255

[HitObjects]
112,156,1235,6,0,B|176:108|176:108|248:120|248:120|144:136|124:236,1,323.999990112305,4|0,0:0|0:0,0:0:0:0:
176,300,2568,2,0,B|208:268|212:220|212:220|232:256|248:272|248:272|264:256|276:228|276:228|296:264|328:272|328:272|368:280|392:256,1,323.999990112305,4|0,0:0|0:0,0:0:0:0:
348,196,3901,2,0,B|292:192|232:232|232:232|268:160|248:100|248:100|196:164,1,323.999990112305,4|0,0:0|0:0,0:0:0:0:
107,138,5235,6,0,P|108:172|120:204,1,67.5000025749208,4|0,0:0|0:0,0:0:0:0:
292,239,5568,2,0,P|323:228|357:227,1,67.5000025749208,0|0,1:0|0:0,0:0:0:0:
248,132,5901,2,0,P|225:157|212:188,1,67.5000025749208,0|0,1:0|0:0,0:0:0:0:
408,328,6235,1,8,0:0:0:0:
420,332,6318,1,8,0:0:0:0:
432,336,6401,1,8,0:0:0:0:
444,340,6485,1,8,0:0:0:0:
460,344,6568,6,0,L|452:248,1,90,4|0,0:0|0:0,0:0:0:0:
312,144,6901,1,0,1:0:0:0:
292,240,7068,1,0,1:0:0:0:
208,168,7235,1,0,1:0:0:0:
312,328,7401,1,0,1:0:0:0:
152,248,7568,1,0,1:0:0:0:
360,144,7735,1,0,1:0:0:0:
152,44,7901,5,0,1:0:0:0:
152,44,8068,1,0,1:0:0:0:
152,44,8568,1,8,0:0:0:0:
180,48,8651,1,8,0:0:0:0:
208,52,8735,1,8,0:0:0:0:
236,56,8818,1,8,0:0:0:0:
264,60,8901,1,8,0:0:0:0:
292,64,8985,1,8,0:0:0:0:
320,68,9068,1,8,0:0:0:0:
348,72,9151,1,8,0:0:0:0:
376,76,9235,6,0,P|400:124|384:180,1,90,4|0,0:0|0:0,0:0:0:0:
248,260,9568,1,8,0:0:0:0:
188,152,9735,1,0,0:0:0:0:
188,152,9818,1,0,0:0:0:0:
188,152,9901,2,0,L|300:136,1,90,2|2,0:0|0:0,0:0:0:0:
424,288,10235,2,0,L|312:272,1,90,8|0,0:0|0:0,0:0:0:0:
93,292,10568,6,0,P|125:256|253:264,1,180,2|8,0:0|0:0,0:0:0:0:
124,92,11068,1,0,0:0:0:0:
124,92,11151,1,0,0:0:0:0:
124,92,11235,2,0,P|100:152|112:192,1,90,2|2,0:0|0:0,0:0:0:0:
308,316,11568,2,0,P|332:256|320:216,1,90,8|0,0:0|0:0,0:0:0:0:
188,152,11901,6,0,P|272:171|342:119,1,180,2|8,0:0|0:0,0:0:0:0:
252,76,12401,1,0,0:0:0:0:
252,76,12485,1,0,0:0:0:0:
252,76,12568,1,2,0:0:0:0:
247,259,12735,1,2,0:0:0:0:
252,56,12901,1,8,0:0:0:0:
84,160,13068,1,0,0:0:0:0:
247,259,13235,6,0,B|307:247|307:247|367:263|367:263|435:247,1,180,0|12,0:0|0:0,0:0:0:0:
368,172,13735,1,0,0:0:0:0:
304,336,13901,1,10,0:0:0:0:
268,356,13985,1,8,0:0:0:0:
228,356,14068,1,8,0:0:0:0:
192,340,14151,1,8,0:0:0:0:
164,312,14235,1,8,0:0:0:0:
124,300,14318,1,8,0:0:0:0:
84,300,14401,1,8,0:0:0:0:
48,316,14485,1,8,0:0:0:0:
24,348,14568,6,0,P|56:316|56:176,1,180,4|8,0:0|0:0,0:0:0:0:
188,52,15068,1,0,0:0:0:0:
188,52,15151,1,0,0:0:0:0:
188,52,15235,2,0,P|140:68|96:84,1,90,2|2,0:0|0:0,0:0:0:0:
332,160,15568,2,0,P|282:149|236:141,1,90,8|0,0:0|0:0,0:0:0:0:
428,224,15901,6,0,P|448:176|444:124,1,90,2|0,0:0|0:0,0:0:0:0:
256,16,16235,2,0,L|264:112,1,90,8|0,0:0|0:0,0:0:0:0:
263,105,16485,1,0,0:0:0:0:
263,105,16568,1,2,0:0:0:0:
408,56,16735,1,2,0:0:0:0:
348,240,16901,1,8,0:0:0:0:
200,176,17068,5,0,0:0:0:0:
200,176,17151,1,0,0:0:0:0:
200,176,17235,1,2,0:0:0:0:
364,252,17401,1,0,0:0:0:0:
128,212,17568,6,0,P|120:160|216:96,1,180,12|8,0:0|0:0,0:0:0:0:
384,264,18068,1,8,0:0:0:0:
200,176,18235,1,8,0:0:0:0:
408,56,18401,1,8,0:0:0:0:
264,244,18568,5,0,0:0:0:0:
341,132,18735,1,2,0:0:0:0:
341,132,18901,2,0,L|349:260,1,107.999996704102,2|2,0:2|0:0,0:0:0:0:
240,328,19401,1,2,0:0:0:0:
193,68,19568,5,8,0:0:0:0:
194,94,19651,1,8,0:0:0:0:
196,121,19734,1,8,0:0:0:0:
198,148,19817,1,8,0:0:0:0:
200,176,19901,6,0,P|164:192|120:188,1,72,6|0,0:0|0:0,0:0:0:0:
330,264,20235,2,0,P|290:259|254:234,1,72,2|0,0:0|0:0,0:0:0:0:
160,360,20568,1,2,0:0:0:0:
168,268,20735,1,0,0:0:0:0:
240,328,20901,1,2,0:0:0:0:
84,308,21068,1,0,0:0:0:0:
256,344,21235,6,0,L|400:336,1,144,2|2,0:0|0:0,0:0:0:0:
464,264,21735,2,0,P|472:228|468:188,1,72,0|2,0:0|0:0,0:0:0:0:
356,100,22068,2,0,P|348:136|352:176,1,72,0|2,0:0|0:0,0:0:0:0:
264,256,22401,2,0,P|252:220|229:188,1,72,0|2,0:0|0:0,0:0:0:0:
96,164,22735,5,0,0:0:0:0:
176,108,22901,1,2,0:0:0:0:
176,108,23068,1,0,0:0:0:0:
156,240,23235,2,0,L|144:328,1,72,2|0,0:0|0:0,0:0:0:0:
176,108,23568,2,0,L|185:36,1,72,2|0,0:0|0:0,0:0:0:0:
240,188,23901,6,0,L|311:197,1,72,2|0,0:0|0:0,0:0:0:0:
96,164,24235,2,0,L|24:154,1,72,2|0,0:0|0:0,0:0:0:0:
146,311,24568,1,2,0:0:0:0:
280,76,24735,2,0,L|288:136,1,36
304,244,24901,1,10,0:0:0:0:
304,244,25235,6,0,P|260:248|216:228,1,80.9999975280763,4|0,0:0|0:0,0:0:0:0:
146,311,25568,2,0,P|120:274|115:226,1,80.9999975280763,8|0,0:0|0:0,0:0:0:0:
16,156,25901,2,0,P|34:115|73:87,1,80.9999975280763,2|2,0:0|0:0,0:0:0:0:
256,116,26235,2,0,L|172:128,1,80.9999975280763,8|0,0:0|0:0,0:0:0:0:
146,311,26568,6,0,L|230:323,1,80.9999975280763,2|2,0:0|0:0,0:0:0:0:
364,340,26901,2,0,L|332:261,1,80.9999975280763,8|0,0:0|0:0,0:0:0:0:
272,140,27235,2,0,L|219:206,1,80.9999975280763,2|2,0:0|0:0,0:0:0:0:
72,356,27568,2,0,P|60:316|64:272,1,80.9999975280763,8|0,0:0|0:0,0:0:0:0:
129,109,27901,6,0,P|177:93|281:157,1,161.999995056153,2|8,0:0|0:0,0:0:0:0:
108,204,28401,2,0,L|12:196,1,80.9999975280763,0|2,0:0|0:0,0:0:0:0:
224,216,28735,1,2,0:0:0:0:
116,320,28901,1,8,0:0:0:0:
27,197,29068,1,0,0:0:0:0:
208,240,29235,5,2,0:0:0:0:
232,104,29401,1,2,0:0:0:0:
96,159,29568,2,0,P|102:240|116:320,1,161.999995056153,12|0,0:0|0:0,0:0:0:0:
240,360,30068,1,8,0:0:0:0:
240,360,30151,1,8,0:0:0:0:
240,360,30235,1,8,0:0:0:0:
312,236,30401,1,8,0:0:0:0:
428,288,30568,6,0,P|440:328|436:368,1,72,4|0,0:0|0:0,0:0:0:0:
312,236,30901,2,0,L|320:144,1,72,2|0,0:0|0:0,0:0:0:0:
196,288,31235,2,0,L|202:359,1,72,2|0,0:0|0:0,0:0:0:0:
224,184,31568,1,2,0:0:0:0:
92,264,31735,1,0,0:0:0:0:
240,360,31901,6,0,L|383:347,1,144,2|2,0:0|0:0,0:0:0:0:
326,165,32401,2,0,P|316:200|312:236,1,72,0|2,0:0|0:0,0:0:0:0:
480,264,32735,2,0,P|455:238|426:216,1,72,0|2,0:0|0:0,0:0:0:0:
312,344,33068,1,8,0:0:0:0:
312,344,33151,1,8,0:0:0:0:
312,344,33235,6,0,P|346:335|379:321,1,72,2|0,0:0|0:0,0:0:0:0:
228,284,33568,1,2,0:0:0:0:
228,284,33735,1,0,0:0:0:0:
400,232,33901,2,0,P|410:197|414:161,1,72,2|0,0:0|0:0,0:0:0:0:
252,92,34235,2,0,P|241:126|237:162,1,72,2|0,0:0|0:0,0:0:0:0:
228,284,34568,6,0,L|152:272,1,72,2|0,0:0|0:0,0:0:0:0:
40,172,34901,2,0,L|116:160,1,72,2|0,0:0|0:0,0:0:0:0:
192,32,35235,1,2,0:0:0:0:
316,140,35401,1,8,0:0:0:0:
316,140,35485,1,8,0:0:0:0:
316,140,35568,1,8,0:0:0:0:
316,140,35651,1,8,0:0:0:0:
316,140,35735,1,8,0:0:0:0:
316,140,35818,1,8,0:0:0:0:
316,140,35901,6,0,P|328:196|324:228,1,80.9999975280763,4|0,0:0|0:0,0:0:0:0:
152,332,36235,2,0,P|140:276|144:244,1,80.9999975280763,8|0,0:0|0:0,0:0:0:0:
325,219,36568,1,2,0:0:0:0:
228,284,36735,1,2,0:0:0:0:
360,348,36901,2,0,L|452:340,1,80.9999975280763,8|0,0:0|0:0,0:0:0:0:
420,144,37235,6,0,L|412:236,1,80.9999975280763,2|0,0:0|0:0,0:0:0:0:
228,284,37568,2,0,L|220:203,1,80.9999975280763,8|0,0:0|0:0,0:0:0:0:
308,76,37901,1,2,0:0:0:0:
325,219,38068,1,2,0:0:0:0:
180,136,38235,1,8,0:0:0:0:
328,68,38401,1,0,0:0:0:0:
228,284,38568,6,0,P|220:336|220:372,1,80.9999975280763,2|0,0:0|0:0,0:0:0:0:
180,136,38901,1,8,0:0:0:0:
76,276,39068,2,0,P|74:235|67:195,1,80.9999975280763,0|2,0:0|0:0,0:0:0:0:
8,84,39401,1,0,0:0:0:0:
8,84,39485,1,0,0:0:0:0:
8,84,39568,1,8,0:0:0:0:
180,136,39735,6,0,P|228:160|332:84,1,161.999995056153,4|0,0:0|0:0,0:0:0:0:
428,112,40235,1,8,0:0:0:0:
244,72,40401,1,8,0:0:0:0:
392,224,40568,1,2,0:0:0:0:
332,40,40735,1,2,0:0:0:0:
329,72,40818,1,0,0:0:0:0:
326,104,40901,1,8,0:0:0:0:
323,136,40985,1,8,0:0:0:0:
320,169,41068,1,8,0:0:0:0:
317,201,41151,1,8,0:0:0:0:
314,233,41235,6,0,P|260:248|216:244,1,80.9999975280763,4|0,0:0|0:0,0:0:0:0:
112,304,41568,2,0,P|97:250|101:206,1,80.9999975280763,8|2,0:0|0:0,0:0:0:0:
244,72,41901,1,8,0:0:0:0:
235,247,42068,1,2,0:0:0:0:
56,144,42235,1,8,0:0:0:0:
272,160,42401,1,2,0:0:0:0:
272,160,42485,1,2,0:0:0:0:
272,160,42568,5,8,0:0:0:0:
116,240,42735,1,0,0:0:0:0:
244,352,42901,2,0,B|260:312|260:312|252:264,1,80.9999975280763,8|2,0:0|0:0,0:0:0:0:
36,184,43235,2,0,B|20:224|20:224|28:272,1,80.9999975280763,8|2,0:0|0:0,0:0:0:0:
168,368,43568,1,8,0:0:0:0:
328,256,43735,1,2,0:0:0:0:
328,256,43818,1,2,0:0:0:0:
328,256,43901,5,8,0:0:0:0:
152,208,44068,1,0,0:0:0:0:
272,344,44235,1,8,0:0:0:0:
328,164,44401,1,2,0:0:0:0:
196,280,44568,5,8,0:0:0:0:
380,320,44735,1,2,0:0:0:0:
248,168,44901,1,8,0:0:0:0:
96,280,45068,1,2,0:0:0:0:
272,344,45235,5,12,0:0:0:0:
240,140,45401,1,2,0:0:0:0:
196,280,45568,1,8,0:0:0:0:
260,48,45735,1,2,0:0:0:0:
388,228,45901,2,0,P|332:248|292:240,1,80.9999975280763,8|2,0:0|0:0,0:0:0:0:
80,100,46235,2,0,P|136:80|176:88,1,80.9999975280763,12|0,0:0|0:0,0:0:0:0:
360,112,46568,5,2,0:0:0:0:
324,228,46735,1,0,0:0:0:0:
240,140,46901,1,2,0:0:0:0:
196,280,47068,1,0,0:0:0:0:
200,304,47151,1,0,0:0:0:0:
204,328,47235,1,2,0:0:0:0:
360,312,47401,6,0,L|300:300,1,40.4999987640381
164,196,47568,1,2,0:0:0:0:
320,200,47735,6,0,L|280:207,1,40.4999987640381
120,300,47901,1,2,0:0:0:0:
288,380,48068,1,0,0:0:0:0:
288,380,48151,1,0,0:0:0:0:
288,380,48235,1,2,0:0:0:0:
196,280,48401,1,0,0:0:0:0:
44,360,48568,5,2,0:0:0:0:
32,332,48651,1,0,0:0:0:0:
24,300,48735,1,8,0:0:0:0:
24,268,48818,1,8,0:0:0:0:
32,236,48901,2,0,L|76:220,1,40.4999987640381,8|8,0:0|0:0,0:0:0:0:
156,164,49068,2,0,L|194:177,1,40.4999987640381,8|0,0:0|0:0,0:0:0:0:
288,248,49235,5,6,0:0:0:0:
288,248,49401,1,2,0:0:0:0:
376,184,49568,2,0,P|392:140|384:88,1,80.9999975280763,8|0,0:0|0:0,0:0:0:0:
224,44,49901,1,2,0:0:0:0:
296,128,50068,1,2,0:0:0:0:
368,20,50235,1,8,0:0:0:0:
196,140,50401,1,0,0:0:0:0:
376,268,50568,5,2,0:0:0:0:
376,268,50735,1,2,0:0:0:0:
276,344,50901,2,0,L|196:336,1,80.9999975280763,12|0,0:0|0:0,0:0:0:0:
40,272,51235,1,8,0:0:0:0:
25,234,51318,1,8,0:0:0:0:
28,194,51401,1,8,0:0:0:0:
48,160,51485,1,8,0:0:0:0:
82,138,51568,1,8,0:0:0:0:
122,133,51651,1,8,0:0:0:0:
160,147,51735,1,8,0:0:0:0:
187,176,51818,1,8,0:0:0:0:
199,214,51901,6,0,L|192:320,1,80.9999975280763,0|2,0:0|0:0,0:0:0:0:
112,176,52235,2,0,P|164:120|240:128,1,107.999996704102,12|0,0:0|0:0,0:0:0:0:
412,248,52568,6,0,L|308:268,1,80.9999975280763,0|2,0:0|0:0,0:0:0:0:
140,360,52901,2,0,P|108:308|124:244,1,107.999996704102,12|0,0:0|0:0,0:0:0:0:
276,120,53235,5,4,0:0:0:0:
332,263,53401,1,8,0:0:0:0:
332,263,53485,1,8,0:0:0:0:
332,263,53568,2,0,L|280:272,1,40.4999987640381,8|8,0:0|0:0,0:0:0:0:
184,296,53735,2,0,L|202:246,1,40.4999987640381,8|8,0:0|0:0,0:0:0:0:
248,140,53901,2,0,L|261:178,1,40.4999987640381,2|0,0:0|0:0,0:0:0:0:
112,263,54068,2,0,L|74:250,1,40.4999987640381,8|8,0:0|0:0,0:0:0:0:
12,164,54235,5,8,0:0:0:0:
36,124,54318,1,8,0:0:0:0:
80,104,54401,1,8,0:0:0:0:
128,104,54485,1,8,0:0:0:0:
168,128,54568,6,0,L|264:120,1,90,4|0,0:0|0:0,0:0:0:0:
412,188,54901,1,0,0:0:0:0:
252,248,55068,1,4,0:0:0:0:
436,280,55235,1,0,0:0:0:0:
272,168,55401,1,0,0:0:0:0:
224,348,55568,1,12,0:0:0:0:
372,188,55735,1,0,0:0:0:0:
168,128,55901,6,0,L|184:192,1,45,4|0,0:0|0:0,0:0:0:0:
344,308,56068,2,0,L|328:244,1,45
244,88,56235,2,0,L|260:152,1,45,8|0,0:0|0:0,0:0:0:0:
268,348,56402,2,0,L|252:284,1,45
72,248,56568,6,0,P|100:235|144:232,1,53.9999983520508,8|8,0:0|0:0,0:0:0:0:
243,66,56735,2,0,P|218:77|191:82,1,53.9999983520508,8|8,0:0|0:0,0:0:0:0:
251,247,56901,2,0,P|239:222|234:195,1,53.9999983520508,8|8,0:0|0:0,0:0:0:0:
64,68,57068,2,0,P|76:96|80:140,1,53.9999983520508,8|8,0:0|0:0,0:0:0:0:
118,314,57235,6,0,P|170:290|270:354,1,180,4|8,0:0|0:0,0:0:0:0:
396,240,57735,1,0,0:0:0:0:
396,240,57818,1,0,0:0:0:0:
396,240,57901,2,0,P|388:296|384:344,1,90,2|2,0:0|0:0,0:0:0:0:
184,368,58235,2,0,P|192:312|196:264,1,90,8|0,0:0|0:0,0:0:0:0:
336,128,58568,5,2,0:0:0:0:
195,278,58735,1,2,0:0:0:0:
248,160,58901,1,8,0:0:0:0:
348,352,59068,1,0,0:0:0:0:
112,312,59235,2,0,P|104:264|160:196,1,135,2|0,0:0|0:0,0:0:0:0:
248,160,59568,2,0,L|344:176,1,90,8|0,0:0|0:0,0:0:0:0:
488,252,59901,5,2,0:0:0:0:
292,296,60068,1,2,0:0:0:0:
412,144,60235,1,8,0:0:0:0:
432,328,60401,1,0,0:0:0:0:
432,328,60485,1,0,0:0:0:0:
432,328,60568,1,2,0:0:0:0:
312,212,60735,1,2,0:0:0:0:
232,352,60901,2,0,L|136:344,1,90,8|0,0:0|0:0,0:0:0:0:
24,156,61235,6,0,P|60:124|192:140,1,180,2|8,0:0|0:0,0:0:0:0:
312,212,61735,1,0,0:0:0:0:
312,212,61818,1,0,0:0:0:0:
312,212,61901,2,0,P|320:172|324:124,1,90,2|2,0:0|0:0,0:0:0:0:
104,256,62235,1,8,0:0:0:0:
140,260,62318,1,8,0:0:0:0:
176,264,62401,1,8,0:0:0:0:
212,268,62485,1,8,0:0:0:0:
248,272,62568,6,0,P|240:312|236:360,1,90,2|0,0:0|0:0,0:0:0:0:
428,240,62901,2,0,P|424:195|415:151,1,90,12|0,0:0|0:0,0:0:0:0:
228,72,63235,1,2,0:0:0:0:
176,264,63401,1,2,0:0:0:0:
348,196,63568,1,12,0:0:0:0:
160,128,63735,1,0,0:0:0:0:
296,328,63901,5,2,0:0:0:0:
296,328,64068,2,0,L|416:320,1,90,2|12,0:0|0:0,0:0:0:0:
232,192,64401,1,0,0:0:0:0:
160,356,64568,6,0,L|104:348,1,45,12|8,0:0|0:0,0:0:0:0:
28,280,64735,2,0,L|84:272,1,45,8|8,0:0|0:0,0:0:0:0:
186,191,64901,1,8,0:0:0:0:
183,211,64985,1,8,0:0:0:0:
181,227,65068,1,8,0:0:0:0:
178,243,65151,1,8,0:0:0:0:
176,264,65235,6,0,P|220:280|312:236,1,135,4|0,0:0|0:0,0:0:0:0:
320,180,65568,2,0,B|320:132|320:132|296:92,1,90,8|0,0:0|0:0,0:0:0:0:
64,16,65901,2,0,L|80:160,1,135,2|0,0:0|0:0,0:0:0:0:
132,220,66235,2,0,P|116:288|112:328,1,90,8|0,0:0|0:0,0:0:0:0:
268,332,66568,6,0,P|336:316|376:312,1,90,4|0,0:0|0:0,0:0:0:0:
340,168,66901,1,8,0:0:0:0:
192,296,67068,1,0,0:0:0:0:
444,336,67235,1,4,0:0:0:0:
296,192,67401,1,0,0:0:0:0:
464,68,67568,1,8,0:0:0:0:
460,96,67651,1,8,0:0:0:0:
456,124,67735,1,8,0:0:0:0:
452,152,67818,1,8,0:0:0:0:
448,180,67901,6,0,P|408:208|300:140,1,180,4|8,0:0|0:0,0:0:0:0:
172,48,68401,1,0,0:0:0:0:
172,48,68485,1,0,0:0:0:0:
172,48,68568,2,0,P|192:92|188:144,1,90,2|2,0:0|0:0,0:0:0:0:
100,248,68901,1,8,0:0:0:0:
40,120,69068,1,0,0:0:0:0:
40,120,69151,1,0,0:0:0:0:
40,120,69235,5,2,0:0:0:0:
176,204,69401,1,2,0:0:0:0:
92,324,69568,2,0,L|0:312,1,90,8|0,0:0|0:0,0:0:0:0:
220,276,69901,2,0,P|264:264|348:316,1,135,2|0,0:0|0:0,0:0:0:0:
392,360,70235,2,0,P|436:356|492:356,1,90,8|0,0:0|0:0,0:0:0:0:
416,252,70568,5,2,0:0:0:0:
264,352,70735,1,2,0:0:0:0:
292,168,70901,1,8,0:0:0:0:
360,328,71068,1,0,0:0:0:0:
360,328,71151,1,0,0:0:0:0:
360,328,71235,1,2,0:0:0:0:
208,224,71401,2,0,P|192:188|196:132,1,90,2|8,0:0|0:0,0:0:0:0:
452,28,71735,2,0,L|440:76,1,45
460,156,71901,6,0,P|404:140|288:120,1,135,2|0,0:0|0:0,0:0:0:0:
332,208,72235,2,0,P|376:216|424:228,1,90,12|0,0:0|0:0,0:0:0:0:
280,352,72568,1,8,0:0:0:0:
120,280,72735,1,0,0:0:0:0:
120,280,72818,1,0,0:0:0:0:
120,280,72901,1,8,0:0:0:0:
320,180,73068,1,0,0:0:0:0:
152,108,73235,6,0,P|160:172|168:224,1,90,4|0,0:0|0:0,0:0:0:0:
308,148,73568,1,8,0:0:0:0:
280,312,73735,1,0,0:0:0:0:
163,197,73901,1,8,0:0:0:0:
200,376,74068,1,0,0:0:0:0:
356,256,74235,1,8,0:0:0:0:
104,300,74401,1,0,0:0:0:0:
388,356,74568,5,8,0:0:0:0:
176,232,74735,1,0,0:0:0:0:
408,160,74901,1,12,0:0:0:0:
192,336,75068,1,0,0:0:0:0:
100,72,75235,1,8,0:0:0:0:
308,148,75401,1,0,0:0:0:0:
104,224,75568,1,8,0:0:0:0:
80,202,75651,1,8,0:0:0:0:
67,174,75734,1,8,0:0:0:0:
66,143,75817,1,0,0:0:0:0:
77,114,75901,6,0,L|176:128,1,90,4|0,0:0|0:0,0:0:0:0:
420,176,76235,1,8,0:0:0:0:
176,232,76401,1,0,0:0:0:0:
388,284,76568,1,12,0:0:0:0:
212,120,76734,1,0,0:0:0:0:
400,84,76901,1,8,0:0:0:0:
260,328,77067,1,0,0:0:0:0:
77,114,77235,5,4,0:0:0:0:
77,114,77901,1,8,0:0:0:0:
80,140,77985,1,8,0:0:0:0:
84,168,78068,1,8,0:0:0:0:
88,196,78151,1,8,0:0:0:0:
92,224,78235,1,8,0:0:0:0:
100,248,78318,1,8,0:0:0:0:
112,272,78401,1,8,0:0:0:0:
132,292,78485,1,8,0:0:0:0:
156,304,78568,6,0,P|204:308|296:208,1,180,4|8,0:0|0:0,0:0:0:0:
200,72,79068,1,0,0:0:0:0:
192,208,79235,1,8,0:0:0:0:
312,140,79401,1,0,0:0:0:0:
128,8,79568,2,0,P|108:68|120:124,1,90,8|0,0:0|0:0,0:0:0:0:
232,280,79901,5,8,0:0:0:0:
232,280,80068,1,0,0:0:0:0:
320,232,80235,1,8,0:0:0:0:
268,372,80401,1,0,0:0:0:0:
144,292,80568,2,0,L|44:304,1,90,8|0,0:0|0:0,0:0:0:0:
320,232,80901,2,0,L|420:244,1,90,8|0,0:0|0:0,0:0:0:0:
232,280,81235,6,0,B|216:236|216:236|228:180,1,90,8|0,0:0|0:0,0:0:0:0:
402,156,81568,2,0,B|418:200|418:200|406:256,1,90,8|0,0:0|0:0,0:0:0:0:
268,372,81901,2,0,P|224:368|176:360,1,90,8|0,0:0|0:0,0:0:0:0:
88,192,82235,2,0,P|132:184|177:180,1,90,8|0,0:0|0:0,0:0:0:0:
340,88,82568,5,8,0:0:0:0:
320,232,82735,1,0,0:0:0:0:
208,140,82901,1,8,0:0:0:0:
404,236,83068,1,0,0:0:0:0:
252,340,83235,2,0,P|236:296|248:232,1,90,8|0,0:0|0:0,0:0:0:0:
402,156,83568,1,12,0:0:0:0:
332,284,83735,1,0,0:0:0:0:
180,212,83901,6,0,L|0:228,1,180,12|8,0:0|0:0,0:0:0:0:
68,136,84401,1,0,0:0:0:0:
112,304,84568,1,8,0:0:0:0:
200,200,84735,1,0,0:0:0:0:
252,340,84901,1,8,0:0:0:0:
224,188,85068,1,0,0:0:0:0:
92,320,85235,5,8,0:0:0:0:
272,260,85401,1,0,0:0:0:0:
68,136,85568,1,8,0:0:0:0:
296,268,85735,1,0,0:0:0:0:
76,336,85901,2,0,P|32:340|-16:320,1,90,12|0,0:0|0:0,0:0:0:0:
137,176,86235,2,0,P|181:172|229:192,1,90,8|0,0:0|0:0,0:0:0:0:
388,304,86568,6,0,P|416:248|408:124,1,180,4|8,0:0|0:0,0:0:0:0:
284,72,87068,1,8,0:0:0:0:
192,232,87235,1,8,0:0:0:0:
192,232,87401,1,8,0:0:0:0:
336,180,87568,1,8,0:0:0:0:
336,180,87735,1,8,0:0:0:0:
164,120,87901,5,8,0:0:0:0:
284,248,88068,1,8,0:0:0:0:
132,324,88235,1,8,0:0:0:0:
248,164,88401,1,8,0:0:0:0:
308,364,88568,5,8,0:0:0:0:
112,244,88735,1,8,0:0:0:0:
376,176,88901,1,8,0:0:0:0:
144,44,89068,1,4,0:0:0:0:
