osu file format v14

[General]
AudioFilename: Musaigen no Phantom WorldED1.mp3
AudioLeadIn: 0
PreviewTime: 56485
Countdown: 0
SampleSet: Soft
StackLeniency: 0.7
Mode: 0
LetterboxInBreaks: 0
WidescreenStoryboard: 0

[Editor]
DistanceSpacing: 1.4
BeatDivisor: 4
GridSize: 4
TimelineZoom: 1.5

[Metadata]
Title:Junshin Always
TitleUnicode:純真Always
Artist:Azusa Tadokoro
ArtistUnicode:田所あずさ
Creator:Rizia
Version:Colorful
Source:無彩限のファントム・ワールド
Tags:Musaigen no Phantom World Myriad Colors tv size ending kawaiwkyik happy623 sekaii einess iamkwan skystar
BeatmapID:878721
BeatmapSetID:401869

[Difficulty]
HPDrainRate:7
CircleSize:4.2
OverallDifficulty:9
ApproachRate:9.3
SliderMultiplier:1.8
SliderTickRate:1

[Events]
//Background and Video events
0,0,"always.png",0,0
Video,10,"alwaysss.avi"
//Break Periods
//Storyboard Layer 0 (Background)
//Storyboard Layer 1 (Fail)
//Storyboard Layer 2 (Pass)
//Storyboard Layer 3 (Foreground)
//Storyboard Sound Samples

[TimingPoints]
-98,333.333333333333,4,2,1,60,1,0
1235,-166.666666666667,4,2,1,60,0,0
5235,-133.333333333333,4,2,1,60,0,0
6568,-100,4,2,1,60,0,0
6901,-100,4,2,1,40,0,0
7235,-100,4,2,1,50,0,0
7568,-100,4,2,1,70,0,0
7901,-100,4,2,1,70,0,0
18568,-166.666666666667,4,2,1,60,0,0
18735,-166.666666666667,4,2,0,60,0,0
19485,-166.666666666667,4,2,1,60,0,0
19901,-125,4,2,1,60,0,0
25235,-111.111111111111,4,2,1,70,0,0
30568,-125,4,2,1,60,0,0
35901,-111.111111111111,4,2,1,70,0,0
48799,-111.111111111111,4,2,1,70,0,0
52235,-76.9230769230769,4,2,1,70,0,0
52568,-111.111111111111,4,2,1,70,0,0
52901,-83.3333333333333,4,2,1,70,0,0
53235,-111.111111111111,4,2,1,70,0,0
54568,-100,4,2,1,70,0,0
56568,-100,4,2,1,45,0,0
56735,-100,4,2,1,50,0,0
56901,-100,4,2,1,55,0,0
57068,-100,4,2,1,60,0,0
57235,-100,4,2,1,70,0,1
86901,-100,4,2,1,40,0,1
87235,-100,4,2,1,50,0,1
87901,-100,4,2,1,60,0,1
88568,-100,4,2,1,70,0,1
89068,-133.333333333333,4,2,1,60,0,0
89318,-100,4,2,1,60,0,0

[Colours]
Combo1 : 0,128,0
Combo2 : 255,203,23
Combo3 : 255,0,0
Combo4 : 128,0,255

[HitObjects]
88,152,1235,6,0,P|120:100|176:236,1,323.999990112305,4|0,0:0|0:0,0:0:0:0:
124,296,2568,2,0,B|192:336|272:300|304:236|304:236|312:296|252:336,1,323.999990112305,4|0,0:0|0:0,0:0:0:0:
172,384,3901,2,0,B|160:300|160:300|172:260|172:260|156:148|156:148|128:236,1,323.999990112305,4|0,0:0|0:0,0:0:0:0:
392,80,5235,6,0,L|376:164,1,67.5000025749208,4|0,0:0|0:0,0:0:0:0:
92,220,5568,2,0,L|108:136,1,67.5000025749208,0|0,1:0|0:0,0:0:0:0:
308,32,5901,2,0,L|292:116,1,67.5000025749208,0|0,1:0|0:0,0:0:0:0:
200,336,6235,1,8,0:0:0:0:
200,336,6318,1,8,0:0:0:0:
200,336,6401,1,8,0:0:0:0:
200,336,6485,1,8,0:0:0:0:
200,336,6568,6,0,L|188:240,1,90,4|0,0:0|0:0,0:0:0:0:
256,148,6901,1,0,1:0:0:0:
304,276,7068,1,0,1:0:0:0:
136,164,7235,5,0,1:0:0:0:
124,360,7401,1,0,1:0:0:0:
304,276,7568,1,0,1:0:0:0:
136,164,7735,1,0,1:0:0:0:
336,92,7901,5,0,1:0:0:0:
336,92,8068,1,0,1:0:0:0:
336,92,8568,5,8,0:0:0:0:
300,88,8651,1,8,0:0:0:0:
264,92,8735,1,8,0:0:0:0:
232,108,8818,1,8,0:0:0:0:
204,128,8901,1,8,0:0:0:0:
168,128,8985,1,8,0:0:0:0:
136,112,9068,1,8,0:0:0:0:
120,80,9151,1,8,0:0:0:0:
124,44,9235,6,0,P|160:16|276:40,1,135,4|0,0:0|0:0,0:0:0:0:
300,88,9568,2,0,P|348:85|404:80,1,90,8|0,0:0|0:0,0:0:0:0:
508,240,9901,1,2,0:0:0:0:
312,216,10068,1,2,0:0:0:0:
407,181,10235,2,0,B|416:224|416:224|400:268,1,90,8|0,0:0|0:0,0:0:0:0:
132,192,10568,6,0,L|221:203,1,90,2|0,0:0|0:0,0:0:0:0:
400,268,10901,1,8,0:0:0:0:
272,120,11068,1,0,0:0:0:0:
272,120,11151,1,0,0:0:0:0:
272,120,11235,2,0,P|260:80|264:32,1,90,2|2,0:0|0:0,0:0:0:0:
420,164,11568,1,8,0:0:0:0:
288,336,11735,1,0,0:0:0:0:
288,336,11818,1,0,0:0:0:0:
288,336,11901,6,0,L|188:328,1,90,2|0,0:0|0:0,0:0:0:0:
24,164,12235,2,0,L|124:156,1,90,8|0,0:0|0:0,0:0:0:0:
336,212,12568,1,2,0:0:0:0:
184,192,12735,1,2,0:0:0:0:
88,348,12901,2,0,P|68:308|80:244,1,90,8|0,0:0|0:0,0:0:0:0:
280,296,13235,6,0,P|328:312|436:240,1,180,0|12,0:0|0:0,0:0:0:0:
368,64,13735,1,0,0:0:0:0:
340,224,13901,2,0,L|348:168,1,45,10|8,0:0|0:0,0:0:0:0:
280,32,14068,2,0,L|272:88,1,45,8|8,0:0|0:0,0:0:0:0:
164,180,14235,1,8,0:0:0:0:
162,164,14318,1,8,0:0:0:0:
160,148,14401,1,8,0:0:0:0:
158,132,14485,1,8,0:0:0:0:
156,120,14568,6,0,P|112:152|100:288,1,180,4|8,0:0|0:0,0:0:0:0:
332,348,15068,1,0,0:0:0:0:
332,348,15151,1,0,0:0:0:0:
332,348,15235,2,0,L|324:244,1,90,2|2,0:0|0:0,0:0:0:0:
240,64,15568,2,0,L|248:168,1,90,8|0,0:0|0:0,0:0:0:0:
456,160,15901,6,0,B|416:136|416:136|364:140,1,90,2|0,0:0|0:0,0:0:0:0:
124,248,16235,2,0,B|164:272|164:272|216:268,1,90,8|0,0:0|0:0,0:0:0:0:
396,216,16568,1,2,0:0:0:0:
240,64,16735,1,2,0:0:0:0:
212,344,16901,1,8,0:0:0:0:
312,136,17068,1,0,0:0:0:0:
312,136,17151,1,0,0:0:0:0:
312,136,17235,6,0,P|244:148|160:156,1,135,2|0,0:0|0:0,0:0:0:0:
136,152,17568,2,0,P|128:104|124:56,1,90,12|0,0:0|0:0,0:0:0:0:
252,240,17901,5,8,0:0:0:0:
40,312,18068,1,8,0:0:0:0:
136,152,18235,1,8,0:0:0:0:
352,308,18401,1,8,0:0:0:0:
184,364,18568,5,0,0:0:0:0:
292,60,18735,1,2,0:0:0:0:
292,60,18901,2,0,L|304:180,1,107.999996704102,2|2,0:2|0:0,0:0:0:0:
176,76,19401,1,2,0:0:0:0:
164,208,19568,1,8,0:0:0:0:
164,208,19651,1,8,0:0:0:0:
164,208,19735,1,8,0:0:0:0:
164,208,19818,1,8,0:0:0:0:
164,208,19901,6,0,P|132:192|76:196,1,72,6|0,0:0|0:0,0:0:0:0:
24,136,20235,2,0,P|8:168|12:224,1,72,2|0,0:0|0:0,0:0:0:0:
60,336,20568,1,2,0:0:0:0:
156,364,20735,1,0,0:0:0:0:
220,288,20901,1,2,0:0:0:0:
316,316,21068,1,0,0:0:0:0:
396,376,21235,6,0,P|420:328|400:240,1,144,2|2,0:0|0:0,0:0:0:0:
308,212,21735,2,0,L|224:224,1,72,0|2,0:0|0:0,0:0:0:0:
384,137,22068,2,0,L|456:148,1,72,0|2,0:0|0:0,0:0:0:0:
316,48,22401,1,0,0:0:0:0:
315,48,22568,6,0,P|301:80|298:116,1,72,2|0,0:0|0:0,0:0:0:0:
196,104,22901,2,0,P|199:139|214:172,1,72,2|0,0:0|0:0,0:0:0:0:
120,212,23235,2,0,P|141:240|170:261,1,72,2|0,0:0|0:0,0:0:0:0:
108,343,23568,2,0,P|140:357|176:360,1,72,2|0,0:0|0:0,0:0:0:0:
400,320,23901,6,0,L|252:308,2,144,2|2|2,0:0|0:0|0:0,0:0:0:0:
496,176,24735,2,0,L|436:184,1,36,0|0,0:0|0:0,0:0:0:0:
344,200,24901,1,10,0:0:0:0:
344,200,25235,6,0,P|348:152|360:116,1,80.9999975280763,4|0,0:0|0:0,0:0:0:0:
180,248,25568,2,0,P|176:200|164:164,1,80.9999975280763,8|0,0:0|0:0,0:0:0:0:
328,340,25901,2,0,P|355:300|383:275,1,80.9999975280763,2|2,0:0|0:0,0:0:0:0:
168,364,26235,2,0,P|131:332|97:315,1,80.9999975280763,8|0,0:0|0:0,0:0:0:0:
28,176,26568,6,0,P|20:223|22:261,1,80.9999975280763,2|2,0:0|0:0,0:0:0:0:
132,327,26901,2,0,P|170:314|204:293,1,80.9999975280763,8|0,0:0|0:0,0:0:0:0:
219,167,27235,2,0,P|189:141|153:122,1,80.9999975280763,2|2,0:0|0:0,0:0:0:0:
21,256,27568,2,0,L|125:240,1,80.9999975280763,8|0,0:0|0:0,0:0:0:0:
324,208,27901,6,0,P|364:252|352:356,1,161.999995056153,2|8,0:0|0:0,0:0:0:0:
132,327,28401,2,0,P|176:287|280:299,1,161.999995056153,0|2,0:0|0:0,0:0:0:0:
420,264,28901,1,8,0:0:0:0:
252,176,29068,1,0,0:0:0:0:
388,56,29235,6,0,P|428:88|416:204,1,161.999995056153,0|12,0:0|0:0,0:0:0:0:
224,260,29735,1,0,0:0:0:0:
324,368,29901,2,0,L|420:356,1,80.9999975280763,0|8,0:0|0:0,0:0:0:0:
404,357,30151,1,8,0:0:0:0:
404,357,30235,1,8,0:0:0:0:
316,192,30401,1,8,0:0:0:0:
434,46,30568,6,0,P|422:102|406:202,1,144,4|2,0:0|0:0,0:0:0:0:
336,260,31068,1,0,0:0:0:0:
256,128,31235,2,0,P|284:108|336:104,1,72,2|0,0:0|0:0,0:0:0:0:
228,212,31568,2,0,P|200:192|148:188,1,72,2|0,0:0|0:0,0:0:0:0:
88,296,31901,6,0,L|176:284,2,72,2|0|2,0:0|0:0|0:0,0:0:0:0:
4,208,32401,2,0,L|92:196,1,72,0|2,0:0|0:0,0:0:0:0:
144,88,32735,2,0,L|56:100,1,72,0|2,0:0|0:0,0:0:0:0:
272,136,33068,1,8,0:0:0:0:
272,136,33151,1,8,0:0:0:0:
272,136,33235,6,0,P|280:92|276:56,1,72,2|0,0:0|0:0,0:0:0:0:
148,184,33568,2,0,P|146:219|153:254,1,72,2|0,0:0|0:0,0:0:0:0:
296,340,33901,1,2,0:0:0:0:
376,220,34068,1,0,0:0:0:0:
396,320,34235,1,2,0:0:0:0:
276,240,34402,1,0,0:0:0:0:
192,352,34568,6,0,L|44:340,2,144,2|2|0,0:0|0:0|0:0,0:0:0:0:
314,169,35401,1,8,0:0:0:0:
314,169,35484,1,8,0:0:0:0:
314,169,35567,1,8,0:0:0:0:
314,169,35651,1,8,0:0:0:0:
314,169,35734,1,8,0:0:0:0:
314,169,35817,1,8,0:0:0:0:
314,169,35901,6,0,P|296:232|304:276,1,80.9999975280763,4|0,0:0|0:0,0:0:0:0:
368,368,36235,1,8,0:0:0:0:
472,280,36401,1,0,0:0:0:0:
472,280,36485,1,0,0:0:0:0:
472,280,36568,2,0,L|384:288,1,80.9999975280763,2|2,0:0|0:0,0:0:0:0:
156,348,36901,2,0,L|244:356,1,80.9999975280763,8|0,0:0|0:0,0:0:0:0:
424,172,37235,6,0,L|336:180,1,80.9999975280763,2|0,0:0|0:0,0:0:0:0:
276,360,37568,2,0,L|268:272,1,80.9999975280763,8|0,0:0|0:0,0:0:0:0:
236,24,37901,2,0,L|243:104,1,80.9999975280763,2|2,0:0|0:0,0:0:0:0:
88,212,38234,2,0,L|168:204,1,80.9999975280763,8|0,0:0|0:0,0:0:0:0:
356,176,38568,5,2,0:0:0:0:
356,176,38735,1,0,0:0:0:0:
228,104,38901,2,0,P|228:63|235:24,1,80.9999975280763,8|0,0:0|0:0,0:0:0:0:
224,248,39235,1,2,0:0:0:0:
356,176,39401,1,0,0:0:0:0:
356,176,39485,1,0,0:0:0:0:
356,176,39568,1,8,0:0:0:0:
244,352,39735,6,0,P|184:344|72:336,1,161.999995056153,4|0,0:0|0:0,0:0:0:0:
160,104,40235,1,8,0:0:0:0:
352,240,40401,1,8,0:0:0:0:
100,304,40568,1,0,0:0:0:0:
260,100,40735,1,0,0:0:0:0:
256,140,40818,1,0,0:0:0:0:
252,180,40901,1,8,0:0:0:0:
248,220,40985,1,8,0:0:0:0:
248,260,41068,1,8,0:0:0:0:
260,300,41151,1,8,0:0:0:0:
288,328,41235,6,0,P|328:348|368:348,1,80.9999975280763,4|0,0:0|0:0,0:0:0:0:
512,212,41568,2,0,L|412:228,1,80.9999975280763,8|2,0:0|0:0,0:0:0:0:
256,140,41901,1,8,0:0:0:0:
400,32,42068,1,2,0:0:0:0:
352,240,42235,1,8,0:0:0:0:
152,152,42401,1,2,0:0:0:0:
152,152,42485,1,2,0:0:0:0:
152,152,42568,5,8,0:0:0:0:
364,120,42735,1,0,0:0:0:0:
132,244,42901,1,8,0:0:0:0:
384,280,43068,1,2,0:0:0:0:
220,376,43235,2,0,B|208:336|208:336|212:284,1,80.9999975280763,8|2,0:0|0:0,0:0:0:0:
256,56,43568,1,8,0:0:0:0:
432,229,43735,1,2,0:0:0:0:
432,229,43818,1,2,0:0:0:0:
432,229,43901,6,0,L|336:241,1,80.9999975280763,8|0,0:0|0:0,0:0:0:0:
132,244,44235,1,8,0:0:0:0:
296,328,44401,1,2,0:0:0:0:
272,152,44568,1,8,0:0:0:0:
128,352,44735,1,2,0:0:0:0:
372,372,44901,1,8,0:0:0:0:
180,168,45068,1,2,0:0:0:0:
416,64,45235,6,0,P|427:102|424:142,1,80.9999975280763,12|2,0:0|0:0,0:0:0:0:
164,140,45568,1,8,0:0:0:0:
348,112,45735,1,2,0:0:0:0:
88,188,45901,2,0,P|76:144|84:96,1,80.9999975280763,8|2,0:0|0:0,0:0:0:0:
388,264,46235,1,12,0:0:0:0:
168,232,46401,1,0,0:0:0:0:
472,237,46568,6,0,P|475:277|464:316,1,80.9999975280763,2|0,0:0|0:0,0:0:0:0:
276,364,46901,1,2,0:0:0:0:
308,164,47068,1,0,0:0:0:0:
308,164,47151,1,0,0:0:0:0:
308,164,47235,6,0,L|407:180,1,80.9999975280763,2|0,0:0|0:0,0:0:0:0:
388,264,47485,1,0,0:0:0:0:
388,264,47568,2,0,L|308:251,1,80.9999975280763,2|0,0:0|0:0,0:0:0:0:
223,194,47818,1,0,0:0:0:0:
223,194,47901,2,0,P|220:154|231:115,1,80.9999975280763,2|0,0:0|0:0,0:0:0:0:
299,62,48151,1,0,0:0:0:0:
299,62,48235,6,0,L|398:78,1,80.9999975280763,2|0,0:0|0:0,0:0:0:0:
222,290,48568,1,2,0:0:0:0:
222,290,48651,1,0,0:0:0:0:
222,290,48735,1,8,0:0:0:0:
222,290,48818,1,8,0:0:0:0:
222,290,48901,2,0,P|171:265|80:286,1,121.499996292114,8|0,0:0|0:0,0:0:0:0:
75,286,49235,5,6,0:0:0:0:
221,165,49401,1,2,0:0:0:0:
150,360,49568,1,8,0:0:0:0:
467,271,49735,5,0,0:0:0:0:
121,232,49901,1,2,0:0:0:0:
454,165,50068,1,2,0:0:0:0:
136,131,50235,1,8,0:0:0:0:
460,63,50401,1,0,0:0:0:0:
133,29,50568,5,2,0:0:0:0:
287,102,50735,1,2,0:0:0:0:
287,102,50901,2,0,L|292:210,1,80.9999975280763,12|0,0:0|0:0,0:0:0:0:
440,290,51235,5,8,0:0:0:0:
420,269,51318,1,8,0:0:0:0:
396,255,51401,1,8,0:0:0:0:
368,250,51485,1,8,0:0:0:0:
340,254,51568,1,8,0:0:0:0:
316,269,51651,1,8,0:0:0:0:
288,273,51734,1,8,0:0:0:0:
261,266,51818,1,8,0:0:0:0:
239,249,51901,6,0,L|231:142,1,80.9999975280763,0|2,0:0|0:0,0:0:0:0:
109,41,52235,2,0,P|82:92|118:165,1,116.999994644165,12|0,0:0|0:0,0:0:0:0:
351,180,52568,6,0,L|458:172,1,80.9999975280763,0|2,0:0|0:0,0:0:0:0:
496,50,52901,2,0,P|445:23|372:59,1,107.999996704102,12|0,0:0|0:0,0:0:0:0:
246,123,53235,5,4,0:0:0:0:
244,135,53318,1,0,0:0:0:0:
243,147,53401,1,8,0:0:0:0:
241,159,53485,1,8,0:0:0:0:
240,171,53568,1,8,0:0:0:0:
239,183,53651,1,8,0:0:0:0:
237,195,53735,1,8,0:0:0:0:
236,207,53818,1,8,0:0:0:0:
235,219,53901,1,2,0:0:0:0:
233,231,53985,1,0,0:0:0:0:
232,243,54068,1,8,0:0:0:0:
231,255,54151,1,8,0:0:0:0:
229,267,54235,6,0,L|243:321,1,40.4999987640381,8|8,0:0|0:0,0:0:0:0:
142,357,54401,2,0,L|131:317,1,40.4999987640381,8|8,0:0|0:0,0:0:0:0:
65,257,54568,5,4,0:0:0:0:
315,348,54735,1,0,0:0:0:0:
268,85,54901,1,0,0:0:0:0:
216,383,55068,5,4,0:0:0:0:
82,153,55235,1,0,0:0:0:0:
349,152,55401,1,0,0:0:0:0:
116,348,55568,5,12,0:0:0:0:
367,256,55735,1,0,0:0:0:0:
163,85,55901,5,4,0:0:0:0:
367,256,56068,1,0,0:0:0:0:
212,230,56235,5,8,0:0:0:0:
370,107,56401,1,0,0:0:0:0:
370,107,56485,1,0,0:0:0:0:
370,107,56568,6,8,L|363:169,1,45,8|8,0:0|0:0,0:0:0:0:
212,230,56735,2,8,L|217:185,1,45,8|8,0:0|0:0,0:0:0:0:
399,129,56901,6,8,L|392:191,1,45,8|8,0:0|0:0,0:0:0:0:
241,252,57068,2,8,L|246:207,1,45,8|8,0:0|0:0,0:0:0:0:
312,52,57235,6,0,P|352:32|420:48,1,90,4|0,0:0|0:0,0:0:0:0:
496,168,57568,1,8,0:0:0:0:
408,324,57735,1,0,0:0:0:0:
408,324,57818,1,0,0:0:0:0:
408,324,57901,2,0,L|288:308,1,90,2|2,0:0|0:0,0:0:0:0:
192,204,58235,1,8,0:0:0:0:
352,132,58401,1,0,0:0:0:0:
318,312,58568,5,2,0:0:0:0:
356,108,58735,1,2,0:0:0:0:
464,240,58901,1,8,0:0:0:0:
204,172,59068,1,0,0:0:0:0:
204,172,59151,1,0,0:0:0:0:
204,172,59235,2,0,L|224:340,1,135,2|0,0:0|0:0,0:0:0:0:
140,356,59568,2,0,L|129:266,1,90,8|0,0:0|0:0,0:0:0:0:
292,160,59901,5,2,0:0:0:0:
129,266,60068,1,2,0:0:0:0:
355,277,60235,1,8,0:0:0:0:
184,144,60401,1,0,0:0:0:0:
184,144,60485,1,0,0:0:0:0:
184,144,60568,2,0,P|168:96|176:52,1,90,2|2,0:0|0:0,0:0:0:0:
396,56,60901,1,8,0:0:0:0:
224,240,61068,1,0,0:0:0:0:
456,364,61235,6,0,P|476:328|464:208,1,135,2|0,0:0|0:0,0:0:0:0:
416,168,61568,2,0,L|308:184,1,90,8|0,0:0|0:0,0:0:0:0:
120,352,61901,2,0,L|228:368,1,90,2|2,0:0|0:0,0:0:0:0:
356,76,62235,1,8,0:0:0:0:
356,76,62318,1,8,0:0:0:0:
356,76,62401,1,8,0:0:0:0:
356,76,62485,1,8,0:0:0:0:
356,76,62568,6,0,L|204:98,1,135,2|0,0:0|0:0,0:0:0:0:
188,100,62901,2,0,L|204:0,1,90,12|0,0:0|0:0,0:0:0:0:
448,244,63235,2,0,L|432:344,1,90,2|2,0:0|0:0,0:0:0:0:
168,352,63568,1,12,0:0:0:0:
196,180,63735,1,0,0:0:0:0:
332,292,63901,5,2,0:0:0:0:
436,27,64068,1,2,0:0:0:0:
196,180,64235,1,12,0:0:0:0:
480,197,64401,1,0,0:0:0:0:
260,16,64568,1,12,0:0:0:0:
262,38,64651,1,8,0:0:0:0:
265,60,64734,1,8,0:0:0:0:
268,83,64818,1,8,0:0:0:0:
270,105,64901,1,8,0:0:0:0:
273,127,64984,1,8,0:0:0:0:
276,150,65068,1,8,0:0:0:0:
279,172,65151,1,8,0:0:0:0:
281,194,65235,6,0,P|241:238|245:330,1,135,4|0,0:0|0:0,0:0:0:0:
305,372,65568,2,0,L|413:360,1,90,8|0,0:0|0:0,0:0:0:0:
508,156,65901,2,0,L|360:144,1,135,2|0,0:0|0:0,0:0:0:0:
300,176,66235,2,0,P|288:224|300:280,1,90,8|0,0:0|0:0,0:0:0:0:
387,339,66568,6,0,P|346:295|223:324,1,180,4|8,0:0|0:0,0:0:0:0:
0,216,67068,1,0,0:0:0:0:
0,216,67151,1,0,0:0:0:0:
0,216,67235,2,0,P|44:220|92:192,1,90,4|0,0:0|0:0,0:0:0:0:
208,28,67568,1,8,0:0:0:0:
204,64,67651,1,8,0:0:0:0:
200,100,67735,1,8,0:0:0:0:
196,136,67818,1,8,0:0:0:0:
192,172,67901,6,0,L|384:148,1,180,4|8,0:0|0:0,0:0:0:0:
476,272,68401,1,0,0:0:0:0:
476,272,68485,1,0,0:0:0:0:
476,272,68568,1,2,0:0:0:0:
304,176,68735,1,2,0:0:0:0:
432,72,68901,1,8,0:0:0:0:
356,304,69068,1,0,0:0:0:0:
356,304,69151,1,0,0:0:0:0:
356,304,69235,6,0,P|304:320|196:256,1,180,2|8,0:0|0:0,0:0:0:0:
296,36,69735,1,0,0:0:0:0:
438,161,69901,2,0,L|304:176,1,135,2|0,0:0|0:0,0:0:0:0:
228,232,70235,2,0,L|124:224,1,90,8|0,0:0|0:0,0:0:0:0:
0,116,70568,5,2,0:0:0:0:
164,52,70735,1,2,0:0:0:0:
138,225,70901,1,8,0:0:0:0:
104,132,71068,1,0,0:0:0:0:
104,132,71151,1,0,0:0:0:0:
104,132,71235,1,2,0:0:0:0:
228,232,71401,1,2,0:0:0:0:
88,328,71568,2,0,B|44:332|44:332|-8:316,1,90,8|0,0:0|0:0,0:0:0:0:
224,368,71901,6,0,L|408:352,1,180,2|12,0:0|0:0,0:0:0:0:
504,216,72401,1,0,0:0:0:0:
336,80,72568,2,0,P|300:120|312:216,1,135,8|0,0:0|0:0,0:0:0:0:
373,242,72901,2,0,P|384:198|372:156,1,90,8|0,0:0|0:0,0:0:0:0:
141,114,73235,5,4,0:0:0:0:
368,268,73401,1,0,0:0:0:0:
120,217,73568,5,8,0:0:0:0:
389,165,73734,1,0,0:0:0:0:
178,305,73901,5,8,0:0:0:0:
331,77,74068,1,0,0:0:0:0:
282,325,74234,5,8,0:0:0:0:
229,56,74401,1,0,0:0:0:0:
405,252,74568,5,8,0:0:0:0:
124,153,74735,1,0,0:0:0:0:
327,48,74901,5,12,0:0:0:0:
282,325,75068,1,0,0:0:0:0:
111,239,75235,6,0,P|107:195|139:139,1,90,8|0,0:0|0:0,0:0:0:0:
335,205,75568,1,8,0:0:0:0:
335,205,75651,1,8,0:0:0:0:
335,205,75735,1,8,0:0:0:0:
213,23,75901,5,4,0:0:0:0:
392,328,76068,1,0,0:0:0:0:
406,55,76235,5,8,0:0:0:0:
234,301,76401,1,0,0:0:0:0:
283,0,76568,5,12,0:0:0:0:
348,367,76735,1,0,0:0:0:0:
75,103,76901,1,8,0:0:0:0:
451,157,77068,1,0,0:0:0:0:
116,335,77235,5,4,0:0:0:0:
24,312,77901,5,8,0:0:0:0:
52,316,77985,1,8,0:0:0:0:
80,320,78068,1,8,0:0:0:0:
108,324,78151,1,8,0:0:0:0:
136,328,78235,1,8,0:0:0:0:
164,332,78318,1,8,0:0:0:0:
192,336,78401,1,8,0:0:0:0:
220,340,78485,1,8,0:0:0:0:
248,344,78568,6,0,P|280:296|256:172,1,180,4|8,0:0|0:0,0:0:0:0:
108,104,79068,1,0,0:0:0:0:
88,272,79235,2,0,L|192:260,1,90,8|0,0:0|0:0,0:0:0:0:
324,64,79568,2,0,L|220:52,1,90,8|0,0:0|0:0,0:0:0:0:
177,261,79901,5,8,0:0:0:0:
471,82,80068,1,0,0:0:0:0:
233,21,80235,1,8,0:0:0:0:
396,281,80401,1,0,0:0:0:0:
209,183,80568,5,8,0:0:0:0:
490,104,80735,1,0,0:0:0:0:
188,160,80901,1,8,0:0:0:0:
506,127,81068,1,0,0:0:0:0:
268,372,81235,6,0,P|203:370|124:283,1,180,8|8,0:0|0:0,0:0:0:0:
152,97,81735,1,0,0:0:0:0:
237,183,81901,2,0,L|222:296,1,90,8|0,0:0|0:0,0:0:0:0:
135,199,82235,1,8,0:0:0:0:
135,199,82401,1,0,0:0:0:0:
373,256,82568,5,8,0:0:0:0:
110,79,82735,1,0,0:0:0:0:
379,158,82901,1,8,0:0:0:0:
161,330,83068,1,0,0:0:0:0:
245,68,83235,5,8,0:0:0:0:
271,295,83401,1,0,0:0:0:0:
372,46,83568,1,12,0:0:0:0:
386,292,83735,1,0,0:0:0:0:
480,224,83901,6,0,P|456:180|335:189,1,180,12|8,0:0|0:0,0:0:0:0:
204,280,84401,1,0,0:0:0:0:
364,376,84568,2,0,P|388:324|372:260,1,90,8|0,0:0|0:0,0:0:0:0:
212,24,84901,2,0,P|188:76|204:140,1,90,8|0,0:0|0:0,0:0:0:0:
355,347,85235,5,8,0:0:0:0:
156,36,85401,1,0,0:0:0:0:
411,92,85568,1,8,0:0:0:0:
100,291,85734,1,0,0:0:0:0:
373,265,85901,5,12,0:0:0:0:
137,116,86068,1,0,0:0:0:0:
330,73,86235,1,8,0:0:0:0:
181,309,86400,1,0,0:0:0:0:
392,221,86568,6,0,L|376:12,1,180,4|8,0:0|0:0,0:0:0:0:
280,144,87068,1,8,0:0:0:0:
480,208,87235,5,8,0:0:0:0:
336,332,87401,1,8,0:0:0:0:
256,124,87568,1,8,0:0:0:0:
140,348,87735,1,8,0:0:0:0:
141,38,87901,5,8,0:0:0:0:
322,289,88068,1,8,0:0:0:0:
28,192,88235,1,8,0:0:0:0:
323,98,88402,1,8,0:0:0:0:
140,348,88568,6,0,L|151:255,1,90,8|8,0:0|0:0,0:0:0:0:
229,73,88901,1,8,0:0:0:0:
322,289,89068,1,4,0:0:0:0:
