osu file format v14

[General]
AudioFilename: optc.mp3
AudioLeadIn: 0
PreviewTime: 258
Countdown: 0
SampleSet: Soft
StackLeniency: 0.7
Mode: 0
LetterboxInBreaks: 0
WidescreenStoryboard: 0

[Editor]
Bookmarks: 464,7039,13614,20190,33340,46491,53066,61285,74436,87587
DistanceSpacing: 1.7
BeatDivisor: 4
GridSize: 32
TimelineZoom: 3.399999

[Metadata]
Title:DEAREST DROP (TVsize)
TitleUnicode:DEAREST DROP (TVsize)
Artist:Azusa Tadokoro
ArtistUnicode:田所あずさ
Creator:Shad0w1and
Version:Ultra
Source:終末なにしてますか? 忙しいですか? 救ってもらっていいですか?
Tags:Shuumatsu Nani Shitemasuka? Isogashii Desuka? Sukutte Moratte Ii Desuka? Sukasuka Misure Lanturn Lami intoon
BeatmapID:1517793
BeatmapSetID:718632

[Difficulty]
HPDrainRate:5
CircleSize:3.5
OverallDifficulty:7.8
ApproachRate:9.3
SliderMultiplier:2
SliderTickRate:1

[Events]
//Background and Video events
Video,0,"optc.flv"
0,0,"BG0.jpg",0,0
//Break Periods
//Storyboard Layer 0 (Background)
//Storyboard Layer 1 (Fail)
//Storyboard Layer 2 (Pass)
//Storyboard Layer 3 (Foreground)
//Storyboard Sound Samples

[TimingPoints]
464,410.958904109589,4,2,1,60,1,0
5395,-133.333333333333,4,2,1,60,0,0
5806,-100,4,2,1,60,0,0
7039,-66.6666666666667,4,2,1,90,0,0
13614,-62.5,4,2,1,100,0,1
15258,-100,4,2,1,100,0,1
15669,-71.4285714285714,4,2,1,100,0,1
16902,-50,4,2,1,100,0,1
17313,-66.6666666666667,4,2,1,100,0,1
18546,-50,4,2,1,100,0,1
19368,-133.333333333333,4,2,1,70,0,0
20190,-100,4,2,1,60,0,0
26765,-133.333333333333,4,2,1,50,0,0
29231,-100,4,2,1,50,0,0
31696,-50,4,2,1,50,0,0
32518,-100,4,2,1,60,0,0
33340,-66.6666666666667,4,2,1,70,0,0
44847,-50,4,2,1,80,0,0
46491,-66.6666666666667,4,2,1,80,0,0
59642,-133.333333333333,4,2,1,60,0,0
60053,-200,4,2,1,60,0,0
60463,-66.6666666666667,4,2,1,70,0,0
61285,-62.5,4,2,1,100,0,1
66217,-83.3333333333333,4,2,1,100,0,1
66628,-62.5,4,2,1,100,0,1
71148,-100,4,2,1,90,0,0
71765,-71.4285714285714,4,2,1,90,0,0
72587,-100,4,2,1,90,0,0
73409,-71.4285714285714,4,2,1,90,0,0
74436,-62.5,4,2,1,100,0,1
78957,-83.3333333333333,4,2,1,100,0,1
79368,-62.5,4,2,1,100,0,1
81011,-100,4,2,1,100,0,1
81628,-66.6666666666667,4,2,1,100,0,1
82039,-100,4,2,1,100,0,1
84299,-66.6666666666667,4,2,1,100,0,1
85943,-66.6666666666667,4,2,1,100,0,0
86765,-50,4,2,1,90,0,0
87073,-66.6666666666667,4,2,1,90,0,0
87330,-90.9090909090909,4,2,1,100,0,0
87587,-200,4,2,1,100,0,0
88409,-200,4,2,1,5,0,0

[Colours]
Combo1 : 255,220,113
Combo2 : 174,255,94
Combo3 : 125,138,255
Combo4 : 255,85,89

[HitObjects]
249,129,464,6,0,P|203:81|162:28,1,100,2|0,0:0|0:0,0:0:0:0:
120,134,772,2,0,P|84:143|41:144,2,50
189,206,1080,2,0,P|200:237|209:282,1,50,2|0,0:0|0:0,0:0:0:0:
413,318,1285,6,0,P|462:306|504:247,1,100,2|0,0:0|0:0,0:0:0:0:
311,225,1594,2,0,L|305:306,2,50
385,110,1902,2,0,P|414:110|466:109,1,50,2|0,0:0|0:0,0:0:0:0:
409,208,2107,6,0,P|355:221|298:224,1,100,2|0,0:0|0:0,0:0:0:0:
204,253,2416,1,0,0:0:0:0:
204,253,2518,2,0,L|216:324,2,50
234,146,2929,5,2,0:0:0:0:
158,66,3135,1,2,0:0:0:0:
131,168,3340,5,2,0:0:0:0:
268,42,3546,1,2,0:0:0:0:
56,98,3751,6,0,P|84:184|100:272,1,150,2|0,0:0|0:0,0:0:0:0:
173,98,4162,2,0,P|179:75|194:36,1,50
270,145,4368,2,0,P|278:174|282:206,1,50,2|0,0:0|0:0,0:0:0:0:
382,261,4573,6,0,P|455:235|486:172,1,150,2|0,0:0|0:0,0:0:0:0:
257,96,4984,2,0,P|269:141|275:183,1,50
378,152,5190,2,0,P|383:122|394:69,1,50
196,227,5395,6,0,P|222:272|271:255,1,112.500004291535,2|0,0:0|0:0,0:0:0:0:
269,144,5806,6,0,P|201:151|105:153,1,150,2|0,0:0|0:0,0:0:0:0:
219,332,6217,6,0,P|262:295|270:228,1,100,2|0,0:0|0:0,0:0:0:0:
60,247,6525,2,0,P|76:293|115:325,1,100,2|0,0:0|0:0,0:0:0:0:
170,233,6833,2,0,L|170:183,1,50,2|0,0:0|0:0,0:0:0:0:
358,187,7039,6,0,P|369:274|391:375,1,150.000005722046,14|0,0:0|0:0,0:0:0:0:
273,254,7347,1,8,0:1:0:0:
358,187,7450,2,0,P|396:196|440:201,1,75.0000028610231,8|0,0:1|0:0,0:0:0:0:
237,352,7655,6,0,P|180:305|170:233,1,150.000005722046,10|0,0:0|0:0,0:0:0:0:
358,187,7963,1,8,0:1:0:0:
373,292,8066,1,8,0:1:0:0:
273,254,8169,1,8,0:1:0:0:
358,187,8272,6,0,P|394:178|448:177,1,75.0000028610231,10|0,0:0|0:0,0:0:0:0:
273,254,8477,2,0,P|227:254|174:243,1,75.0000028610231,8|0,0:1|0:0,0:0:0:0:
341,77,8683,6,0,P|412:95|459:153,1,150.000005722046,10|0,0:0|0:0,0:0:0:0:
358,187,8991,1,8,0:1:0:0:
341,77,9094,2,0,P|380:63|428:39,1,75.0000028610231,8|0,0:1|0:0,0:0:0:0:
467,267,9299,6,0,P|428:205|358:187,1,150.000005722046,10|0,0:0|0:0,0:0:0:0:
273,254,9607,1,8,0:1:0:0:
345,368,9710,2,0,P|360:333|372:287,1,75.0000028610231,8|8,0:1|0:1,0:0:0:0:
253,145,9916,5,10,0:0:0:0:
167,218,10018,1,8,0:1:0:0:
191,325,10121,1,10,0:1:0:0:
295,364,10224,1,8,0:1:0:0:
273,254,10327,6,0,P|201:241|86:244,1,150.000005722046,14|0,0:0|0:0,0:0:0:0:
253,145,10635,1,8,0:1:0:0:
273,254,10737,2,0,P|247:308|234:347,1,75.0000028610231,8|0,0:1|0:0,0:0:0:0:
116,121,10943,6,0,P|188:108|252:144,1,150.000005722046,10|0,0:0|0:0,0:0:0:0:
273,254,11251,1,8,0:1:0:0:
192,322,11354,1,8,0:1:0:0:
167,218,11457,1,8,0:1:0:0:
252,144,11559,6,0,P|290:147|384:136,1,75.0000028610231,10|0,0:0|0:0,0:0:0:0:
167,218,11765,2,0,P|115:212|59:215,1,75.0000028610231,8|0,0:1|0:0,0:0:0:0:
208,373,11970,6,0,P|264:326|272:253,1,150.000005722046,10|0,0:0|0:0,0:0:0:0:
167,218,12279,1,8,0:1:0:0:
86,287,12381,2,0,P|96:325|105:408,1,75.0000028610231,8|0,0:1|0:0,0:0:0:0:
272,253,12587,2,0,P|281:155|296:45,1,150.000005722046,10|0,0:0|0:0,0:0:0:0:
370,186,12895,1,8,0:1:0:0:
272,253,12998,2,0,P|216:247|154:236,1,75.0000028610231,8|8,0:1|0:1,0:0:0:0:
174,126,13203,5,10,0:0:0:0:
287,103,13306,1,8,0:1:0:0:
196,92,13409,5,10,0:1:0:0:
252,80,13511,1,8,0:1:0:0:
216,59,13614,6,0,P|232:137|243:216,1,160,14|0,0:0|0:0,0:0:0:0:
450,218,14025,2,0,P|406:154|330:141,1,160,8|8,0:0|0:1,0:0:0:0:
243,216,14333,1,8,0:1:0:0:
128,196,14436,2,0,P|119:111|104:30,1,160,10|0,0:0|0:0,0:0:0:0:
243,216,14847,2,0,P|221:298|209:378,1,160,8|0,0:0|0:0,0:0:0:0:
0,220,15258,6,0,B|81:170|81:170|148:206,1,150,10|0,0:0|0:0,0:0:0:0:
243,216,15669,6,0,P|307:164|313:84,1,139.999995727539,10|0,0:0|0:0,0:0:0:0:
205,108,15977,1,8,0:1:0:0:
171,306,16080,6,0,P|97:289|17:282,1,139.999995727539,10|0,0:0|0:0,0:0:0:0:
243,216,16388,1,10,0:1:0:0:
264,243,16491,2,0,B|272:338,1,69.9999978637696,8|0,0:0|0:0,0:0:0:0:
337,178,16696,2,0,L|360:89,1,69.9999978637696,10|0,0:0|0:0,0:0:0:0:
494,212,16902,6,0,P|476:305|385:334,1,200,14|0,0:0|0:0,0:0:0:0:
404,242,17210,1,8,0:1:0:0:
494,212,17313,5,10,0:0:0:0:
477,307,17416,1,8,0:1:0:0:
385,334,17518,1,10,0:1:0:0:
314,269,17621,1,8,0:1:0:0:
337,178,17724,2,0,L|363:72,1,75.0000028610231,10|0,0:0|0:0,0:0:0:0:
169,64,17929,5,10,0:1:0:0:
77,106,18032,1,8,0:1:0:0:
70,207,18135,1,10,0:0:0:0:
152,260,18237,1,8,0:1:0:0:
243,216,18340,1,10,0:0:0:0:
249,115,18443,1,8,0:0:0:0:
161,162,18546,6,0,B|160:312|160:312|202:239,1,200,14|0,0:0|0:0,0:0:0:0:
70,207,18854,5,14,0:0:0:0:
249,115,19162,1,14,0:0:0:0:
85,59,19368,6,0,P|95:128|166:163,1,150.000005722046,14|0,0:0|0:0,0:0:0:0:
184,268,19984,1,2,0:0:0:0:
184,268,20087,1,2,0:0:0:0:
184,268,20190,6,0,P|241:251|348:236,1,150,2|0,0:0|0:0,0:0:0:0:
330,237,20600,1,0,0:0:0:0:
383,154,20806,5,2,0:0:0:0:
431,242,21011,1,2,0:0:0:0:
330,237,21217,1,2,0:0:0:0:
286,147,21422,1,2,0:0:0:0:
342,64,21628,1,2,0:0:0:0:
330,237,21833,6,0,P|240:239|188:165,1,150,2|0,0:0|0:0,0:0:0:0:
200,201,22244,1,0,0:0:0:0:
102,263,22450,5,2,0:0:0:0:
89,290,22655,1,2,0:0:0:0:
83,319,22861,1,2,0:0:0:0:
83,348,23066,1,2,0:0:0:0:
90,377,23272,1,2,0:0:0:0:
200,201,23477,6,0,P|194:140|168:57,1,100,2|0,0:0|0:0,0:0:0:0:
185,103,23785,2,0,L|259:99,1,50,2|0,0:0|0:0,0:0:0:0:
102,263,24094,1,2,0:0:0:0:
318,217,24299,6,0,P|373:242|458:261,1,100,2|0,0:0|0:0,0:0:0:0:
410,253,24607,2,0,L|376:319,1,50,2|0,0:0|0:0,0:0:0:0:
313,101,24916,1,2,0:0:0:0:
245,312,25121,6,0,P|195:347|136:411,1,100,2|0,0:0|0:0,0:0:0:0:
167,373,25429,2,0,L|126:310,1,50,2|0,0:0|0:0,0:0:0:0:
347,365,25738,1,2,0:0:0:0:
439,328,25943,6,0,P|391:340|321:387,1,100,2|0,0:0|0:0,0:0:0:0:
245,312,26251,1,0,0:0:0:0:
218,284,26354,2,0,L|218:199,2,50,2|0|0,0:0|0:0|0:0,0:0:0:0:
244,199,26765,6,0,L|245:330,1,112.500004291535,10|2,0:1|0:0,0:0:0:0:
270,164,27176,1,8,0:1:0:0:
141,254,27381,1,2,0:0:0:0:
289,317,27587,6,0,L|401:250,1,112.500004291535,10|2,0:1|0:0,0:0:0:0:
245,311,27998,1,8,0:1:0:0:
388,378,28203,1,2,0:0:0:0:
369,220,28409,6,0,L|255:155,1,112.500004291535,10|2,0:1|0:0,0:0:0:0:
386,260,28820,1,8,0:1:0:0:
372,103,29025,1,2,0:0:0:0:
141,254,29231,6,0,P|159:306|190:365,2,100,10|0|8,0:1|0:0|0:1,0:0:0:0:
241,224,29847,1,2,0:0:0:0:
339,317,30053,5,10,0:1:0:0:
339,317,30155,1,0,0:0:0:0:
339,317,30258,2,0,L|276:317,2,50,0|2|8,0:0|0:0|0:1,0:0:0:0:
241,224,30669,1,2,0:0:0:0:
140,131,30874,5,10,0:1:0:0:
140,131,30977,1,0,0:0:0:0:
140,131,31080,2,0,L|208:131,2,50,0|2|8,0:0|0:0|0:1,0:0:0:0:
238,38,31491,1,2,0:0:0:0:
241,224,31696,6,0,P|335:172|260:127,1,200,2|0,0:0|0:0,0:0:0:0:
186,317,32005,2,0,B|125:288|51:284|51:284|63:246|106:223,1,200,2|2,0:0|0:0,0:0:0:0:
241,224,32313,1,2,0:0:0:0:
346,364,32518,5,8,0:0:0:0:
444,344,32621,1,8,0:0:0:0:
476,249,32724,2,0,L|450:164,1,50,4|8,0:3|0:1,0:0:0:0:
298,127,32929,5,8,0:0:0:0:
200,146,33032,1,4,0:3:0:0:
168,242,33135,2,0,L|183:294,1,50,4|8,0:3|0:1,0:0:0:0:
375,269,33340,6,0,B|417:118|417:118|355:72,1,225.000008583069,14|0,0:0|0:0,0:0:0:0:
303,166,33751,1,8,0:0:0:0:
441,361,33957,2,0,P|476:345|532:333,1,75.0000028610231,10|0,0:1|0:0,0:0:0:0:
375,269,34162,6,0,P|298:251|202:245,1,150.000005722046,10|8,0:0|0:1,0:0:0:0:
26,368,34573,2,0,P|123:360|203:335,1,150.000005722046,8|8,0:0|0:1,0:0:0:0:
130,78,34984,6,0,P|21:108|6:222,1,225.000008583069,14|0,0:0|0:0,0:0:0:0:
208,161,35395,2,0,P|216:125|239:51,1,75.0000028610231,8|0,0:0|0:0,0:0:0:0:
102,178,35600,2,0,P|110:213|123:311,1,75.0000028610231,10|0,0:1|0:0,0:0:0:0:
288,345,35806,6,0,P|383:307|396:242,1,150.000005722046,10|8,0:0|0:1,0:0:0:0:
116,251,36217,2,0,P|31:226|13:135,1,150.000005722046,8|8,0:0|0:1,0:0:0:0:
288,80,36628,6,0,B|330:105|330:105|311:228,1,150.000005722046,14|0,0:0|0:0,0:0:0:0:
433,167,36936,2,0,L|447:87,1,75.0000028610231,10|8,0:1|0:0,0:0:0:0:
208,161,37244,1,2,0:0:0:0:
436,242,37450,6,0,B|392:266|392:266|295:187,1,150.000005722046,14|0,0:0|0:0,0:0:0:0:
288,324,37758,2,0,L|350:376,1,75.0000028610231,10|8,0:1|0:0,0:0:0:0:
405,132,38066,1,2,0:0:0:0:
220,288,38272,6,0,B|220:238|220:238|337:193,1,150.000005722046,14|0,0:0|0:0,0:0:0:0:
222,118,38580,2,0,L|145:145,1,75.0000028610231,10|8,0:1|0:0,0:0:0:0:
330,316,38888,1,2,0:0:0:0:
130,274,39094,5,10,0:0:0:0:
221,239,39196,1,8,0:0:0:0:
313,202,39299,1,8,0:1:0:0:
405,166,39402,1,8,0:1:0:0:
394,264,39505,5,8,0:0:0:0:
229,138,39710,1,10,0:1:0:0:
410,114,39916,6,0,L|394:264,1,150.000005722046,14|0,0:0|0:0,0:0:0:0:
485,115,40224,2,0,L|374:114,1,75.0000028610231,6|8,0:0|0:0,0:0:0:0:
454,359,40532,1,14,0:0:0:0:
212,287,40737,6,0,L|228:137,1,150.000005722046,14|0,0:0|0:0,0:0:0:0:
137,286,41045,2,0,L|248:287,1,75.0000028610231,6|8,0:0|0:0,0:0:0:0:
313,69,41251,5,8,0:1:0:0:
236,30,41354,1,8,0:0:0:0:
155,60,41457,1,8,0:1:0:0:
121,137,41559,2,0,L|137:286,1,150.000005722046,14|0,0:0|0:0,0:0:0:0:
196,137,41868,2,0,L|108:137,1,75.0000028610231,6|8,0:0|0:0,0:0:0:0:
306,281,42176,6,0,P|328:256|342:198,1,75.0000028610231,14|0,0:0|0:0,0:0:0:0:
196,137,42381,2,0,P|206:168|249:209,1,75.0000028610231,14|0,0:0|0:0,0:0:0:0:
376,115,42587,2,0,P|343:108|286:124,1,75.0000028610231,10|10,0:0|0:0,0:0:0:0:
445,205,42792,5,4,0:3:0:0:
477,104,42895,1,4,0:3:0:0:
480,198,42999,5,4,0:3:0:0:
512,95,43100,1,4,0:3:0:0:
341,217,43203,6,0,B|401:232|401:232|436:198|487:198,1,150.000005722046,14|0,0:0|0:0,0:0:0:0:
437,62,43511,2,0,B|409:51|392:26|392:26|369:65|378:151,1,150.000005722046,6|0,0:0|0:0,0:0:0:0:
441,372,43820,2,0,P|473:339|489:297,1,75.0000028610231,14|0,0:0|0:0,0:0:0:0:
341,216,44025,6,0,P|339:296|330:371,1,150.000005722046,14|0,0:0|0:0,0:0:0:0:
238,236,44333,1,10,0:1:0:0:
233,199,44436,2,0,P|200:181|152:178,1,75.0000028610231,8|0,0:0|0:0,0:0:0:0:
341,217,44642,2,0,P|345:191|336:133,1,75.0000028610231,10|8,0:0|0:1,0:0:0:0:
269,304,44847,6,0,P|170:340|179:272,1,200,14|0,0:0|0:0,0:0:0:0:
364,384,45155,2,0,B|421:346|487:330|487:330|465:315|427:299,1,200,6|0,0:0|0:0,0:0:0:0:
294,128,45463,2,0,B|317:109|337:81|337:81|350:132|341:225,1,200,14|0,0:0|0:0,0:0:0:0:
229,18,45874,5,6,0:3:0:0:
341,216,46080,1,6,0:3:0:0:
101,114,46285,1,6,0:3:0:0:
156,252,46491,6,0,P|139:187|97:108,1,150.000005722046,14|0,0:0|0:0,0:0:0:0:
219,137,46799,2,0,P|244:135|332:119,1,75.0000028610231,14|0,0:1|0:0,0:0:0:0:
230,262,47107,6,0,P|192:255|122:252,1,75.0000028610231,14|0,0:1|0:0,0:0:0:0:
325,383,47313,2,0,P|333:308|347:235,1,150.000005722046,14|0,0:0|0:0,0:0:0:0:
347,234,47724,6,0,P|411:223|420:139,1,150.000005722046,14|0,0:0|0:0,0:0:0:0:
209,190,48032,2,0,P|221:230|238:293,1,75.0000028610231,14|0,0:1|0:0,0:0:0:0:
404,280,48341,6,0,P|379:253|321:226,1,75.0000028610231,14|0,0:1|0:0,0:0:0:0:
309,349,48546,2,0,P|376:340|479:336,1,150.000005722046,14|0,0:0|0:0,0:0:0:0:
486,314,48957,5,10,0:3:0:0:
347,234,49162,1,10,0:3:0:0:
461,154,49368,1,6,0:3:0:0:
309,349,49573,1,6,0:3:0:0:
308,111,49779,6,0,P|374:118|476:124,1,150.000005722046,14|0,0:0|0:0,0:0:0:0:
389,294,50087,2,0,P|358:257|337:197,1,75.0000028610231,14|0,0:1|0:0,0:0:0:0:
255,163,50395,6,0,P|275:137|308:110,1,75.0000028610231,14|0,0:1|0:0,0:0:0:0:
389,294,50600,2,0,P|310:276|226:275,1,150.000005722046,14|0,0:0|0:0,0:0:0:0:
241,273,51011,6,0,P|224:341|154:350,1,150.000005722046,14|0,0:0|0:0,0:0:0:0:
181,172,51320,2,0,P|227:167|291:154,1,75.0000028610231,14|0,0:1|0:0,0:0:0:0:
314,290,51628,6,0,P|274:278|210:269,1,75.0000028610231,14|0,0:1|0:0,0:0:0:0:
314,60,51833,2,0,P|363:114|368:187,1,150.000005722046,14|0,0:0|0:0,0:0:0:0:
255,162,52142,1,8,0:0:0:0:
255,162,52244,1,10,0:3:0:0:
425,294,52450,1,6,0:3:0:0:
167,233,52655,5,6,0:3:0:0:
139,154,52758,1,8,0:0:0:0:
171,79,52861,1,10,0:0:0:0:
245,45,52963,1,8,0:0:0:0:
324,68,53066,5,14,0:0:0:0:
167,233,53272,1,10,0:0:0:0:
167,233,53374,2,0,P|116:228|63:208,1,75.0000028610231,6|0,0:3|0:0,0:0:0:0:
255,162,53580,1,10,0:0:0:0:
255,162,53683,2,0,P|246:243|241:333,1,150.000005722046,6|0,0:0|0:0,0:0:0:0:
255,162,54094,5,8,0:1:0:0:
355,319,54299,2,0,L|328:230,1,75.0000028610231,8|0,0:0|0:0,0:0:0:0:
276,90,54505,2,0,L|245:192,1,75.0000028610231,8|0,0:1|0:0,0:0:0:0:
241,311,54710,5,14,0:0:0:0:
366,141,54916,1,10,0:0:0:0:
366,141,55018,2,0,P|402:139|447:140,1,75.0000028610231,6|0,0:3|0:0,0:0:0:0:
334,248,55224,1,10,0:0:0:0:
334,248,55327,2,0,P|258:246|147:234,1,150.000005722046,6|0,0:0|0:0,0:0:0:0:
366,141,55635,5,10,0:0:0:0:
366,141,55737,2,0,P|369:108|380:58,1,75.0000028610231,10|0,0:1|0:0,0:0:0:0:
261,202,55943,2,0,P|247:167|226:94,1,75.0000028610231,10|0,0:0|0:0,0:0:0:0:
443,237,56148,1,10,0:1:0:0:
481,226,56251,1,10,0:1:0:0:
430,346,56354,6,0,P|351:299|337:214,2,150.000005722046,14|0|8,0:0|0:0|0:0,0:0:0:0:
441,137,56970,6,0,P|400:136|340:147,1,75.0000028610231,10|0,0:1|0:0,0:0:0:0:
261,202,57176,2,0,P|220:227|160:244,1,75.0000028610231,10|0,0:0|0:0,0:0:0:0:
322,46,57381,2,0,P|283:65|237:106,1,75.0000028610231,10|0,0:1|0:0,0:0:0:0:
155,141,57587,2,0,P|101:141|43:131,1,75.0000028610231,10|0,0:0|0:0,0:0:0:0:
260,295,57792,1,8,0:0:0:0:
334,247,57895,1,8,0:0:0:0:
261,202,57998,6,0,P|212:246|261:295,1,150.000005722046,14|0,0:0|0:0,0:0:0:0:
365,138,58306,2,0,P|287:108|188:42,1,150.000005722046,10|0,0:3|0:0,0:0:0:0:
405,74,58614,2,0,P|383:112|342:166,1,75.0000028610231,6|0,0:3|0:0,0:0:0:0:
117,153,58820,6,0,P|159:92|230:73,1,150.000005722046,14|0,0:0|0:0,0:0:0:0:
143,269,59128,2,0,P|65:240|-21:219,1,150.000005722046,10|0,0:3|0:0,0:0:0:0:
225,190,59436,2,0,P|261:189|306:185,1,75.0000028610231,6|0,0:3|0:0,0:0:0:0:
119,43,59642,6,2,B|100:97|137:93|117:152,1,112.500004291535,10|0,0:0|0:0,1:1:0:0:
140,170,60053,6,2,P|148:121|142:87,1,75,2|0,0:0|0:0,1:1:0:0:
26,128,60463,5,8,0:0:0:0:
17,210,60566,1,8,0:0:0:0:
63,278,60669,1,8,0:3:0:0:
142,300,60772,1,8,0:0:0:0:
216,266,60874,5,8,0:3:0:0:
293,295,60977,1,8,0:3:0:0:
364,253,61080,1,4,0:3:0:0:
440,284,61183,1,4,0:3:0:0:
511,234,61285,6,0,B|505:163|528:80|528:80|473:108|445:175,1,240,14|0,0:0|0:0,0:0:0:0:
343,145,61696,2,0,P|349:109|373:37,1,80,10|0,0:0|0:0,0:0:0:0:
270,259,61902,2,0,P|253:232|233:187,1,80,8|0,0:0|0:0,0:0:0:0:
347,356,62107,6,0,B|445:345|507:308|507:308|473:289|439:283,1,240,6|0,0:0|0:0,0:0:0:0:
270,259,62518,2,0,P|211:272|144:276,1,80,10|0,0:0|0:0,0:0:0:0:
343,145,62724,2,0,P|287:139|226:140,1,80,8|0,0:0|0:0,0:0:0:0:
440,283,62929,6,0,P|456:210|471:103,1,160,14|0,0:0|0:0,0:0:0:0:
468,125,63237,1,0,0:0:0:0:
468,125,63340,1,8,0:0:0:0:
347,356,63546,1,8,0:0:0:0:
115,181,63751,6,0,L|210:167,1,80,10|0,0:0|0:0,0:0:0:0:
349,248,63957,2,0,L|246:262,1,80,10|0,0:1|0:0,0:0:0:0:
154,76,64162,2,0,L|252:62,1,80,10|0,0:0|0:0,0:0:0:0:
382,142,64368,2,0,L|279:156,1,80,10|0,0:1|0:0,0:0:0:0:
155,384,64573,6,0,L|323:360,1,160,14|2,0:0|0:0,0:0:0:0:
321,322,64881,1,2,0:0:0:0:
427,305,64984,1,10,0:0:0:0:
414,267,65087,1,2,0:0:0:0:
500,201,65190,1,10,0:0:0:0:
470,174,65292,1,2,0:0:0:0:
360,174,65395,6,0,L|259:169,1,80,10|0,0:3|0:0,0:0:0:0:
328,282,65600,1,10,0:1:0:0:
321,322,65703,1,10,0:1:0:0:
432,321,65806,6,0,L|519:325,1,80,6|0,0:3|0:0,0:0:0:0:
463,214,66011,1,10,0:1:0:0:
470,174,66114,1,10,0:1:0:0:
360,174,66217,6,0,P|279:167|311:103,1,179.999994506836,14|0,0:0|0:0,0:0:0:0:
397,198,66628,6,0,P|379:309|375:374,1,160,14|0,0:0|0:0,0:0:0:0:
221,251,67039,1,14,0:0:0:0:
300,263,67142,6,0,L|221:251,1,80,8|0,0:0|0:0,0:0:0:0:
169,151,67347,1,10,0:1:0:0:
90,162,67450,6,0,L|206:145,1,80,12|8,0:0|0:1,0:0:0:0:
322,75,67655,2,0,L|227:62,1,80,10|0,0:0|0:0,0:0:0:0:
55,6,67861,6,0,P|67:93|97:177,1,160,14|0,0:0|0:0,0:0:0:0:
90,161,68169,1,8,0:1:0:0:
90,161,68272,1,8,0:0:0:0:
360,174,68477,1,8,0:1:0:0:
221,251,68683,6,0,B|202:150|202:150|242:93,1,160,14|0,0:0|0:0,0:0:0:0:
90,161,68991,1,2,0:0:0:0:
11,145,69094,6,0,L|90:161,1,80,8|0,0:0|0:0,0:0:0:0:
33,253,69299,2,0,L|112:269,1,80,10|0,0:0|0:0,0:0:0:0:
374,322,69505,6,0,B|393:221|393:221|353:164,1,160,14|0,0:0|0:0,0:0:0:0:
221,251,69813,1,2,0:0:0:0:
300,267,69916,6,0,L|217:250,1,80,8|0,0:0|0:0,0:0:0:0:
360,174,70121,2,0,L|269:156,1,80,10|0,0:0|0:0,0:0:0:0:
510,50,70327,6,0,P|505:153|493:231,1,160,14|2,0:0|0:0,0:0:0:0:
457,214,70635,1,2,0:0:0:0:
433,319,70737,1,10,0:0:0:0:
395,303,70840,1,2,0:0:0:0:
320,382,70943,1,10,0:0:0:0:
295,349,71046,1,2,0:0:0:0:
313,233,71148,6,0,B|362:218|362:218|406:230|406:230|457:214,1,150,14|0,0:0|0:0,0:0:0:0:
290,199,71559,1,10,0:0:0:0:
501,300,71765,6,0,B|476:337|464:387|464:387|450:334|428:297|428:297|449:259|458:206,1,279.999991455078,14|8,0:0|0:0,0:0:0:0:
457,214,72381,1,8,0:0:0:0:
221,250,72587,2,0,L|221:333,1,50,10|0,0:0|0:0,0:1:0:0:
38,217,72792,5,14,0:0:0:0:
1,140,72895,1,10,0:1:0:0:
26,58,72998,1,10,0:3:0:0:
97,12,73100,1,10,0:3:0:0:
181,25,73203,1,14,0:0:0:0:
221,250,73409,6,0,B|358:249|358:249|303:188,1,209.999993591309,14|0,0:0|0:0,0:0:0:0:
447,73,73820,5,10,0:0:0:0:
414,172,73922,1,8,0:0:0:0:
379,273,74025,1,10,0:3:0:0:
309,194,74128,1,8,0:3:0:0:
238,114,74231,1,6,0:3:0:0:
341,95,74333,1,4,0:3:0:0:
447,73,74436,6,0,L|358:341,1,240,14|0,0:0|0:0,0:0:0:0:
293,178,74847,2,0,L|372:181,1,80,10|0,0:0|0:0,0:0:0:0:
451,304,75053,2,0,L|345:299,1,80,8|0,0:0|0:0,0:0:0:0:
242,298,75258,6,0,P|192:207|299:182,1,240,6|0,0:0|0:0,0:0:0:0:
371,300,75669,2,0,P|363:339|349:383,1,80,10|0,0:0|0:0,0:0:0:0:
456,188,75874,2,0,P|443:148|429:66,1,80,8|0,0:0|0:0,0:0:0:0:
313,19,76080,6,0,P|301:76|293:177,1,160,14|0,0:0|0:0,0:0:0:0:
293,177,76388,1,0,0:0:0:0:
293,177,76491,1,8,0:0:0:0:
111,27,76696,1,8,0:0:0:0:
166,178,76902,6,0,P|187:148|197:88,1,80,10|0,0:0|0:0,0:0:0:0:
70,248,77107,2,0,P|54:221|56:144,1,80,10|0,0:1|0:0,0:0:0:0:
182,296,77313,2,0,P|220:284|260:253,1,80,10|0,0:0|0:0,0:0:0:0:
85,364,77518,2,0,P|47:363|-10:333,1,80,10|0,0:1|0:0,0:0:0:0:
165,178,77724,6,0,P|256:225|182:296,1,240,14|0,0:0|0:0,0:0:0:0:
260,72,78135,2,0,P|297:79|340:85,1,80,10|0,0:0|0:0,0:0:0:0:
70,248,78340,2,0,P|46:174|30:52,1,160,10|0,0:0|0:0,0:0:0:0:
32,93,78648,1,8,0:0:0:0:
32,93,78751,1,8,0:3:0:0:
377,197,78957,6,0,P|410:122|338:84,1,179.999994506836,6|0,0:3|0:0,0:0:0:0:
301,285,79368,6,0,P|207:288|96:304,1,160,14|0,0:0|0:0,0:0:0:0:
152,75,79676,2,0,P|211:125|214:202,1,160,6|0,0:0|0:0,0:0:0:0:
32,93,79984,2,0,P|14:57|4:1,1,80,14|0,0:0|0:0,0:0:0:0:
106,178,80190,6,0,P|50:233|-2:323,1,160,14|0,0:0|0:0,0:0:0:0:
300,283,80498,2,0,P|183:301|103:334,1,160,6|0,0:0|0:0,0:0:0:0:
506,292,80806,2,0,P|468:267|409:213,1,80,14|0,0:0|0:0,0:0:0:0:
304,134,81011,6,0,P|299:212|302:302,1,150,14|0,0:0|0:0,0:0:0:0:
300,283,81422,1,8,0:0:0:0:
376,23,81628,6,0,P|402:119|304:134,1,225.000008583069,14|0,0:0|0:0,0:0:0:0:
188,172,82039,2,0,P|149:164|106:159,1,50,6|0,0:3|0:0,0:0:0:0:
247,65,82244,5,10,0:0:0:0:
304,134,82347,1,8,0:0:0:0:
300,224,82450,1,6,0:3:0:0:
235,286,82553,1,8,0:3:0:0:
188,172,82655,6,0,L|345:179,1,150,14|8,0:0|0:1,0:0:0:0:
235,286,83066,2,0,L|148:282,1,50,10|0,0:0|0:0,0:0:0:0:
247,65,83272,1,12,0:1:0:0:
289,178,83477,6,0,L|338:179,1,50,10|0,0:0|0:0,0:0:0:0:
188,172,83683,1,8,0:1:0:0:
352,270,83888,6,0,P|362:222|339:179,1,100,10|8,0:0|0:1,0:0:0:0:
235,286,84196,1,8,0:1:0:0:
338,378,84299,6,0,P|301:311|217:286,1,150.000005722046,14|0,0:0|0:0,0:0:0:0:
442,339,84607,1,8,0:1:0:0:
487,281,84710,6,0,P|469:314|441:339,1,75.0000028610231,8|0,0:0|0:0,0:0:0:0:
339,178,84916,2,0,P|363:207|381:244,1,75.0000028610231,8|0,0:0|0:0,0:0:0:0:
105,305,85121,5,10,0:0:0:0:
26,247,85224,1,8,0:1:0:0:
20,149,85327,1,8,0:1:0:0:
89,81,85429,1,10,0:0:0:0:
186,91,85532,1,8,0:1:0:0:
243,170,85635,1,8,0:1:0:0:
339,178,85737,1,10,0:0:0:0:
408,110,85840,1,8,0:1:0:0:
403,12,85943,5,14,0:0:0:0:
232,220,86765,6,0,B|158:231|104:201|104:201|145:192|171:167,1,200,10|0,0:3|0:0,0:0:0:0:
189,92,87073,6,0,P|146:143|186:179,1,112.500004291535,6|0,0:3|0:0,0:0:0:0:
314,229,87330,6,0,P|271:224|219:219,1,82.5000025177003,6|0,0:3|0:0,0:0:0:0:
136,295,87587,6,0,P|87:232|172:174,1,200,14|0,0:0|0:0,0:0:0:0:
