osu file format v14

[General]
AudioFilename: optc.mp3
AudioLeadIn: 0
PreviewTime: 258
Countdown: 0
SampleSet: Soft
StackLeniency: 0.5
Mode: 0
LetterboxInBreaks: 0
WidescreenStoryboard: 1

[Editor]
DistanceSpacing: 1.3
BeatDivisor: 4
GridSize: 4
TimelineZoom: 3.399999

[Metadata]
Title:DEAREST DROP (TVsize)
TitleUnicode:DEAREST DROP (TVsize)
Artist:Azusa Tadokoro
ArtistUnicode:田所あずさ
Creator:Shad0w1and
Version:Misure's Another
Source:終末なにしてますか? 忙しいですか? 救ってもらっていいですか?
Tags:Shuumatsu Nani Shitemasuka? Isogashii Desuka? Sukutte Moratte Ii Desuka? Sukasuka Misure Lanturn Lami intoon
BeatmapID:1545076
BeatmapSetID:718632

[Difficulty]
HPDrainRate:6.3
CircleSize:4.3
OverallDifficulty:7.5
ApproachRate:9
SliderMultiplier:1.8
SliderTickRate:1

[Events]
//Background and Video events
0,0,"BG1.jpg",0,0
Video,0,"optc.flv"
//Break Periods
//Storyboard Layer 0 (Background)
//Storyboard Layer 1 (Fail)
//Storyboard Layer 2 (Pass)
//Storyboard Layer 3 (Foreground)
//Storyboard Sound Samples

[TimingPoints]
464,410.958904109589,4,2,1,55,1,0
6217,-100,4,2,1,45,0,0
7039,-83.3333333333333,4,2,1,65,0,0
13614,-83.3333333333333,4,2,1,75,0,0
18546,-76.9230769230769,4,2,1,75,0,0
19368,-100,4,2,1,65,0,0
19779,-100,4,2,1,55,0,0
33340,-90.9090909090909,4,2,1,65,0,0
39916,-76.9230769230769,4,2,1,65,0,0
43203,-90.9090909090909,4,2,1,65,0,0
46491,-100,4,2,1,65,0,0
53066,-90.9090909090909,4,2,1,75,0,0
57998,-76.9230769230769,4,2,1,75,0,0
60053,-100,4,2,1,75,0,0
61285,-76.9230769230769,4,2,1,80,0,1
71148,-90.9090909090909,4,2,1,65,0,0
73820,-76.9230769230769,4,2,1,70,0,0
74436,-76.9230769230769,4,2,1,80,0,1
85943,-90.9090909090909,4,2,1,60,0,0
86765,-90.9090909090909,4,2,1,55,0,0
87587,-125,4,2,1,60,0,1
87792,-125,4,2,1,55,0,1
87998,-125,4,2,1,50,0,1
88203,-125,4,2,1,45,0,1
88409,-125,4,2,1,40,0,0

[Colours]
Combo1 : 255,220,113
Combo2 : 174,255,94
Combo3 : 125,138,255
Combo4 : 255,85,89

[HitObjects]
116,160,464,6,0,P|123:223|183:247,1,135,2|0,0:0|0:0,0:0:0:0:
219,232,874,2,0,L|199:319,1,90
388,92,1285,2,0,P|380:155|320:179,1,135,2|0,0:0|0:0,0:0:0:0:
285,164,1696,2,0,L|304:251,1,90
104,24,2107,2,0,P|111:87|171:111,1,135,2|0,0:0|0:0,0:0:0:0:
208,96,2518,2,0,L|188:183,1,90
316,328,2929,5,2,0:0:0:0:
384,232,3135,1,2,0:0:0:0:
316,328,3340,1,2,0:0:0:0:
285,164,3546,1,2,0:0:0:0:
72,300,3751,6,0,P|138:288|204:273,1,135,2|0,0:0|0:0,0:0:0:0:
187,195,4162,2,0,P|153:166|108:165,1,90
258,31,4573,2,0,P|270:98|285:164,1,135,2|0,0:0|0:0,0:0:0:0:
362,146,4984,2,0,P|391:113|393:69,1,90
224,256,5395,6,0,P|278:295|343:284,1,135,2|0,0:0|0:0,0:0:0:0:
475,273,5806,2,0,P|421:234|356:245,1,135,2|0,0:0|0:0,0:0:0:0:
378,347,6217,5,2,0:0:0:0:
276,12,7039,5,14,0:0:0:0:
230,29,7142,1,8,0:1:0:0:
216,75,7244,1,8,0:1:0:0:
247,111,7347,1,8,0:1:0:0:
295,108,7450,2,0,P|306:83|310:56,1,53.9999983520508,8|0,0:1|0:0,0:0:0:0:
144,192,7655,5,10,0:0:0:0:
169,233,7758,2,0,P|221:220|274:213,1,107.999996704102,8|8,0:1|0:1,0:0:0:0:
432,260,8066,1,8,0:1:0:0:
440,308,8169,1,8,0:1:0:0:
415,349,8272,2,0,P|363:336|310:329,1,107.999996704102,10|8,0:0|0:1,0:0:0:0:
87,275,8580,5,8,0:1:0:0:
66,318,8683,2,0,P|71:343|84:366,1,53.9999983520508,10|0,0:0|0:0,0:0:0:0:
223,335,8888,2,0,P|247:343|274:343,1,53.9999983520508,8|8,0:1|0:1,0:0:0:0:
316,207,9094,2,0,P|335:189|348:166,1,53.9999983520508,8|0,0:1|0:0,0:0:0:0:
200,3,9299,5,10,0:0:0:0:
179,46,9402,2,0,P|188:70|205:91,1,53.9999983520508,8|0,0:1|0:0,0:0:0:0:
415,104,9607,1,8,0:1:0:0:
399,150,9710,2,0,P|374:161|348:164,1,53.9999983520508,8|8,0:1|0:1,0:0:0:0:
195,275,9916,5,10,0:0:0:0:
149,258,10018,1,8,0:1:0:0:
135,212,10121,1,10,0:1:0:0:
166,176,10224,1,8,0:1:0:0:
214,179,10327,6,0,P|225:204|229:231,1,53.9999983520508,14|0,0:0|0:0,0:0:0:0:
136,368,10532,2,0,P|108:365|83:354,1,53.9999983520508,8|8,0:1|0:1,0:0:0:0:
296,307,10737,2,0,P|293:334|282:359,1,53.9999983520508,8|0,0:1|0:0,0:0:0:0:
4,273,10943,5,10,0:0:0:0:
29,232,11046,2,0,P|81:218|134:211,1,107.999996704102,8|8,0:1|0:1,0:0:0:0:
296,307,11354,1,8,0:1:0:0:
344,315,11457,1,8,0:1:0:0:
385,287,11559,2,0,P|378:233|364:181,1,107.999996704102,10|8,0:0|0:1,0:0:0:0:
231,98,11868,5,8,0:1:0:0:
214,53,11970,2,0,P|218:26|230:2,2,53.9999983520508,10|0|0,0:0|0:0|0:0,0:0:0:0:
376,52,12279,2,0,P|393:31|415:16,2,53.9999983520508,8|8|0,0:1|0:1|0:0,0:0:0:0:
500,157,12587,5,10,0:0:0:0:
469,201,12690,2,0,P|417:187|364:181,1,107.999996704102,8|8,0:1|0:1,0:0:0:0:
148,232,12998,1,8,0:1:0:0:
135,284,13100,1,8,0:1:0:0:
162,331,13203,5,10,0:0:0:0:
164,255,13306,1,8,0:1:0:0:
98,292,13409,1,8,0:0:0:0:
165,337,13511,1,8,0:1:0:0:
228,288,13614,6,0,L|214:181,2,107.999996704102,14|0|8,0:0|0:0|0:0,0:0:0:0:
383,198,14231,1,8,0:1:0:0:
383,198,14333,1,8,0:1:0:0:
383,198,14436,2,0,P|436:190|488:174,2,107.999996704102,10|0|8,0:0|0:0|0:0,0:0:0:0:
120,164,15053,1,8,0:1:0:0:
120,164,15155,1,8,0:1:0:0:
120,164,15258,6,0,P|93:118|105:66,1,107.999996704102,10|0,0:0|0:0,0:0:0:0:
352,44,15669,2,0,P|378:89|366:141,1,107.999996704102,10|0,0:0|0:0,0:0:0:0:
204,215,15977,1,8,0:1:0:0:
228,251,16080,2,0,L|333:228,1,107.999996704102,10|0,0:0|0:0,0:0:0:0:
436,312,16388,1,8,0:1:0:0:
412,348,16491,2,0,P|385:345|358:339,1,53.9999983520508,10|0,0:0|0:0,0:0:0:0:
264,372,16696,2,0,P|241:356|222:338,1,53.9999983520508,8|0,0:0|0:0,0:0:0:0:
124,288,16902,6,0,P|112:236|108:182,1,107.999996704102,14|0,0:0|0:0,0:0:0:0:
232,64,17313,1,10,0:0:0:0:
374,142,17518,1,8,0:1:0:0:
368,180,17621,1,8,0:1:0:0:
362,218,17724,2,0,L|353:271,1,53.9999983520508,10|0,0:0|0:0,0:0:0:0:
496,242,17929,2,0,L|487:188,1,53.9999983520508,10|0,0:1|0:0,0:0:0:0:
457,40,18135,5,10,0:0:0:0:
407,18,18237,1,8,0:1:0:0:
358,42,18340,1,10,0:0:0:0:
347,95,18443,1,8,0:0:0:0:
374,142,18546,6,0,P|424:157|482:134,1,116.999994644165,14|0,0:0|0:0,0:0:0:0:
322,219,18854,2,0,B|266:223|266:223|206:203,1,116.999994644165,14|0,0:0|0:0,0:0:0:0:
376,296,19162,2,0,L|433:285,1,58.4999973220826,14|0,0:0|0:0,0:0:0:0:
337,377,19368,6,0,B|311:370|303:357|303:357|277:373|277:373|250:352|224:351|224:351|201:357|173:350,1,180,14|0,0:0|0:0,0:0:0:0:
63,334,19984,1,2,0:0:0:0:
63,334,20087,1,2,0:0:0:0:
63,334,20190,6,0,P|74:255|151:274,1,180,2|0,0:0|0:0,0:0:0:0:
337,377,20806,1,2,0:0:0:0:
412,300,21011,2,0,L|423:210,1,90,2|0,0:0|0:0,0:0:0:0:
284,88,21422,1,2,0:0:0:0:
216,172,21628,1,2,0:0:0:0:
216,172,21731,1,0,0:0:0:0:
216,172,21833,6,0,P|219:217|236:258,1,90,2|0,0:0|0:0,0:0:0:0:
288,240,22142,2,0,P|296:220|299:197,1,45,2|0,0:0|0:0,0:0:0:0:
188,44,22450,1,2,0:0:0:0:
112,124,22655,2,0,P|68:127|22:135,2,90,2|2|2,0:0|0:0|0:0,0:0:0:0:
124,264,23272,1,2,0:0:0:0:
124,264,23374,1,0,0:0:0:0:
124,264,23477,6,0,P|63:290|9:255,1,135,2|0,0:0|0:0,0:0:0:0:
24,209,23888,1,2,0:0:0:0:
108,308,24094,1,2,0:0:0:0:
180,196,24299,2,0,P|241:170|295:205,1,135,2|0,0:0|0:0,0:0:0:0:
280,251,24710,1,2,0:0:0:0:
360,148,24916,1,2,0:0:0:0:
468,232,25121,6,0,L|444:365,2,135,2|2|2,0:0|0:0|0:0,0:0:0:0:
384,40,25943,1,2,0:0:0:0:
300,124,26148,1,0,0:0:0:0:
300,124,26251,1,0,0:0:0:0:
300,124,26354,2,0,P|302:146|309:167,1,45,2|0,0:0|0:0,0:0:0:0:
376,256,26559,2,0,P|383:234|385:212,1,45,2|0,0:0|0:0,0:0:0:0:
215,283,26765,6,0,P|259:280|299:300,1,90,10|0,0:1|0:0,0:0:0:0:
279,371,27073,2,0,P|257:376|234:378,1,45,2|8,0:0|0:1,0:0:0:0:
75,303,27381,1,2,0:0:0:0:
221,193,27587,2,0,P|215:238|215:283,1,90,10|0,0:1|0:0,0:0:0:0:
296,268,27895,2,0,P|295:241|292:224,1,45,2|8,0:0|0:1,0:0:0:0:
167,98,28203,1,2,0:0:0:0:
352,20,28409,6,0,P|359:63|340:103,1,90,10|0,0:1|0:0,0:0:0:0:
268,128,28717,2,0,P|289:135|311:137,1,45,2|8,0:0|0:1,0:0:0:0:
184,4,29025,1,2,0:0:0:0:
62,87,29231,2,0,P|65:124|76:175,1,90,10|0,0:1|0:0,0:0:0:0:
94,215,29539,1,0,0:0:0:0:
94,215,29642,1,8,0:1:0:0:
215,133,29847,1,2,0:0:0:0:
256,300,30053,6,0,P|212:305|168:316,1,90,10|0,0:1|0:0,0:0:0:0:
54,312,30361,1,2,0:0:0:0:
60,336,30463,2,0,P|104:347|149:354,1,90,8|2,0:1|0:0,0:0:0:0:
256,300,30874,2,0,P|300:305|344:316,1,90,10|0,0:1|0:0,0:0:0:0:
458,312,31183,1,2,0:0:0:0:
452,336,31285,2,0,P|408:347|363:354,1,90,8|2,0:1|0:0,0:0:0:0:
256,192,31696,5,2,0:0:0:0:
256,192,32518,5,8,0:0:0:0:
247,149,32621,1,8,0:0:0:0:
238,107,32724,2,0,L|228:62,1,45,4|8,0:3|0:1,0:0:0:0:
112,132,32929,1,8,0:0:0:0:
121,89,33032,1,8,0:0:0:0:
130,47,33135,2,0,L|139:2,1,45,4|8,0:3|0:1,0:0:0:0:
330,44,33340,6,0,P|336:135|247:149,1,198.000006042481,12|8,0:0|0:0,0:0:0:0:
68,200,33957,1,8,0:1:0:0:
68,200,34059,1,8,0:1:0:0:
68,200,34162,2,0,L|86:297,1,99.0000030212403,8|8,0:0|0:1,0:0:0:0:
192,360,34573,1,8,0:0:0:0:
247,149,34779,1,8,0:1:0:0:
384,288,34984,6,0,P|340:311|292:307,1,99.0000030212403,12|0,0:0|0:0,0:0:0:0:
104,144,35395,2,0,P|117:191|154:224,1,99.0000030212403,8|8,0:0|0:1,0:0:0:0:
154,224,35703,1,8,0:1:0:0:
154,224,35806,1,8,0:0:0:0:
248,157,36011,1,8,0:1:0:0:
168,80,36217,1,8,0:0:0:0:
237,265,36422,1,8,0:1:0:0:
437,113,36628,6,0,P|388:109|345:132,1,99.0000030212403,12|0,0:0|0:0,0:0:0:0:
345,132,36936,1,8,0:1:0:0:
345,132,37039,1,8,0:0:0:0:
425,257,37244,1,8,0:1:0:0:
217,356,37450,2,0,P|213:308|237:265,1,99.0000030212403,12|0,0:0|0:0,0:0:0:0:
237,265,37758,1,8,0:1:0:0:
237,265,37861,1,8,0:0:0:0:
362,345,38066,1,8,0:1:0:0:
364,91,38272,6,0,P|320:114|272:110,1,99.0000030212403,12|0,0:0|0:0,0:0:0:0:
171,45,38580,1,8,0:1:0:0:
171,45,38683,2,0,P|219:40|261:64,1,99.0000030212403,8|8,0:0|0:1,0:0:0:0:
494,30,39094,1,8,0:0:0:0:
477,71,39196,2,0,L|493:168,1,99.0000030212403,8|8,0:0|0:1,0:0:0:0:
453,263,39505,1,8,0:0:0:0:
220,312,39710,1,8,0:1:0:0:
220,312,39813,1,8,0:1:0:0:
220,312,39916,6,0,P|245:362|300:374,1,116.999994644165,14|8,0:0|0:1,0:0:0:0:
351,315,40224,1,6,0:0:0:0:
343,275,40327,1,8,0:0:0:0:
136,156,40532,6,0,P|110:206|55:218,1,116.999994644165,14|14,0:0|0:0,0:0:0:0:
4,159,40840,1,0,0:0:0:0:
12,119,40943,1,8,0:0:0:0:
224,8,41148,5,8,0:0:0:0:
227,55,41251,1,8,0:1:0:0:
230,102,41354,1,8,0:0:0:0:
233,149,41457,1,8,0:1:0:0:
276,219,41559,6,0,P|331:230|380:201,1,116.999994644165,14|8,0:0|0:1,0:0:0:0:
358,118,41868,1,6,0:0:0:0:
318,110,41970,1,8,0:0:0:0:
127,287,42176,6,0,P|71:298|22:269,1,116.999994644165,14|12,0:0|0:0,0:0:0:0:
45,186,42484,1,8,0:1:0:0:
85,178,42587,1,8,0:0:0:0:
122,194,42690,1,8,0:0:0:0:
136,241,42792,5,4,0:3:0:0:
127,287,42895,1,4,0:3:0:0:
153,325,42998,1,4,0:3:0:0:
198,334,43100,1,4,0:3:0:0:
263,290,43203,6,0,P|310:283|352:306,1,99.0000030212403,14|0,0:0|0:0,0:0:0:0:
449,373,43511,1,6,0:0:0:0:
477,333,43614,2,0,P|474:309|466:286,1,49.5000015106202,8|0,0:1|0:0,0:0:0:0:
403,207,43820,2,0,P|406:183|414:160,1,49.5000015106202,12|0,0:0|0:0,0:0:0:0:
450,62,44025,6,0,P|401:68|359:44,1,99.0000030212403,14|0,0:0|0:0,0:0:0:0:
235,15,44333,1,6,0:0:0:0:
207,55,44436,2,0,P|210:79|218:102,1,49.5000015106202,8|0,0:1|0:0,0:0:0:0:
269,194,44642,2,0,P|266:218|258:241,1,49.5000015106202,8|8,0:0|0:1,0:0:0:0:
115,330,44847,6,0,P|99:283|111:236,1,99.0000030212403,14|0,0:0|0:0,0:0:0:0:
183,282,45155,2,0,P|217:316|265:326,1,99.0000030212403,6|0,0:0|0:0,0:0:0:0:
335,145,45463,2,0,P|323:215|258:241,1,148.50000453186,14|0,0:0|0:0,0:0:0:0:
182,194,45874,5,6,0:3:0:0:
266,326,46080,1,4,0:3:0:0:
325,57,46285,1,4,0:3:0:0:
436,212,46491,6,0,B|346:223,1,90,14|0,0:0|0:0,0:0:0:0:
501,261,46799,1,12,0:1:0:0:
501,261,46902,2,0,P|517:219|510:176,1,90,8|12,0:1|0:1,0:0:0:0:
325,57,47313,2,0,L|314:100,2,45,12|0|0,0:0|0:0|0:0,0:0:0:0:
152,120,47724,6,0,B|140:30,1,90,14|0,0:0|0:0,0:0:0:0:
103,185,48032,1,12,0:1:0:0:
103,185,48135,2,0,P|145:201|188:194,1,90,8|12,0:1|0:1,0:0:0:0:
365,266,48546,2,0,L|376:310,2,45,12|0|0,0:0|0:0|0:0,0:0:0:0:
198,314,48957,5,10,0:3:0:0:
311,359,49162,1,8,0:3:0:0:
198,314,49368,1,6,0:3:0:0:
231,200,49573,1,4,0:3:0:0:
465,321,49779,6,0,B|376:310,1,90,14|0,0:0|0:0,0:0:0:0:
302,273,50087,1,14,0:1:0:0:
302,273,50190,2,0,P|295:317|311:359,1,90,8|12,0:1|0:1,0:0:0:0:
428,164,50600,2,0,L|471:152,2,45,12|0|0,0:0|0:0|0:0,0:0:0:0:
199,78,51011,6,0,B|288:66,1,90,14|0,0:0|0:0,0:0:0:0:
361,29,51320,1,14,0:1:0:0:
361,29,51422,2,0,P|368:72|352:114,1,90,8|12,0:1|0:1,0:0:0:0:
241,207,51833,1,12,0:0:0:0:
268,384,52039,1,8,0:1:0:0:
268,384,52142,1,8,0:1:0:0:
268,384,52244,6,0,L|261:339,1,45,4|0,0:3|0:0,0:0:0:0:
248,252,52450,2,0,L|241:207,1,45,8|0,0:3|0:0,0:0:0:0:
116,152,52655,2,0,P|125:172|139:189,1,45,4|8,0:3|0:0,0:0:0:0:
116,296,52861,2,0,P|134:308|155:317,1,45,10|8,0:0|0:0,0:0:0:0:
343,228,53066,6,0,P|295:242|247:252,1,99.0000030212403,14|8,0:0|0:0,0:0:0:0:
317,61,53374,1,4,0:3:0:0:
344,103,53477,2,0,P|341:120|331:149,1,49.5000015106202,8|8,0:1|0:0,0:0:0:0:
229,169,53683,2,0,P|214:121|205:73,1,99.0000030212403,6|0,0:0|0:0,0:0:0:0:
329,11,53991,1,8,0:0:0:0:
354,54,54094,2,0,P|344:102|330:149,1,99.0000030212403,8|8,0:1|0:0,0:0:0:0:
67,229,54505,1,8,0:1:0:0:
67,229,54607,1,8,0:1:0:0:
67,229,54710,6,0,P|114:243|162:252,1,99.0000030212403,14|8,0:0|0:0,0:0:0:0:
93,61,55018,1,4,0:3:0:0:
66,103,55121,2,0,P|69:120|79:149,1,49.5000015106202,8|8,0:1|0:0,0:0:0:0:
181,169,55327,2,0,P|196:121|205:73,1,99.0000030212403,6|0,0:0|0:0,0:0:0:0:
81,11,55635,1,8,0:0:0:0:
56,54,55737,2,0,P|66:102|80:149,1,99.0000030212403,8|8,0:1|0:0,0:0:0:0:
368,132,56148,1,8,0:1:0:0:
368,132,56251,1,8,0:1:0:0:
368,132,56354,6,0,P|391:45|305:18,1,198.000006042481,14|8,0:0|0:0,0:0:0:0:
244,206,56970,2,0,L|241:255,1,49.5000015106202,10|0,0:1|0:0,0:0:0:0:
327,286,57176,2,0,L|425:274,1,99.0000030212403,10|10,0:0|0:1,0:0:0:0:
256,192,57587,2,0,L|248:340,1,148.50000453186,10|0,0:0|0:0,0:0:0:0:
168,364,57998,6,0,B|140:365|124:353|124:353|95:362|68:341|68:341|40:364|-4:356,2,175.499991966248,14|10|6,0:0|0:3|0:3,0:0:0:0:
280,236,58820,2,0,B|307:237|323:225|323:225|352:234|379:213|379:213|408:236|452:228,2,175.499991966248,14|10|6,0:0|0:3|0:3,0:0:0:0:
132,72,59642,5,10,0:0:0:0:
132,72,60053,6,2,P|122:138|129:205,1,135,2|2,0:0|0:1,1:1:0:0:
252,235,60463,5,8,0:0:0:0:
280,207,60566,1,8,0:0:0:0:
292,167,60669,1,8,0:3:0:0:
292,127,60772,1,8,0:0:0:0:
280,75,60874,5,8,0:3:0:0:
264,131,60977,1,8,0:3:0:0:
296,199,61080,1,4,0:3:0:0:
378,227,61183,1,4,0:3:0:0:
476,196,61285,6,0,B|481:136|471:67|471:67|457:78|445:105,1,175.499991966248,14|0,0:0|0:0,0:0:0:0:
383,149,61696,1,10,0:0:0:0:
240,376,61902,1,8,0:0:0:0:
240,376,62005,1,8,0:0:0:0:
163,374,62107,6,0,P|113:304|125:219,1,175.499991966248,4|0,0:0|0:0,0:0:0:0:
176,164,62518,1,10,0:0:0:0:
448,224,62724,1,8,0:0:0:0:
448,224,62827,1,8,0:0:0:0:
482,291,62929,6,0,P|455:342|406:373,1,116.999994644165,12|0,0:0|0:0,0:0:0:0:
328,383,63237,1,8,0:0:0:0:
306,341,63340,1,10,0:0:0:0:
98,165,63546,1,8,0:0:0:0:
98,165,63648,1,8,0:0:0:0:
113,241,63751,6,0,P|139:253|167:260,1,58.4999973220826,10|0,0:0|0:0,0:0:0:0:
328,164,63957,2,0,P|305:182|279:196,1,58.4999973220826,8|0,0:1|0:0,0:0:0:0:
129,74,64162,2,0,P|145:97|166:117,1,58.4999973220826,10|0,0:0|0:0,0:0:0:0:
295,14,64368,2,0,P|285:41|269:66,1,58.4999973220826,8|0,0:1|0:0,0:0:0:0:
1,154,64573,6,0,P|65:167|114:184,2,116.999994644165,14|0|8,0:0|0:0|0:0,0:0:0:0:
136,383,65190,1,10,0:0:0:0:
136,383,65292,1,2,0:0:0:0:
209,365,65395,6,0,P|227:309|239:252,1,116.999994644165,8|10,0:3|0:1,0:0:0:0:
225,176,65703,1,10,0:1:0:0:
206,133,65806,1,4,0:3:0:0:
408,6,66011,2,0,P|411:35|420:62,1,58.4999973220826,10|10,0:1|0:1,0:0:0:0:
512,119,66217,6,0,P|434:116|439:193,1,175.499991966248,14|0,0:0|0:0,0:0:0:0:
320,338,66628,2,0,P|397:340|392:263,1,175.499991966248,12|0,0:0|0:0,0:0:0:0:
270,170,67039,6,0,B|259:202|260:232|260:232|281:212|292:189,1,116.999994644165,14|0,0:0|0:0,0:0:0:0:
269,6,67347,1,8,0:1:0:0:
210,55,67450,2,0,P|151:56|99:32,1,116.999994644165,12|10,0:0|0:0,0:0:0:0:
0,260,67861,6,0,P|46:226|104:227,1,116.999994644165,14|0,0:0|0:0,0:0:0:0:
194,383,68272,1,8,0:0:0:0:
357,279,68477,1,8,0:1:0:0:
357,279,68580,1,8,0:1:0:0:
288,247,68683,6,0,P|272:190|272:132,1,116.999994644165,12|0,0:0|0:0,0:0:0:0:
310,65,68991,1,2,0:0:0:0:
352,47,69094,1,8,0:0:0:0:
483,227,69299,2,0,P|458:243|431:252,1,58.4999973220826,8|0,0:0|0:0,0:0:0:0:
260,343,69505,6,0,P|317:353|368:380,1,116.999994644165,12|0,0:0|0:0,0:0:0:0:
445,377,69813,1,2,0:0:0:0:
458,333,69916,1,8,0:0:0:0:
272,132,70121,2,0,P|274:161|283:188,1,58.4999973220826,8|0,0:0|0:0,0:0:0:0:
351,225,70327,1,14,0:0:0:0:
486,20,70532,5,2,0:0:0:0:
442,2,70635,1,2,0:0:0:0:
399,20,70737,1,10,0:0:0:0:
381,63,70840,1,2,0:0:0:0:
399,106,70943,1,10,0:0:0:0:
442,124,71046,1,2,0:0:0:0:
510,147,71148,6,0,P|436:153|364:171,1,148.50000453186,14|0,0:0|0:0,0:0:0:0:
326,240,71559,1,8,0:0:0:0:
152,69,71765,6,0,P|241:77|231:166,1,198.000006042481,12|8,0:0|0:0,0:0:0:0:
165,353,72381,1,8,0:0:0:0:
0,275,72587,1,10,0:0:0:0:
0,275,72690,1,8,0:0:0:0:
40,208,72792,6,0,P|113:214|185:232,1,148.50000453186,14|8,0:0|0:3,0:0:0:0:
226,301,73203,1,8,0:0:0:0:
415,182,73409,6,0,P|349:159|353:89,1,148.50000453186,12|0,0:0|0:0,0:0:0:0:
233,40,73820,5,10,0:0:0:0:
251,82,73922,1,8,0:0:0:0:
240,139,74025,5,10,0:3:0:0:
178,173,74128,1,8,0:3:0:0:
111,124,74231,5,6,0:3:0:0:
26,161,74333,1,4,0:3:0:0:
45,269,74436,6,0,B|106:256|174:264|174:264|153:254|136:238,1,175.499991966248,14|0,0:0|0:0,0:0:0:0:
178,173,74847,1,10,0:0:0:0:
424,272,75053,1,8,0:0:0:0:
424,272,75155,1,8,0:0:0:0:
395,341,75258,6,0,P|309:329|235:373,1,175.499991966248,4|0,0:0|0:0,0:0:0:0:
176,324,75669,1,10,0:0:0:0:
320,88,75874,1,8,0:0:0:0:
320,88,75977,1,8,0:0:0:0:
367,147,76080,6,0,P|359:204|324:250,1,116.999994644165,12|0,0:0|0:0,0:0:0:0:
132,68,76491,1,8,0:0:0:0:
132,68,76594,2,0,B|148:184,1,116.999994644165,8|0,0:0|0:0,0:0:0:0:
36,250,76902,6,0,P|65:251|93:259,1,58.4999973220826,10|0,0:0|0:0,0:0:0:0:
268,384,77107,2,0,P|243:367|217:355,1,58.4999973220826,8|0,0:1|0:0,0:0:0:0:
35,345,77313,2,0,P|65:343|93:335,1,58.4999973220826,10|0,0:0|0:0,0:0:0:0:
268,213,77518,2,0,P|243:229|217:241,1,58.4999973220826,8|0,0:1|0:0,0:0:0:0:
0,92,77724,6,0,P|72:53|131:110,1,175.499991966248,14|0,0:0|0:0,0:0:0:0:
149,185,78135,1,8,0:0:0:0:
392,156,78340,1,10,0:0:0:0:
392,156,78443,1,2,0:0:0:0:
351,92,78546,6,0,P|354:63|365:36,1,58.4999973220826,8|0,0:0|0:0,0:0:0:0:
346,216,78751,2,0,P|350:244|361:272,1,58.4999973220826,8|0,0:3|0:0,0:0:0:0:
211,384,78957,2,0,P|285:360|255:288,1,175.499991966248,4|0,0:3|0:0,0:0:0:0:
8,311,79368,6,0,P|66:309|122:295,1,116.999994644165,14|0,0:0|0:0,0:0:0:0:
191,229,79676,2,0,P|219:177|234:121,1,116.999994644165,4|0,0:0|0:0,0:0:0:0:
24,221,79984,2,0,P|53:220|81:212,1,58.4999973220826,12|0,0:0|0:0,0:0:0:0:
217,31,80190,6,0,P|275:33|331:47,1,116.999994644165,14|0,0:0|0:0,0:0:0:0:
400,113,80498,2,0,P|428:165|443:221,1,116.999994644165,4|0,0:0|0:0,0:0:0:0:
233,121,80806,2,0,P|262:122|290:130,1,58.4999973220826,12|0,0:0|0:0,0:0:0:0:
393,291,81011,6,0,P|340:354|264:325,1,175.499991966248,14|0,0:0|0:0,0:0:0:0:
263,324,81422,1,8,0:0:0:0:
103,85,81628,6,0,P|180:57|233:121,1,175.499991966248,12|0,0:0|0:0,0:0:0:0:
233,121,82039,1,4,0:3:0:0:
49,347,82244,6,0,L|36:289,1,58.4999973220826,10|8,0:0|0:0,0:0:0:0:
131,331,82450,2,0,L|118:273,1,58.4999973220826,6|8,0:3|0:3,0:0:0:0:
263,324,82655,6,0,P|346:320|380:244,1,175.499991966248,14|8,0:0|0:1,0:0:0:0:
380,244,83066,1,8,0:0:0:0:
178,33,83272,6,0,P|212:108|296:110,1,175.499991966248,12|0,0:1|0:0,0:0:0:0:
296,110,83683,1,8,0:1:0:0:
467,41,83888,5,8,0:0:0:0:
436,280,84094,1,8,0:1:0:0:
436,280,84196,1,8,0:1:0:0:
382,224,84299,6,0,P|278:253|290:360,1,233.999989288331,14|8,0:0|0:0,0:0:0:0:
282,313,84813,1,8,0:1:0:0:
243,286,84916,1,8,0:0:0:0:
196,289,85018,1,8,0:1:0:0:
167,326,85121,5,10,0:0:0:0:
116,340,85224,1,8,0:1:0:0:
58,329,85327,1,8,0:1:0:0:
17,279,85429,5,10,0:0:0:0:
28,209,85532,1,8,0:1:0:0:
93,170,85635,1,8,0:1:0:0:
168,199,85737,5,10,0:0:0:0:
256,192,85840,1,8,0:1:0:0:
300,104,85943,5,14,0:0:0:0:
347,269,86765,6,0,P|278:259|255:192,2,148.50000453186,4|4|8,0:3|0:3|0:3,0:0:0:0:
124,299,87587,6,0,P|250:319|256:192,1,288,14|0,0:0|0:0,0:0:0:0:
