osu file format v13

[General]
AudioFilename: Haryu.mp3
AudioLeadIn: 0
PreviewTime: 42156
Countdown: 0
SampleSet: Soft
StackLeniency: 0.7
Mode: 3
LetterboxInBreaks: 0
SpecialStyle: 0
WidescreenStoryboard: 1

[Editor]
DistanceSpacing: 0.8
BeatDivisor: 4
GridSize: 32
TimelineZoom: 1

[Metadata]
Title:Haryu
TitleUnicode:春竜 ~Haryu~
Artist:Azu
ArtistUnicode:あず♪
Creator:asd123iii
Version:Normal
Source:Taiko no Tatsujin
Tags:太鼓の達人 Simple_Star richardfeder
BeatmapID:439543
BeatmapSetID:183478

[Difficulty]
HPDrainRate:7
CircleSize:7
OverallDifficulty:7
ApproachRate:5
SliderMultiplier:1.4
SliderTickRate:1

[Events]
//Background and Video events
0,0,"bg.jpg",0,0
//Break Periods
//Storyboard Layer 0 (Background)
//Storyboard Layer 1 (Fail)
//Storyboard Layer 2 (Pass)
//Storyboard Layer 3 (Foreground)
//Storyboard Sound Samples
//Background Colour Transformations
3,100,163,162,255

[TimingPoints]
4725,275.229357798165,4,2,1,30,1,0
42156,-100,4,2,1,30,0,1
55091,-100,4,2,1,30,0,0
57018,275.229357798165,6,2,1,30,1,0
80137,275.229357798165,4,2,1,30,1,0

[HitObjects]
36,192,4724,5,0,0:0:0:0:
182,192,4724,1,4,0:0:0:0:
182,192,5137,1,4,0:0:0:0:
36,192,5137,1,0,0:0:0:0:
475,192,6926,1,4,0:0:0:0:
329,192,6926,1,0,0:0:0:0:
329,192,7339,1,0,0:0:0:0:
475,192,7339,1,4,0:0:0:0:
329,192,9128,1,4,0:0:0:0:
182,192,9128,1,0,0:0:0:0:
329,192,9541,1,4,0:0:0:0:
182,192,9541,1,0,0:0:0:0:
36,192,11330,1,0,0:0:0:0:
109,192,11330,1,4,0:0:0:0:
402,192,11743,1,4,0:0:0:0:
329,192,11743,1,0,0:0:0:0:
182,192,12156,1,4,0:0:0:0:
109,192,12156,1,4,0:0:0:0:
475,192,12569,1,4,0:0:0:0:
402,192,12569,1,4,0:0:0:0:
36,192,12981,1,0,0:0:0:0:
182,192,12981,1,4,0:0:0:0:
475,192,13257,1,4,0:0:0:0:
329,192,13257,1,4,0:0:0:0:
109,192,13532,1,4,0:0:0:0:
256,192,13532,128,0,14633:0:0:0:0:
182,192,15734,1,4,0:0:0:0:
256,192,15734,1,0,0:0:0:0:
182,192,16284,1,0,0:0:0:0:
329,192,16835,1,0,0:0:0:0:
109,192,17247,1,0,0:0:0:0:
402,192,17385,1,0,0:0:0:0:
475,192,17523,1,0,0:0:0:0:
402,192,17660,1,0,0:0:0:0:
36,192,17798,1,0,0:0:0:0:
182,192,17936,1,0,0:0:0:0:
182,192,18486,1,0,0:0:0:0:
329,192,19036,1,0,0:0:0:0:
109,192,19449,1,0,0:0:0:0:
402,192,19587,1,0,0:0:0:0:
475,192,19724,1,0,0:0:0:0:
402,192,19862,1,0,0:0:0:0:
36,192,20000,1,0,0:0:0:0:
329,192,20137,1,0,0:0:0:0:
182,192,20137,1,0,0:0:0:0:
109,192,20550,1,0,0:0:0:0:
256,192,20550,1,0,0:0:0:0:
182,192,20963,1,0,0:0:0:0:
329,192,20963,1,0,0:0:0:0:
182,192,21376,1,0,0:0:0:0:
329,192,21376,1,0,0:0:0:0:
402,192,21789,1,0,0:0:0:0:
256,192,21789,1,0,0:0:0:0:
475,192,22064,1,0,0:0:0:0:
329,192,22064,1,0,0:0:0:0:
256,192,22339,128,0,22752:0:0:0:0:
182,192,22752,1,0,0:0:0:0:
109,192,22752,1,0,0:0:0:0:
182,192,23027,1,0,0:0:0:0:
109,192,23027,1,0,0:0:0:0:
36,192,23440,128,0,24541:0:0:0:0:
256,192,23440,1,0,0:0:0:0:
182,192,24541,1,0,0:0:0:0:
329,192,24541,1,4,0:0:0:0:
182,192,25091,1,0,0:0:0:0:
329,192,25091,1,0,0:0:0:0:
256,192,25642,1,0,0:0:0:0:
402,192,25642,1,0,0:0:0:0:
109,192,25986,128,0,26468:0:0:0:0:
182,192,26743,1,0,0:0:0:0:
329,192,26743,1,0,0:0:0:0:
182,192,27293,1,0,0:0:0:0:
329,192,27293,1,0,0:0:0:0:
256,192,27844,1,0,0:0:0:0:
402,192,27844,1,0,0:0:0:0:
36,192,28188,128,0,28669:0:0:0:0:
109,192,28945,1,0,0:0:0:0:
256,192,28945,1,0,0:0:0:0:
109,192,29495,1,0,0:0:0:0:
256,192,29495,1,0,0:0:0:0:
182,192,30046,1,0,0:0:0:0:
329,192,30046,1,0,0:0:0:0:
475,192,30046,128,0,31009:0:0:0:0:
36,192,31147,1,0,0:0:0:0:
329,192,31422,1,0,0:0:0:0:
36,192,31697,1,0,0:0:0:0:
329,192,31972,1,0,0:0:0:0:
109,192,32247,1,0,0:0:0:0:
182,192,32523,1,0,0:0:0:0:
256,192,32798,1,0,0:0:0:0:
329,192,33073,1,0,0:0:0:0:
402,192,33348,1,0,0:0:0:0:
182,192,33348,1,4,0:0:0:0:
109,192,33624,1,0,0:0:0:0:
329,192,33899,1,0,0:0:0:0:
109,192,34174,1,0,0:0:0:0:
256,192,34449,1,0,0:0:0:0:
109,192,34724,1,0,0:0:0:0:
182,192,35000,1,0,0:0:0:0:
402,192,35275,1,0,0:0:0:0:
402,192,35413,1,0,0:0:0:0:
402,192,35550,1,0,0:0:0:0:
182,192,35825,1,0,0:0:0:0:
329,192,36101,1,0,0:0:0:0:
36,192,36376,1,0,0:0:0:0:
329,192,36651,1,0,0:0:0:0:
109,192,36926,1,0,0:0:0:0:
329,192,37202,1,0,0:0:0:0:
182,192,37477,1,0,0:0:0:0:
182,192,37614,1,0,0:0:0:0:
182,192,37752,1,0,0:0:0:0:
329,192,38027,1,4,0:0:0:0:
475,192,38027,1,4,0:0:0:0:
402,192,38302,1,0,0:0:0:0:
182,192,38578,1,0,0:0:0:0:
329,192,38853,1,0,0:0:0:0:
402,192,39128,1,0,0:0:0:0:
256,192,39403,1,0,0:0:0:0:
109,192,39679,1,0,0:0:0:0:
109,192,39816,1,0,0:0:0:0:
109,192,39954,1,0,0:0:0:0:
329,192,40229,1,4,0:0:0:0:
475,192,40229,1,0,0:0:0:0:
182,192,40504,1,0,0:0:0:0:
402,192,40780,1,4,0:0:0:0:
256,192,40780,1,0,0:0:0:0:
182,192,41055,128,0,41330:0:0:0:0:
402,192,41330,128,0,41605:0:0:0:0:
329,192,41330,1,0,0:0:0:0:
109,192,41605,128,0,41880:0:0:0:0:
329,192,41880,128,0,42156:0:0:0:0:
256,192,42156,1,4,0:0:0:0:
475,192,42156,1,0,0:0:0:0:
256,192,42569,1,0,0:0:0:0:
475,192,42569,1,0,0:0:0:0:
182,192,42981,1,0,0:0:0:0:
402,192,42981,1,0,0:0:0:0:
182,192,43257,1,0,0:0:0:0:
402,192,43257,1,0,0:0:0:0:
36,192,43532,1,0,0:0:0:0:
256,192,43532,1,0,0:0:0:0:
109,192,43807,1,0,0:0:0:0:
329,192,43807,1,0,0:0:0:0:
109,192,44220,1,0,0:0:0:0:
329,192,44220,1,0,0:0:0:0:
475,192,44633,1,0,0:0:0:0:
256,192,44633,1,0,0:0:0:0:
475,192,44908,1,0,0:0:0:0:
256,192,44908,1,0,0:0:0:0:
36,192,45183,1,0,0:0:0:0:
182,192,45183,1,0,0:0:0:0:
36,192,45596,1,0,0:0:0:0:
182,192,45596,1,0,0:0:0:0:
109,192,46009,1,0,0:0:0:0:
402,192,46009,1,0,0:0:0:0:
109,192,46284,1,0,0:0:0:0:
402,192,46284,1,0,0:0:0:0:
475,192,46559,1,0,0:0:0:0:
256,192,46559,1,0,0:0:0:0:
329,192,46835,1,0,0:0:0:0:
182,192,46835,1,0,0:0:0:0:
182,192,47247,1,0,0:0:0:0:
329,192,47247,1,0,0:0:0:0:
109,192,47660,1,0,0:0:0:0:
256,192,47660,1,0,0:0:0:0:
109,192,47936,1,0,0:0:0:0:
256,192,47936,1,0,0:0:0:0:
182,192,48211,1,0,0:0:0:0:
402,192,48211,1,0,0:0:0:0:
182,192,48624,1,0,0:0:0:0:
402,192,48624,1,0,0:0:0:0:
329,192,49036,1,0,0:0:0:0:
109,192,49036,1,0,0:0:0:0:
109,192,49312,1,0,0:0:0:0:
329,192,49312,1,0,0:0:0:0:
36,192,49587,1,0,0:0:0:0:
182,192,49587,1,0,0:0:0:0:
256,192,49862,1,0,0:0:0:0:
475,192,49862,1,0,0:0:0:0:
256,192,50275,1,0,0:0:0:0:
475,192,50275,1,0,0:0:0:0:
256,192,50688,1,0,0:0:0:0:
475,192,50688,1,0,0:0:0:0:
109,192,50963,1,0,0:0:0:0:
36,192,50963,1,0,0:0:0:0:
329,192,51101,1,0,0:0:0:0:
402,192,51101,1,0,0:0:0:0:
36,192,51238,1,0,0:0:0:0:
109,192,51238,1,0,0:0:0:0:
182,192,51651,1,0,0:0:0:0:
402,192,51651,1,0,0:0:0:0:
182,192,52064,1,0,0:0:0:0:
402,192,52064,1,0,0:0:0:0:
182,192,52339,1,0,0:0:0:0:
402,192,52339,1,0,0:0:0:0:
256,192,52614,1,0,0:0:0:0:
109,192,52614,1,0,0:0:0:0:
475,192,52890,1,0,0:0:0:0:
402,192,52890,1,0,0:0:0:0:
402,192,53440,1,0,0:0:0:0:
329,192,53440,1,0,0:0:0:0:
329,192,53991,1,0,0:0:0:0:
256,192,53991,1,0,0:0:0:0:
256,192,54541,1,0,0:0:0:0:
182,192,54541,1,0,0:0:0:0:
329,192,55091,1,0,0:0:0:0:
109,192,55091,1,0,0:0:0:0:
475,192,55917,1,0,0:0:0:0:
475,192,56055,1,0,0:0:0:0:
475,192,56192,1,0,0:0:0:0:
329,192,56605,1,0,0:0:0:0:
36,192,57018,1,0,0:0:0:0:
182,192,57018,1,0,0:0:0:0:
109,192,58256,1,0,0:0:0:0:
256,192,58394,1,0,0:0:0:0:
402,192,58531,1,0,0:0:0:0:
329,192,58669,128,0,59495:0:0:0:0:
36,192,59907,1,0,0:0:0:0:
182,192,60045,1,0,0:0:0:0:
329,192,60183,1,0,0:0:0:0:
256,192,60320,128,0,61146:0:0:0:0:
109,192,61559,1,0,0:0:0:0:
182,192,61696,1,0,0:0:0:0:
256,192,61834,1,0,0:0:0:0:
329,192,61972,1,0,0:0:0:0:
402,192,62247,1,0,0:0:0:0:
475,192,62522,1,0,0:0:0:0:
402,192,62797,1,0,0:0:0:0:
256,192,63073,128,0,63348:0:0:0:0:
182,192,63348,1,0,0:0:0:0:
36,192,63623,128,0,64449:0:0:0:0:
109,192,64862,1,0,0:0:0:0:
256,192,64999,1,0,0:0:0:0:
402,192,65137,1,0,0:0:0:0:
182,192,65274,128,0,66100:0:0:0:0:
475,192,66375,128,0,66651:0:0:0:0:
182,192,66651,1,0,0:0:0:0:
329,192,66926,128,0,67201:0:0:0:0:
36,192,66926,128,0,67201:0:0:0:0:
109,192,67201,1,0,0:0:0:0:
402,192,67201,1,0,0:0:0:0:
182,192,67476,1,0,0:0:0:0:
475,192,67751,1,0,0:0:0:0:
329,192,67889,1,0,0:0:0:0:
256,192,68027,1,0,0:0:0:0:
182,192,68164,1,0,0:0:0:0:
36,192,68302,1,0,0:0:0:0:
109,192,68577,1,0,0:0:0:0:
402,192,68852,1,0,0:0:0:0:
402,192,68990,1,0,0:0:0:0:
402,192,69128,1,0,0:0:0:0:
109,192,69403,1,0,0:0:0:0:
402,192,69678,1,0,0:0:0:0:
402,192,69816,1,0,0:0:0:0:
402,192,69953,1,0,0:0:0:0:
36,192,70091,1,0,0:0:0:0:
475,192,70229,1,4,0:0:0:0:
182,192,70504,1,0,0:0:0:0:
329,192,70641,1,0,0:0:0:0:
36,192,70779,1,0,0:0:0:0:
402,192,71054,1,0,0:0:0:0:
256,192,71192,1,0,0:0:0:0:
402,192,71329,1,0,0:0:0:0:
109,192,71467,1,0,0:0:0:0:
256,192,71605,1,0,0:0:0:0:
475,192,71880,1,0,0:0:0:0:
182,192,72155,1,0,0:0:0:0:
329,192,72293,1,0,0:0:0:0:
36,192,72430,1,0,0:0:0:0:
402,192,72706,1,0,0:0:0:0:
256,192,72843,1,0,0:0:0:0:
402,192,72981,1,0,0:0:0:0:
109,192,73118,1,0,0:0:0:0:
256,192,73256,1,0,0:0:0:0:
109,192,73394,1,0,0:0:0:0:
329,192,73531,1,0,0:0:0:0:
36,192,73806,1,0,0:0:0:0:
402,192,73944,1,0,0:0:0:0:
182,192,74082,1,0,0:0:0:0:
402,192,74357,1,0,0:0:0:0:
256,192,74495,1,0,0:0:0:0:
329,192,74632,1,0,0:0:0:0:
475,192,74770,1,0,0:0:0:0:
256,192,74907,1,0,0:0:0:0:
109,192,75045,1,0,0:0:0:0:
402,192,75183,1,0,0:0:0:0:
182,192,75458,1,0,0:0:0:0:
329,192,75595,1,0,0:0:0:0:
109,192,75733,1,0,0:0:0:0:
256,192,76008,1,0,0:0:0:0:
475,192,76284,1,0,0:0:0:0:
329,192,76559,1,0,0:0:0:0:
256,192,76834,1,0,0:0:0:0:
109,192,77109,1,0,0:0:0:0:
329,192,77247,1,0,0:0:0:0:
36,192,77384,1,0,0:0:0:0:
256,192,77660,1,0,0:0:0:0:
182,192,77935,1,0,0:0:0:0:
402,192,78073,1,0,0:0:0:0:
109,192,78210,1,0,0:0:0:0:
256,192,78485,1,0,0:0:0:0:
329,192,78761,1,0,0:0:0:0:
182,192,78898,1,0,0:0:0:0:
475,192,79036,1,0,0:0:0:0:
256,192,79311,1,0,0:0:0:0:
402,192,79586,1,0,0:0:0:0:
109,192,79862,1,0,0:0:0:0:
36,192,80137,1,0,0:0:0:0:
475,192,80137,1,0,0:0:0:0:
256,192,80137,1,4,0:0:0:0:
475,192,80412,1,0,0:0:0:0:
36,192,80412,1,0,0:0:0:0:
256,192,80412,1,4,0:0:0:0:
256,192,80687,1,4,0:0:0:0:
475,192,80687,1,0,0:0:0:0:
36,192,80687,1,0,0:0:0:0:
182,192,81237,1,0,0:0:0:0:
475,192,81513,1,0,0:0:0:0:
182,192,81650,1,0,0:0:0:0:
402,192,82338,1,0,0:0:0:0:
109,192,82614,1,0,0:0:0:0:
402,192,82751,1,0,0:0:0:0:
36,192,83439,1,0,0:0:0:0:
182,192,83577,1,0,0:0:0:0:
36,192,83714,1,0,0:0:0:0:
182,192,83852,1,0,0:0:0:0:
475,192,83990,1,0,0:0:0:0:
329,192,84127,1,0,0:0:0:0:
475,192,84265,1,0,0:0:0:0:
329,192,84403,1,0,0:0:0:0:
182,192,84540,1,0,0:0:0:0:
109,192,84815,1,0,0:0:0:0:
36,192,84953,1,0,0:0:0:0:
109,192,85091,1,0,0:0:0:0:
329,192,85366,1,0,0:0:0:0:
402,192,85641,1,0,0:0:0:0:
256,192,85916,1,0,0:0:0:0:
36,192,86467,1,0,0:0:0:0:
256,192,86742,1,0,0:0:0:0:
182,192,87017,1,0,0:0:0:0:
109,192,87155,1,0,0:0:0:0:
182,192,87292,1,0,0:0:0:0:
402,192,87568,1,0,0:0:0:0:
475,192,87843,1,0,0:0:0:0:
329,192,88118,1,0,0:0:0:0:
109,192,88393,128,0,88944:0:0:0:0:
402,192,88944,1,4,0:0:0:0:
182,192,88944,1,0,0:0:0:0:
475,192,89494,1,0,0:0:0:0:
329,192,90045,1,0,0:0:0:0:
109,192,90595,1,0,0:0:0:0:
402,192,91146,1,0,0:0:0:0:
475,192,91696,1,0,0:0:0:0:
329,192,92247,1,0,0:0:0:0:
182,192,92797,1,0,0:0:0:0:
36,192,93348,1,0,0:0:0:0:
109,192,94036,1,0,0:0:0:0:
182,192,94173,1,0,0:0:0:0:
329,192,94311,1,0,0:0:0:0:
475,192,94448,1,0,0:0:0:0:
256,192,94586,1,0,0:0:0:0:
402,192,94861,1,0,0:0:0:0:
109,192,94861,1,0,0:0:0:0:
182,192,95136,1,0,0:0:0:0:
475,192,95136,1,0,0:0:0:0:
256,192,95549,128,0,95825:0:0:0:0:
329,192,95825,128,0,96100:0:0:0:0:
182,192,96100,128,0,96375:0:0:0:0:
256,192,96375,128,0,96650:0:0:0:0:
109,192,96650,128,0,96925:0:0:0:0:
182,192,96925,128,0,97201:0:0:0:0:
36,192,97201,128,0,97476:0:0:0:0:
109,192,97476,128,0,97751:0:0:0:0:
256,192,97751,1,4,0:0:0:0:
402,192,97751,1,0,0:0:0:0:
475,192,98302,1,0,0:0:0:0:
256,192,98852,1,0,0:0:0:0:
109,192,99403,1,0,0:0:0:0:
402,192,99953,1,0,0:0:0:0:
475,192,100503,1,0,0:0:0:0:
256,192,101054,1,0,0:0:0:0:
109,192,101604,1,0,0:0:0:0:
256,192,102155,1,4,0:0:0:0:
36,192,102155,1,0,0:0:0:0:
109,192,102842,1,0,0:0:0:0:
182,192,102980,1,0,0:0:0:0:
256,192,103117,1,0,0:0:0:0:
475,192,103255,1,0,0:0:0:0:
329,192,103392,1,0,0:0:0:0:
475,192,103668,1,0,0:0:0:0:
182,192,103668,1,0,0:0:0:0:
109,192,103943,1,0,0:0:0:0:
402,192,103943,1,0,0:0:0:0:
256,192,104356,128,0,104632:0:0:0:0:
182,192,104632,128,0,104907:0:0:0:0:
329,192,104907,128,0,105182:0:0:0:0:
256,192,105182,128,0,105458:0:0:0:0:
475,192,105458,1,0,0:0:0:0:
182,192,105733,1,0,0:0:0:0:
329,192,106008,128,0,106559:0:0:0:0:
109,192,106559,1,4,0:0:0:0:
256,192,106559,1,0,0:0:0:0:
182,192,106834,1,0,0:0:0:0:
329,192,106834,1,0,0:0:0:0:
256,192,107109,1,0,0:0:0:0:
402,192,107109,1,0,0:0:0:0:
182,192,107384,1,0,0:0:0:0:
329,192,107384,1,0,0:0:0:0:
109,192,107659,1,0,0:0:0:0:
256,192,107659,1,0,0:0:0:0:
182,192,107935,1,0,0:0:0:0:
329,192,107935,1,0,0:0:0:0:
256,192,108210,1,0,0:0:0:0:
402,192,108210,1,0,0:0:0:0:
182,192,108485,1,0,0:0:0:0:
329,192,108485,1,0,0:0:0:0:
36,192,108760,128,0,109586:0:0:0:0:
475,192,109861,128,0,110687:0:0:0:0:
402,192,110962,1,0,0:0:0:0:
329,192,111237,1,0,0:0:0:0:
256,192,111513,1,0,0:0:0:0:
182,192,111788,1,0,0:0:0:0:
256,192,112063,1,0,0:0:0:0:
182,192,112338,1,0,0:0:0:0:
109,192,112614,1,0,0:0:0:0:
36,192,112889,1,0,0:0:0:0:
475,192,113164,128,0,113439:0:0:0:0:
402,192,113439,128,0,113714:0:0:0:0:
329,192,113714,128,0,113990:0:0:0:0:
256,192,113990,128,0,114265:0:0:0:0:
36,192,114265,128,0,114540:0:0:0:0:
182,192,114540,128,0,114815:0:0:0:0:
402,192,114815,128,0,115091:0:0:0:0:
256,192,115091,128,0,115366:0:0:0:0:
109,192,115503,1,0,0:0:0:0:
109,192,115641,1,0,0:0:0:0:
402,192,115916,1,0,0:0:0:0:
402,192,116054,1,0,0:0:0:0:
109,192,116329,1,0,0:0:0:0:
109,192,116467,1,0,0:0:0:0:
109,192,116604,1,0,0:0:0:0:
109,192,116742,1,0,0:0:0:0:
402,192,117017,1,0,0:0:0:0:
402,192,117155,1,0,0:0:0:0:
402,192,117430,1,0,0:0:0:0:
182,192,117705,1,0,0:0:0:0:
182,192,117843,1,0,0:0:0:0:
329,192,118118,1,0,0:0:0:0:
329,192,118256,1,0,0:0:0:0:
329,192,118531,1,0,0:0:0:0:
329,192,118669,1,0,0:0:0:0:
182,192,118806,1,0,0:0:0:0:
182,192,118944,1,0,0:0:0:0:
182,192,119219,1,0,0:0:0:0:
182,192,119357,1,0,0:0:0:0:
402,192,119632,1,0,0:0:0:0:
36,192,119770,128,0,120045:0:0:0:0:
109,192,120045,128,0,120320:0:0:0:0:
182,192,120320,128,0,120595:0:0:0:0:
256,192,120595,128,0,120870:0:0:0:0:
109,192,120870,128,0,121146:0:0:0:0:
182,192,121146,128,0,121421:0:0:0:0:
256,192,121421,128,0,121696:0:0:0:0:
329,192,121696,128,0,121971:0:0:0:0:
182,192,121971,128,0,122247:0:0:0:0:
256,192,122247,128,0,122522:0:0:0:0:
329,192,122522,128,0,122797:0:0:0:0:
402,192,122797,128,0,123072:0:0:0:0:
256,192,123072,128,0,123348:0:0:0:0:
329,192,123348,128,0,123623:0:0:0:0:
402,192,123623,128,0,123898:0:0:0:0:
475,192,123898,128,0,124173:0:0:0:0:
109,192,124173,1,4,0:0:0:0:
402,192,124173,1,4,0:0:0:0:
109,192,124724,1,4,0:0:0:0:
402,192,124724,1,4,0:0:0:0:
109,192,125274,1,4,0:0:0:0:
402,192,125274,1,4,0:0:0:0:
402,192,125549,1,4,0:0:0:0:
109,192,125549,1,4,0:0:0:0:
256,192,125549,1,0,0:0:0:0:
