osu file format v13

[General]
AudioFilename: Haryu.mp3
AudioLeadIn: 0
PreviewTime: 42156
Countdown: 0
SampleSet: Soft
StackLeniency: 0.7
Mode: 3
LetterboxInBreaks: 0
SpecialStyle: 0
WidescreenStoryboard: 1

[Editor]
DistanceSpacing: 0.8
BeatDivisor: 6
GridSize: 32
TimelineZoom: 1

[Metadata]
Title:Haryu
TitleUnicode:春竜 ~Haryu~
Artist:Azu
ArtistUnicode:あず♪
Creator:asd123iii
Version:Another
Source:Taiko no Tatsujin
Tags:太鼓の達人 Simple_Star richardfeder
BeatmapID:524443
BeatmapSetID:183478

[Difficulty]
HPDrainRate:8
CircleSize:7
OverallDifficulty:8
ApproachRate:5
SliderMultiplier:1.4
SliderTickRate:1

[Events]
//Background and Video events
0,0,"bg.jpg",0,0
//Break Periods
//Storyboard Layer 0 (Background)
//Storyboard Layer 1 (Fail)
//Storyboard Layer 2 (Pass)
//Storyboard Layer 3 (Foreground)
//Storyboard Sound Samples
//Background Colour Transformations
3,100,163,162,255

[TimingPoints]
4725,275.229357798165,4,2,1,30,1,0
42156,-100,4,2,1,30,0,1
55091,-100,4,2,1,30,0,0
57018,275.229357798165,6,2,1,30,1,0
80137,275.229357798165,4,2,1,30,1,0

[HitObjects]
329,192,1972,5,0,0:0:0:0:
256,192,2041,1,0,0:0:0:0:
182,192,2110,1,0,0:0:0:0:
109,192,2179,1,0,0:0:0:0:
36,192,2247,1,0,0:0:0:0:
475,192,2316,1,0,0:0:0:0:
402,192,2385,1,0,0:0:0:0:
329,192,2454,1,0,0:0:0:0:
182,192,2523,1,0,0:0:0:0:
256,192,2523,128,0,4724:0:0:0:0:
475,192,2660,1,0,0:0:0:0:
329,192,2798,1,0,0:0:0:0:
36,192,2936,1,0,0:0:0:0:
182,192,3073,1,0,0:0:0:0:
475,192,3211,1,0,0:0:0:0:
329,192,3348,1,0,0:0:0:0:
36,192,3486,1,0,0:0:0:0:
182,192,3624,1,0,0:0:0:0:
475,192,3761,1,0,0:0:0:0:
329,192,3899,1,0,0:0:0:0:
36,192,4036,1,0,0:0:0:0:
182,192,4174,1,0,0:0:0:0:
475,192,4312,1,0,0:0:0:0:
36,192,4449,1,0,0:0:0:0:
329,192,4449,1,0,0:0:0:0:
182,192,4587,1,0,0:0:0:0:
402,192,4724,1,0,0:0:0:0:
36,192,4724,1,4,0:0:0:0:
109,192,4724,1,0,0:0:0:0:
329,192,4724,1,0,0:0:0:0:
475,192,4862,1,0,0:0:0:0:
329,192,5000,1,0,0:0:0:0:
109,192,5137,1,0,0:0:0:0:
402,192,5137,1,0,0:0:0:0:
182,192,5137,1,4,0:0:0:0:
256,192,5275,1,0,0:0:0:0:
329,192,5413,1,0,0:0:0:0:
182,192,5550,1,0,0:0:0:0:
256,192,5688,1,0,0:0:0:0:
329,192,5825,1,0,0:0:0:0:
109,192,5825,1,0,0:0:0:0:
36,192,5963,1,0,0:0:0:0:
256,192,5963,1,0,0:0:0:0:
182,192,6101,1,0,0:0:0:0:
402,192,6101,1,0,0:0:0:0:
109,192,6238,1,0,0:0:0:0:
329,192,6238,1,0,0:0:0:0:
256,192,6376,1,0,0:0:0:0:
475,192,6376,1,0,0:0:0:0:
329,192,6513,1,0,0:0:0:0:
109,192,6513,1,0,0:0:0:0:
402,192,6651,1,0,0:0:0:0:
182,192,6651,1,0,0:0:0:0:
256,192,6789,1,0,0:0:0:0:
36,192,6789,1,0,0:0:0:0:
109,192,6926,1,0,0:0:0:0:
329,192,6926,1,4,0:0:0:0:
402,192,6926,1,0,0:0:0:0:
36,192,7064,1,0,0:0:0:0:
182,192,7202,1,0,0:0:0:0:
475,192,7339,1,0,0:0:0:0:
402,192,7339,1,4,0:0:0:0:
109,192,7339,1,0,0:0:0:0:
256,192,7477,1,0,0:0:0:0:
182,192,7614,1,0,0:0:0:0:
329,192,7752,1,0,0:0:0:0:
256,192,7890,1,0,0:0:0:0:
402,192,8027,1,0,0:0:0:0:
182,192,8027,1,0,0:0:0:0:
475,192,8165,1,0,0:0:0:0:
256,192,8165,1,0,0:0:0:0:
329,192,8302,1,0,0:0:0:0:
109,192,8302,1,0,0:0:0:0:
182,192,8440,1,0,0:0:0:0:
402,192,8440,1,0,0:0:0:0:
256,192,8578,1,0,0:0:0:0:
36,192,8578,1,0,0:0:0:0:
182,192,8715,1,0,0:0:0:0:
402,192,8715,1,0,0:0:0:0:
109,192,8853,1,0,0:0:0:0:
329,192,8853,1,0,0:0:0:0:
256,192,8991,1,0,0:0:0:0:
36,192,8991,1,0,0:0:0:0:
109,192,9128,1,0,0:0:0:0:
182,192,9128,1,4,0:0:0:0:
475,192,9128,1,0,0:0:0:0:
329,192,9266,1,0,0:0:0:0:
402,192,9403,1,0,0:0:0:0:
256,192,9541,1,0,0:0:0:0:
36,192,9541,1,0,0:0:0:0:
109,192,9541,1,4,0:0:0:0:
329,192,9679,1,0,0:0:0:0:
182,192,9816,1,0,0:0:0:0:
256,192,9954,1,0,0:0:0:0:
109,192,10091,1,0,0:0:0:0:
182,192,10229,1,0,0:0:0:0:
402,192,10229,1,0,0:0:0:0:
475,192,10367,1,0,0:0:0:0:
329,192,10367,1,0,0:0:0:0:
109,192,10504,1,0,0:0:0:0:
256,192,10504,1,0,0:0:0:0:
182,192,10642,1,0,0:0:0:0:
402,192,10642,1,0,0:0:0:0:
256,192,10780,1,0,0:0:0:0:
36,192,10780,1,0,0:0:0:0:
402,192,10917,1,0,0:0:0:0:
182,192,10917,1,0,0:0:0:0:
109,192,11055,1,0,0:0:0:0:
329,192,11055,1,0,0:0:0:0:
182,192,11192,1,0,0:0:0:0:
402,192,11192,1,0,0:0:0:0:
256,192,11330,1,4,0:0:0:0:
36,192,11330,1,0,0:0:0:0:
329,192,11330,1,0,0:0:0:0:
109,192,11468,1,0,0:0:0:0:
402,192,11468,1,0,0:0:0:0:
182,192,11605,1,0,0:0:0:0:
475,192,11605,1,0,0:0:0:0:
256,192,11743,1,4,0:0:0:0:
109,192,11743,1,0,0:0:0:0:
402,192,11743,1,0,0:0:0:0:
182,192,11880,1,0,0:0:0:0:
475,192,11880,1,0,0:0:0:0:
36,192,12018,1,0,0:0:0:0:
329,192,12018,1,0,0:0:0:0:
256,192,12156,1,4,0:0:0:0:
182,192,12156,1,0,0:0:0:0:
475,192,12156,1,0,0:0:0:0:
36,192,12293,1,0,0:0:0:0:
329,192,12293,1,0,0:0:0:0:
109,192,12431,1,0,0:0:0:0:
402,192,12431,1,0,0:0:0:0:
256,192,12569,1,4,0:0:0:0:
475,192,12569,1,0,0:0:0:0:
182,192,12569,1,0,0:0:0:0:
402,192,12706,1,0,0:0:0:0:
109,192,12706,1,0,0:0:0:0:
329,192,12844,1,0,0:0:0:0:
36,192,12844,1,0,0:0:0:0:
256,192,12981,1,4,0:0:0:0:
182,192,12981,1,0,0:0:0:0:
475,192,12981,1,0,0:0:0:0:
109,192,13119,1,0,0:0:0:0:
402,192,13119,1,0,0:0:0:0:
256,192,13257,1,4,0:0:0:0:
182,192,13257,1,0,0:0:0:0:
475,192,13257,1,0,0:0:0:0:
402,192,13394,1,0,0:0:0:0:
109,192,13394,1,0,0:0:0:0:
36,192,13532,1,0,0:0:0:0:
329,192,13532,1,0,0:0:0:0:
256,192,13532,1,4,0:0:0:0:
182,192,14633,1,0,0:0:0:0:
329,192,14770,1,0,0:0:0:0:
182,192,14908,1,0,0:0:0:0:
329,192,15046,1,0,0:0:0:0:
36,192,15183,1,0,0:0:0:0:
182,192,15252,1,0,0:0:0:0:
329,192,15321,1,0,0:0:0:0:
475,192,15390,1,0,0:0:0:0:
36,192,15458,1,0,0:0:0:0:
182,192,15527,1,0,0:0:0:0:
329,192,15596,1,0,0:0:0:0:
475,192,15665,1,0,0:0:0:0:
402,192,15734,1,0,0:0:0:0:
256,192,15734,1,4,0:0:0:0:
36,192,15734,1,0,0:0:0:0:
182,192,15871,1,0,0:0:0:0:
109,192,16009,1,0,0:0:0:0:
329,192,16009,1,0,0:0:0:0:
182,192,16147,1,0,0:0:0:0:
329,192,16284,1,0,0:0:0:0:
36,192,16284,1,0,0:0:0:0:
256,192,16422,1,0,0:0:0:0:
109,192,16422,1,0,0:0:0:0:
329,192,16559,1,0,0:0:0:0:
475,192,16559,1,0,0:0:0:0:
182,192,16697,1,0,0:0:0:0:
36,192,16835,1,0,0:0:0:0:
256,192,16835,1,0,0:0:0:0:
329,192,16972,1,0,0:0:0:0:
402,192,17110,1,0,0:0:0:0:
182,192,17110,1,0,0:0:0:0:
109,192,17247,1,0,0:0:0:0:
256,192,17385,1,0,0:0:0:0:
329,192,17523,1,0,0:0:0:0:
36,192,17523,1,0,0:0:0:0:
256,192,17591,1,0,0:0:0:0:
475,192,17660,1,0,0:0:0:0:
182,192,17660,1,0,0:0:0:0:
256,192,17798,1,0,0:0:0:0:
182,192,17936,1,0,0:0:0:0:
402,192,17936,1,0,0:0:0:0:
329,192,18073,1,0,0:0:0:0:
256,192,18211,1,0,0:0:0:0:
109,192,18211,1,0,0:0:0:0:
36,192,18348,1,0,0:0:0:0:
182,192,18486,1,0,0:0:0:0:
329,192,18486,1,0,0:0:0:0:
402,192,18624,1,0,0:0:0:0:
256,192,18761,1,0,0:0:0:0:
109,192,18761,1,0,0:0:0:0:
329,192,18899,1,0,0:0:0:0:
182,192,19036,1,0,0:0:0:0:
475,192,19036,1,0,0:0:0:0:
109,192,19174,1,0,0:0:0:0:
256,192,19312,1,0,0:0:0:0:
402,192,19312,1,0,0:0:0:0:
329,192,19449,1,0,0:0:0:0:
182,192,19587,1,0,0:0:0:0:
36,192,19724,1,0,0:0:0:0:
329,192,19724,1,0,0:0:0:0:
256,192,19793,1,0,0:0:0:0:
182,192,19862,1,0,0:0:0:0:
402,192,19862,1,0,0:0:0:0:
475,192,20000,1,0,0:0:0:0:
182,192,20000,1,0,0:0:0:0:
256,192,20069,1,0,0:0:0:0:
109,192,20137,1,0,0:0:0:0:
329,192,20137,1,0,0:0:0:0:
36,192,20137,1,0,0:0:0:0:
402,192,20275,1,0,0:0:0:0:
109,192,20413,1,0,0:0:0:0:
182,192,20550,1,0,0:0:0:0:
256,192,20550,1,0,0:0:0:0:
329,192,20688,1,0,0:0:0:0:
36,192,20825,1,0,0:0:0:0:
109,192,20825,1,0,0:0:0:0:
402,192,20825,1,0,0:0:0:0:
256,192,20963,1,0,0:0:0:0:
329,192,20963,1,0,0:0:0:0:
182,192,21101,1,0,0:0:0:0:
109,192,21238,1,0,0:0:0:0:
402,192,21238,1,0,0:0:0:0:
256,192,21376,1,0,0:0:0:0:
329,192,21376,1,0,0:0:0:0:
182,192,21513,1,0,0:0:0:0:
36,192,21651,1,0,0:0:0:0:
329,192,21789,1,0,0:0:0:0:
256,192,21789,1,0,0:0:0:0:
109,192,21789,1,0,0:0:0:0:
36,192,21926,1,0,0:0:0:0:
402,192,22064,1,0,0:0:0:0:
475,192,22064,1,0,0:0:0:0:
182,192,22064,1,0,0:0:0:0:
109,192,22202,1,0,0:0:0:0:
329,192,22202,1,0,0:0:0:0:
402,192,22270,1,0,0:0:0:0:
256,192,22339,1,0,0:0:0:0:
475,192,22339,1,0,0:0:0:0:
36,192,22477,1,0,0:0:0:0:
329,192,22477,1,0,0:0:0:0:
182,192,22614,1,0,0:0:0:0:
475,192,22614,1,0,0:0:0:0:
256,192,22752,1,0,0:0:0:0:
329,192,22752,1,0,0:0:0:0:
402,192,22752,1,0,0:0:0:0:
36,192,22890,1,0,0:0:0:0:
256,192,23027,1,0,0:0:0:0:
329,192,23027,1,0,0:0:0:0:
182,192,23027,1,0,0:0:0:0:
109,192,23165,1,0,0:0:0:0:
402,192,23165,1,0,0:0:0:0:
182,192,23302,1,0,0:0:0:0:
36,192,23440,1,0,0:0:0:0:
402,192,23440,1,0,0:0:0:0:
475,192,23440,1,0,0:0:0:0:
256,192,23578,1,0,0:0:0:0:
329,192,23715,1,0,0:0:0:0:
109,192,23715,1,0,0:0:0:0:
182,192,23853,1,0,0:0:0:0:
475,192,23991,1,0,0:0:0:0:
109,192,23991,1,0,0:0:0:0:
402,192,24025,1,0,0:0:0:0:
329,192,24059,1,0,0:0:0:0:
256,192,24094,1,0,0:0:0:0:
182,192,24128,1,0,0:0:0:0:
36,192,24128,1,0,0:0:0:0:
329,192,24266,1,0,0:0:0:0:
402,192,24403,1,0,0:0:0:0:
36,192,24403,1,0,0:0:0:0:
109,192,24438,1,0,0:0:0:0:
182,192,24472,1,0,0:0:0:0:
256,192,24507,1,0,0:0:0:0:
475,192,24541,1,4,0:0:0:0:
329,192,24541,1,0,0:0:0:0:
402,192,24679,1,0,0:0:0:0:
182,192,24816,1,0,0:0:0:0:
36,192,24816,1,0,0:0:0:0:
256,192,24954,1,0,0:0:0:0:
402,192,25091,1,0,0:0:0:0:
475,192,25091,1,0,0:0:0:0:
109,192,25091,1,0,0:0:0:0:
182,192,25229,1,0,0:0:0:0:
36,192,25367,1,0,0:0:0:0:
256,192,25367,1,0,0:0:0:0:
109,192,25504,1,0,0:0:0:0:
402,192,25642,1,0,0:0:0:0:
329,192,25642,1,0,0:0:0:0:
182,192,25642,1,0,0:0:0:0:
256,192,25780,1,0,0:0:0:0:
329,192,25917,1,0,0:0:0:0:
475,192,25917,1,0,0:0:0:0:
36,192,25986,1,0,0:0:0:0:
109,192,26055,1,0,0:0:0:0:
182,192,26124,1,0,0:0:0:0:
256,192,26192,1,0,0:0:0:0:
475,192,26261,1,0,0:0:0:0:
402,192,26330,1,0,0:0:0:0:
182,192,26330,1,0,0:0:0:0:
329,192,26399,1,0,0:0:0:0:
109,192,26399,1,0,0:0:0:0:
256,192,26468,1,0,0:0:0:0:
475,192,26468,1,0,0:0:0:0:
36,192,26468,1,0,0:0:0:0:
402,192,26605,1,0,0:0:0:0:
475,192,26743,1,0,0:0:0:0:
329,192,26743,1,0,0:0:0:0:
256,192,26743,1,0,0:0:0:0:
182,192,26880,1,0,0:0:0:0:
256,192,27018,1,0,0:0:0:0:
109,192,27018,1,0,0:0:0:0:
182,192,27156,1,0,0:0:0:0:
329,192,27293,1,0,0:0:0:0:
402,192,27293,1,0,0:0:0:0:
36,192,27293,1,0,0:0:0:0:
182,192,27431,1,0,0:0:0:0:
256,192,27431,1,0,0:0:0:0:
109,192,27569,1,0,0:0:0:0:
475,192,27569,1,0,0:0:0:0:
182,192,27706,1,0,0:0:0:0:
109,192,27844,1,0,0:0:0:0:
402,192,27844,1,0,0:0:0:0:
329,192,27844,1,0,0:0:0:0:
256,192,27981,1,0,0:0:0:0:
475,192,28119,1,0,0:0:0:0:
402,192,28119,1,0,0:0:0:0:
36,192,28188,1,0,0:0:0:0:
109,192,28257,1,0,0:0:0:0:
182,192,28325,1,0,0:0:0:0:
475,192,28394,1,0,0:0:0:0:
402,192,28463,1,0,0:0:0:0:
109,192,28532,1,0,0:0:0:0:
329,192,28532,1,0,0:0:0:0:
256,192,28601,1,0,0:0:0:0:
182,192,28669,1,0,0:0:0:0:
36,192,28669,1,0,0:0:0:0:
256,192,28807,1,0,0:0:0:0:
475,192,28945,1,0,0:0:0:0:
402,192,28945,1,0,0:0:0:0:
256,192,28945,1,0,0:0:0:0:
182,192,28945,1,0,0:0:0:0:
36,192,29082,1,0,0:0:0:0:
182,192,29220,1,0,0:0:0:0:
329,192,29220,1,0,0:0:0:0:
402,192,29220,1,0,0:0:0:0:
109,192,29220,1,0,0:0:0:0:
256,192,29358,1,0,0:0:0:0:
402,192,29495,1,0,0:0:0:0:
475,192,29495,1,0,0:0:0:0:
182,192,29633,1,0,0:0:0:0:
256,192,29633,1,0,0:0:0:0:
329,192,29770,1,0,0:0:0:0:
109,192,29770,1,0,0:0:0:0:
36,192,29908,1,0,0:0:0:0:
402,192,30046,1,0,0:0:0:0:
182,192,30137,1,0,0:0:0:0:
329,192,30229,1,0,0:0:0:0:
109,192,30321,1,0,0:0:0:0:
256,192,30413,1,0,0:0:0:0:
36,192,30550,1,0,0:0:0:0:
329,192,30642,1,0,0:0:0:0:
109,192,30734,1,0,0:0:0:0:
402,192,30825,1,0,0:0:0:0:
182,192,30917,1,0,0:0:0:0:
475,192,31009,1,0,0:0:0:0:
256,192,31147,1,0,0:0:0:0:
329,192,31238,1,0,0:0:0:0:
402,192,31330,1,0,0:0:0:0:
182,192,31422,1,0,0:0:0:0:
109,192,31513,1,0,0:0:0:0:
36,192,31605,1,0,0:0:0:0:
329,192,31697,1,0,0:0:0:0:
402,192,31789,1,0,0:0:0:0:
475,192,31880,1,0,0:0:0:0:
256,192,31972,1,0,0:0:0:0:
182,192,32064,1,0,0:0:0:0:
109,192,32156,1,0,0:0:0:0:
475,192,32247,1,0,0:0:0:0:
402,192,32339,1,0,0:0:0:0:
329,192,32431,1,0,0:0:0:0:
182,192,32523,1,0,0:0:0:0:
109,192,32614,1,0,0:0:0:0:
36,192,32706,1,0,0:0:0:0:
329,192,32798,1,0,0:0:0:0:
402,192,32890,1,0,0:0:0:0:
475,192,32981,1,0,0:0:0:0:
256,192,33073,1,0,0:0:0:0:
182,192,33165,1,0,0:0:0:0:
109,192,33257,1,0,0:0:0:0:
36,192,33348,1,0,0:0:0:0:
329,192,33348,1,4,0:0:0:0:
402,192,33348,1,0,0:0:0:0:
109,192,33440,1,0,0:0:0:0:
182,192,33532,1,0,0:0:0:0:
256,192,33624,1,0,0:0:0:0:
475,192,33624,1,0,0:0:0:0:
182,192,33715,1,0,0:0:0:0:
109,192,33807,1,0,0:0:0:0:
36,192,33899,1,0,0:0:0:0:
329,192,33899,1,0,0:0:0:0:
109,192,33991,1,0,0:0:0:0:
182,192,34082,1,0,0:0:0:0:
256,192,34174,1,0,0:0:0:0:
475,192,34174,1,0,0:0:0:0:
182,192,34266,1,0,0:0:0:0:
109,192,34358,1,0,0:0:0:0:
36,192,34449,1,0,0:0:0:0:
329,192,34449,1,0,0:0:0:0:
109,192,34541,1,0,0:0:0:0:
182,192,34633,1,0,0:0:0:0:
256,192,34724,1,0,0:0:0:0:
475,192,34724,1,0,0:0:0:0:
182,192,34816,1,0,0:0:0:0:
109,192,34908,1,0,0:0:0:0:
329,192,35000,1,0,0:0:0:0:
36,192,35000,1,0,0:0:0:0:
109,192,35091,1,0,0:0:0:0:
182,192,35183,1,0,0:0:0:0:
475,192,35275,1,0,0:0:0:0:
329,192,35275,1,0,0:0:0:0:
256,192,35367,1,0,0:0:0:0:
475,192,35413,1,0,0:0:0:0:
182,192,35458,1,0,0:0:0:0:
475,192,35550,1,0,0:0:0:0:
109,192,35550,1,0,0:0:0:0:
402,192,35550,1,0,0:0:0:0:
182,192,35642,1,0,0:0:0:0:
256,192,35734,1,0,0:0:0:0:
329,192,35825,1,0,0:0:0:0:
402,192,35825,1,0,0:0:0:0:
256,192,35917,1,0,0:0:0:0:
182,192,36009,1,0,0:0:0:0:
109,192,36101,1,0,0:0:0:0:
475,192,36101,1,0,0:0:0:0:
182,192,36192,1,0,0:0:0:0:
256,192,36284,1,0,0:0:0:0:
329,192,36376,1,0,0:0:0:0:
402,192,36376,1,0,0:0:0:0:
256,192,36468,1,0,0:0:0:0:
182,192,36559,1,0,0:0:0:0:
109,192,36651,1,0,0:0:0:0:
475,192,36651,1,0,0:0:0:0:
182,192,36743,1,0,0:0:0:0:
256,192,36835,1,0,0:0:0:0:
329,192,36926,1,0,0:0:0:0:
402,192,36926,1,0,0:0:0:0:
256,192,37018,1,0,0:0:0:0:
182,192,37110,1,0,0:0:0:0:
109,192,37202,1,0,0:0:0:0:
475,192,37202,1,0,0:0:0:0:
182,192,37293,1,0,0:0:0:0:
256,192,37385,1,0,0:0:0:0:
402,192,37477,1,0,0:0:0:0:
36,192,37477,1,0,0:0:0:0:
329,192,37569,1,0,0:0:0:0:
36,192,37614,1,0,0:0:0:0:
256,192,37660,1,0,0:0:0:0:
36,192,37752,1,0,0:0:0:0:
182,192,37752,1,0,0:0:0:0:
256,192,37844,1,0,0:0:0:0:
329,192,37936,1,0,0:0:0:0:
402,192,38027,1,0,0:0:0:0:
36,192,38027,1,0,0:0:0:0:
109,192,38027,1,4,0:0:0:0:
329,192,38119,1,0,0:0:0:0:
256,192,38211,1,0,0:0:0:0:
182,192,38302,1,0,0:0:0:0:
109,192,38302,1,0,0:0:0:0:
256,192,38394,1,0,0:0:0:0:
329,192,38486,1,0,0:0:0:0:
402,192,38578,1,0,0:0:0:0:
36,192,38578,1,0,0:0:0:0:
329,192,38669,1,0,0:0:0:0:
256,192,38761,1,0,0:0:0:0:
182,192,38853,1,0,0:0:0:0:
109,192,38853,1,0,0:0:0:0:
256,192,38945,1,0,0:0:0:0:
329,192,39036,1,0,0:0:0:0:
402,192,39128,1,0,0:0:0:0:
36,192,39128,1,0,0:0:0:0:
329,192,39220,1,0,0:0:0:0:
256,192,39312,1,0,0:0:0:0:
182,192,39403,1,0,0:0:0:0:
109,192,39403,1,0,0:0:0:0:
256,192,39495,1,0,0:0:0:0:
329,192,39587,1,0,0:0:0:0:
475,192,39679,1,0,0:0:0:0:
36,192,39679,1,0,0:0:0:0:
402,192,39770,1,0,0:0:0:0:
36,192,39816,1,0,0:0:0:0:
329,192,39862,1,0,0:0:0:0:
256,192,39954,1,0,0:0:0:0:
36,192,39954,1,0,0:0:0:0:
329,192,40046,1,0,0:0:0:0:
109,192,40091,1,0,0:0:0:0:
402,192,40137,1,0,0:0:0:0:
475,192,40229,1,0,0:0:0:0:
182,192,40229,1,4,0:0:0:0:
402,192,40321,1,0,0:0:0:0:
109,192,40367,1,0,0:0:0:0:
329,192,40413,1,0,0:0:0:0:
256,192,40504,1,0,0:0:0:0:
36,192,40504,1,0,0:0:0:0:
329,192,40596,1,0,0:0:0:0:
109,192,40642,1,0,0:0:0:0:
402,192,40688,1,0,0:0:0:0:
182,192,40780,1,4,0:0:0:0:
475,192,40780,1,0,0:0:0:0:
402,192,40871,1,0,0:0:0:0:
109,192,40917,1,0,0:0:0:0:
329,192,40963,1,0,0:0:0:0:
36,192,41055,1,0,0:0:0:0:
256,192,41055,1,0,0:0:0:0:
329,192,41147,1,0,0:0:0:0:
109,192,41147,1,0,0:0:0:0:
402,192,41238,1,0,0:0:0:0:
182,192,41238,1,0,0:0:0:0:
475,192,41330,1,0,0:0:0:0:
256,192,41330,1,4,0:0:0:0:
402,192,41422,1,0,0:0:0:0:
182,192,41422,1,0,0:0:0:0:
329,192,41513,1,0,0:0:0:0:
109,192,41513,1,0,0:0:0:0:
256,192,41605,1,0,0:0:0:0:
36,192,41605,1,0,0:0:0:0:
329,192,41697,1,0,0:0:0:0:
109,192,41697,1,0,0:0:0:0:
402,192,41789,1,0,0:0:0:0:
182,192,41789,1,0,0:0:0:0:
475,192,41880,1,0,0:0:0:0:
256,192,41880,1,0,0:0:0:0:
402,192,41972,1,0,0:0:0:0:
182,192,41972,1,0,0:0:0:0:
329,192,42064,1,0,0:0:0:0:
109,192,42064,1,0,0:0:0:0:
256,192,42156,1,4,0:0:0:0:
36,192,42156,1,0,0:0:0:0:
475,192,42156,1,4,0:0:0:0:
402,192,42293,1,0,0:0:0:0:
402,192,42431,1,0,0:0:0:0:
256,192,42569,1,4,0:0:0:0:
475,192,42569,1,4,0:0:0:0:
109,192,42569,1,0,0:0:0:0:
402,192,42706,1,0,0:0:0:0:
402,192,42844,1,0,0:0:0:0:
109,192,42981,1,0,0:0:0:0:
256,192,42981,1,4,0:0:0:0:
475,192,42981,1,4,0:0:0:0:
402,192,43119,1,0,0:0:0:0:
109,192,43257,1,0,0:0:0:0:
256,192,43257,1,4,0:0:0:0:
475,192,43257,1,4,0:0:0:0:
402,192,43394,1,0,0:0:0:0:
182,192,43532,1,4,0:0:0:0:
36,192,43532,1,4,0:0:0:0:
329,192,43532,1,0,0:0:0:0:
109,192,43669,1,0,0:0:0:0:
475,192,43669,1,0,0:0:0:0:
402,192,43704,1,0,0:0:0:0:
329,192,43738,1,0,0:0:0:0:
256,192,43773,1,0,0:0:0:0:
36,192,43807,1,4,0:0:0:0:
182,192,43807,1,4,0:0:0:0:
109,192,43945,1,0,0:0:0:0:
109,192,44082,1,0,0:0:0:0:
36,192,44220,1,4,0:0:0:0:
182,192,44220,1,4,0:0:0:0:
329,192,44220,1,0,0:0:0:0:
109,192,44358,1,0,0:0:0:0:
109,192,44495,1,0,0:0:0:0:
475,192,44633,1,4,0:0:0:0:
182,192,44633,1,0,0:0:0:0:
256,192,44633,1,4,0:0:0:0:
402,192,44770,1,0,0:0:0:0:
182,192,44908,1,0,0:0:0:0:
256,192,44908,1,4,0:0:0:0:
475,192,44908,1,4,0:0:0:0:
402,192,45046,1,0,0:0:0:0:
109,192,45183,1,4,0:0:0:0:
475,192,45183,1,0,0:0:0:0:
256,192,45183,1,4,0:0:0:0:
329,192,45321,1,0,0:0:0:0:
329,192,45458,1,0,0:0:0:0:
109,192,45596,1,4,0:0:0:0:
256,192,45596,1,4,0:0:0:0:
475,192,45596,1,0,0:0:0:0:
329,192,45734,1,0,0:0:0:0:
329,192,45871,1,0,0:0:0:0:
256,192,46009,1,4,0:0:0:0:
109,192,46009,1,4,0:0:0:0:
475,192,46009,1,0,0:0:0:0:
329,192,46147,1,0,0:0:0:0:
109,192,46284,1,4,0:0:0:0:
256,192,46284,1,4,0:0:0:0:
475,192,46284,1,0,0:0:0:0:
182,192,46422,1,0,0:0:0:0:
402,192,46559,1,4,0:0:0:0:
329,192,46559,1,4,0:0:0:0:
36,192,46559,1,0,0:0:0:0:
256,192,46697,1,0,0:0:0:0:
475,192,46697,1,0,0:0:0:0:
182,192,46766,1,0,0:0:0:0:
109,192,46835,1,0,0:0:0:0:
329,192,46835,1,4,0:0:0:0:
475,192,46835,1,4,0:0:0:0:
256,192,46972,1,0,0:0:0:0:
256,192,47110,1,0,0:0:0:0:
109,192,47247,1,0,0:0:0:0:
329,192,47247,1,4,0:0:0:0:
475,192,47247,1,4,0:0:0:0:
256,192,47385,1,0,0:0:0:0:
256,192,47523,1,0,0:0:0:0:
329,192,47660,1,4,0:0:0:0:
475,192,47660,1,4,0:0:0:0:
36,192,47660,1,0,0:0:0:0:
256,192,47729,1,0,0:0:0:0:
182,192,47798,1,0,0:0:0:0:
402,192,47798,1,0,0:0:0:0:
182,192,47936,1,4,0:0:0:0:
36,192,47936,1,4,0:0:0:0:
475,192,47936,1,0,0:0:0:0:
256,192,48004,1,0,0:0:0:0:
329,192,48073,1,0,0:0:0:0:
109,192,48073,1,0,0:0:0:0:
475,192,48211,1,4,0:0:0:0:
182,192,48211,1,0,0:0:0:0:
36,192,48211,1,0,0:0:0:0:
256,192,48348,1,0,0:0:0:0:
109,192,48348,1,0,0:0:0:0:
329,192,48486,1,0,0:0:0:0:
182,192,48486,1,0,0:0:0:0:
256,192,48624,1,0,0:0:0:0:
109,192,48624,1,0,0:0:0:0:
36,192,48624,1,4,0:0:0:0:
329,192,48761,1,0,0:0:0:0:
182,192,48761,1,0,0:0:0:0:
402,192,48899,1,0,0:0:0:0:
256,192,48899,1,0,0:0:0:0:
475,192,49036,1,0,0:0:0:0:
329,192,49036,1,0,0:0:0:0:
109,192,49036,1,4,0:0:0:0:
402,192,49174,1,0,0:0:0:0:
256,192,49174,1,0,0:0:0:0:
475,192,49312,1,0,0:0:0:0:
329,192,49312,1,0,0:0:0:0:
109,192,49312,1,4,0:0:0:0:
402,192,49449,1,0,0:0:0:0:
256,192,49449,1,0,0:0:0:0:
329,192,49587,1,0,0:0:0:0:
182,192,49587,1,0,0:0:0:0:
36,192,49587,1,4,0:0:0:0:
256,192,49724,1,0,0:0:0:0:
109,192,49724,1,0,0:0:0:0:
182,192,49862,1,0,0:0:0:0:
36,192,49862,1,0,0:0:0:0:
402,192,49862,1,4,0:0:0:0:
256,192,50000,1,0,0:0:0:0:
109,192,50000,1,0,0:0:0:0:
329,192,50137,1,0,0:0:0:0:
182,192,50137,1,0,0:0:0:0:
402,192,50275,1,4,0:0:0:0:
256,192,50275,1,0,0:0:0:0:
36,192,50275,1,0,0:0:0:0:
329,192,50413,1,0,0:0:0:0:
109,192,50413,1,0,0:0:0:0:
402,192,50550,1,0,0:0:0:0:
182,192,50550,1,0,0:0:0:0:
475,192,50688,1,0,0:0:0:0:
256,192,50688,1,0,0:0:0:0:
36,192,50688,1,4,0:0:0:0:
402,192,50825,1,0,0:0:0:0:
182,192,50825,1,0,0:0:0:0:
475,192,50963,1,4,0:0:0:0:
256,192,50963,1,0,0:0:0:0:
109,192,50963,1,0,0:0:0:0:
182,192,51101,1,0,0:0:0:0:
402,192,51101,1,4,0:0:0:0:
329,192,51101,1,0,0:0:0:0:
475,192,51238,1,4,0:0:0:0:
36,192,51238,1,4,0:0:0:0:
109,192,51238,1,0,0:0:0:0:
182,192,51376,1,0,0:0:0:0:
402,192,51376,1,0,0:0:0:0:
329,192,51513,1,0,0:0:0:0:
109,192,51513,1,0,0:0:0:0:
256,192,51651,1,0,0:0:0:0:
182,192,51651,1,4,0:0:0:0:
36,192,51651,1,0,0:0:0:0:
329,192,51789,1,0,0:0:0:0:
109,192,51789,1,0,0:0:0:0:
402,192,51926,1,0,0:0:0:0:
182,192,51926,1,0,0:0:0:0:
475,192,52064,1,0,0:0:0:0:
109,192,52064,1,0,0:0:0:0:
256,192,52064,1,4,0:0:0:0:
329,192,52202,1,0,0:0:0:0:
36,192,52202,1,0,0:0:0:0:
256,192,52339,1,4,0:0:0:0:
182,192,52339,1,0,0:0:0:0:
475,192,52339,1,0,0:0:0:0:
36,192,52477,1,0,0:0:0:0:
329,192,52477,1,0,0:0:0:0:
256,192,52614,1,0,0:0:0:0:
109,192,52614,1,0,0:0:0:0:
402,192,52614,1,4,0:0:0:0:
329,192,52752,1,0,0:0:0:0:
182,192,52752,1,0,0:0:0:0:
36,192,52890,1,0,0:0:0:0:
402,192,52890,1,4,0:0:0:0:
475,192,52890,1,0,0:0:0:0:
256,192,52890,1,0,0:0:0:0:
109,192,53027,1,0,0:0:0:0:
182,192,53165,1,0,0:0:0:0:
402,192,53165,1,0,0:0:0:0:
256,192,53302,1,0,0:0:0:0:
402,192,53302,1,0,0:0:0:0:
36,192,53440,1,0,0:0:0:0:
475,192,53440,1,0,0:0:0:0:
402,192,53440,1,4,0:0:0:0:
109,192,53578,1,0,0:0:0:0:
182,192,53715,1,0,0:0:0:0:
329,192,53715,1,0,0:0:0:0:
256,192,53853,1,0,0:0:0:0:
329,192,53853,1,0,0:0:0:0:
402,192,53991,1,0,0:0:0:0:
329,192,53991,1,4,0:0:0:0:
36,192,53991,1,0,0:0:0:0:
109,192,54128,1,0,0:0:0:0:
402,192,54128,1,0,0:0:0:0:
182,192,54266,1,0,0:0:0:0:
475,192,54266,1,0,0:0:0:0:
256,192,54403,1,0,0:0:0:0:
475,192,54403,1,0,0:0:0:0:
329,192,54541,1,4,0:0:0:0:
402,192,54541,1,0,0:0:0:0:
36,192,54541,1,0,0:0:0:0:
109,192,54679,1,0,0:0:0:0:
329,192,54679,1,0,0:0:0:0:
402,192,54816,1,0,0:0:0:0:
182,192,54816,1,0,0:0:0:0:
256,192,54816,1,0,0:0:0:0:
475,192,54816,1,0,0:0:0:0:
402,192,54954,1,0,0:0:0:0:
36,192,54954,1,0,0:0:0:0:
109,192,54954,1,0,0:0:0:0:
329,192,54954,1,0,0:0:0:0:
329,192,55091,1,4,0:0:0:0:
475,192,55091,1,0,0:0:0:0:
109,192,55091,1,0,0:0:0:0:
182,192,55091,1,0,0:0:0:0:
475,192,55917,1,0,0:0:0:0:
475,192,56055,1,0,0:0:0:0:
475,192,56192,128,0,56605:0:0:0:0:
329,192,56605,128,0,57018:0:0:0:0:
36,192,57018,1,0,0:0:0:0:
182,192,57018,1,0,0:0:0:0:
402,192,57018,1,4,0:0:0:0:
109,192,57293,1,0,0:0:0:0:
109,192,57568,1,0,0:0:0:0:
36,192,57843,1,0,0:0:0:0:
182,192,57843,1,0,0:0:0:0:
109,192,58118,1,0,0:0:0:0:
402,192,58118,1,0,0:0:0:0:
256,192,58256,1,0,0:0:0:0:
109,192,58394,1,0,0:0:0:0:
329,192,58394,1,0,0:0:0:0:
475,192,58531,1,0,0:0:0:0:
402,192,58669,128,0,59495:0:0:0:0:
36,192,58669,1,0,0:0:0:0:
182,192,58669,1,0,0:0:0:0:
109,192,58944,1,0,0:0:0:0:
109,192,59219,1,0,0:0:0:0:
36,192,59495,1,0,0:0:0:0:
109,192,59632,1,0,0:0:0:0:
329,192,59770,1,0,0:0:0:0:
182,192,59770,1,0,0:0:0:0:
475,192,59770,1,0,0:0:0:0:
256,192,59907,1,0,0:0:0:0:
109,192,60045,1,0,0:0:0:0:
402,192,60045,1,0,0:0:0:0:
475,192,60183,1,0,0:0:0:0:
329,192,60320,128,0,61146:0:0:0:0:
36,192,60320,1,0,0:0:0:0:
109,192,60320,1,0,0:0:0:0:
182,192,60595,1,0,0:0:0:0:
182,192,60871,1,0,0:0:0:0:
36,192,61146,1,0,0:0:0:0:
109,192,61146,1,0,0:0:0:0:
182,192,61421,1,0,0:0:0:0:
329,192,61559,1,0,0:0:0:0:
182,192,61696,1,0,0:0:0:0:
402,192,61696,1,0,0:0:0:0:
475,192,61834,1,0,0:0:0:0:
36,192,61972,1,0,0:0:0:0:
256,192,61972,128,0,62247:0:0:0:0:
109,192,62247,1,0,0:0:0:0:
329,192,62247,128,0,62522:0:0:0:0:
402,192,62522,128,0,62797:0:0:0:0:
182,192,62522,1,0,0:0:0:0:
109,192,62797,1,0,0:0:0:0:
329,192,62797,128,0,63073:0:0:0:0:
36,192,63073,1,0,0:0:0:0:
402,192,63073,1,0,0:0:0:0:
256,192,63141,1,0,0:0:0:0:
182,192,63210,1,0,0:0:0:0:
402,192,63348,1,0,0:0:0:0:
109,192,63348,128,0,63623:0:0:0:0:
36,192,63623,128,0,64449:0:0:0:0:
329,192,63623,1,0,0:0:0:0:
402,192,63623,1,0,0:0:0:0:
475,192,63898,1,0,0:0:0:0:
475,192,64173,1,0,0:0:0:0:
329,192,64449,1,0,0:0:0:0:
402,192,64449,1,0,0:0:0:0:
475,192,64724,1,0,0:0:0:0:
182,192,64724,1,0,0:0:0:0:
36,192,64862,1,0,0:0:0:0:
475,192,64999,1,0,0:0:0:0:
109,192,64999,1,0,0:0:0:0:
256,192,65137,1,0,0:0:0:0:
182,192,65274,128,0,66100:0:0:0:0:
329,192,65274,1,0,0:0:0:0:
475,192,65274,1,0,0:0:0:0:
402,192,65550,1,0,0:0:0:0:
402,192,65825,1,0,0:0:0:0:
329,192,66100,1,0,0:0:0:0:
402,192,66100,1,0,0:0:0:0:
475,192,66375,1,0,0:0:0:0:
36,192,66375,1,0,0:0:0:0:
402,192,66444,1,0,0:0:0:0:
329,192,66513,1,0,0:0:0:0:
256,192,66582,1,0,0:0:0:0:
182,192,66651,1,0,0:0:0:0:
36,192,66651,1,0,0:0:0:0:
329,192,66926,128,0,67201:0:0:0:0:
109,192,66926,128,0,67201:0:0:0:0:
475,192,66926,1,0,0:0:0:0:
256,192,66926,1,0,0:0:0:0:
402,192,67201,1,0,0:0:0:0:
36,192,67201,1,0,0:0:0:0:
402,192,67476,1,0,0:0:0:0:
182,192,67476,1,0,0:0:0:0:
36,192,67751,1,0,0:0:0:0:
182,192,67751,1,0,0:0:0:0:
475,192,67751,1,0,0:0:0:0:
329,192,67889,1,0,0:0:0:0:
402,192,68027,1,0,0:0:0:0:
256,192,68027,1,0,0:0:0:0:
182,192,68164,1,0,0:0:0:0:
402,192,68302,1,0,0:0:0:0:
109,192,68302,1,0,0:0:0:0:
475,192,68577,1,0,0:0:0:0:
182,192,68577,128,0,68852:0:0:0:0:
329,192,68577,1,0,0:0:0:0:
36,192,68852,1,0,0:0:0:0:
402,192,68852,1,0,0:0:0:0:
402,192,68990,1,0,0:0:0:0:
36,192,69128,1,0,0:0:0:0:
402,192,69128,1,0,0:0:0:0:
182,192,69403,128,0,69678:0:0:0:0:
329,192,69403,1,0,0:0:0:0:
475,192,69403,1,0,0:0:0:0:
36,192,69678,1,0,0:0:0:0:
402,192,69678,1,0,0:0:0:0:
402,192,69816,1,0,0:0:0:0:
36,192,69953,1,0,0:0:0:0:
402,192,69953,1,0,0:0:0:0:
182,192,70091,1,0,0:0:0:0:
109,192,70229,128,0,70504:0:0:0:0:
475,192,70229,1,0,0:0:0:0:
329,192,70229,1,4,0:0:0:0:
36,192,70504,1,0,0:0:0:0:
402,192,70504,1,0,0:0:0:0:
475,192,70641,1,0,0:0:0:0:
36,192,70779,1,0,0:0:0:0:
182,192,70779,1,0,0:0:0:0:
402,192,71054,1,0,0:0:0:0:
329,192,71192,1,0,0:0:0:0:
36,192,71329,1,0,0:0:0:0:
402,192,71329,1,0,0:0:0:0:
475,192,71467,1,0,0:0:0:0:
36,192,71605,1,0,0:0:0:0:
329,192,71605,128,0,71880:0:0:0:0:
182,192,71880,128,0,72155:0:0:0:0:
402,192,71880,1,0,0:0:0:0:
109,192,72155,1,0,0:0:0:0:
256,192,72155,1,0,0:0:0:0:
475,192,72292,1,0,0:0:0:0:
109,192,72430,1,0,0:0:0:0:
402,192,72430,1,0,0:0:0:0:
475,192,72706,1,0,0:0:0:0:
256,192,72843,1,0,0:0:0:0:
329,192,72980,1,0,0:0:0:0:
109,192,72981,1,0,0:0:0:0:
475,192,73118,1,0,0:0:0:0:
109,192,73256,1,0,0:0:0:0:
402,192,73256,1,0,0:0:0:0:
256,192,73394,1,0,0:0:0:0:
36,192,73531,128,0,73806:0:0:0:0:
402,192,73531,1,0,0:0:0:0:
109,192,73806,1,0,0:0:0:0:
329,192,73806,1,0,0:0:0:0:
475,192,73943,1,0,0:0:0:0:
402,192,74081,1,0,0:0:0:0:
109,192,74082,1,0,0:0:0:0:
475,192,74357,1,0,0:0:0:0:
329,192,74495,1,0,0:0:0:0:
402,192,74632,1,0,0:0:0:0:
109,192,74632,1,0,0:0:0:0:
256,192,74770,1,0,0:0:0:0:
402,192,74907,1,0,0:0:0:0:
109,192,74907,1,0,0:0:0:0:
329,192,75045,1,0,0:0:0:0:
182,192,75183,128,0,75458:0:0:0:0:
402,192,75183,1,0,0:0:0:0:
329,192,75458,1,0,0:0:0:0:
36,192,75458,1,0,0:0:0:0:
475,192,75595,1,0,0:0:0:0:
256,192,75733,1,0,0:0:0:0:
36,192,75733,1,0,0:0:0:0:
329,192,76008,128,0,76284:0:0:0:0:
36,192,76284,1,0,0:0:0:0:
402,192,76284,128,0,76559:0:0:0:0:
36,192,76559,1,0,0:0:0:0:
475,192,76559,128,0,76834:0:0:0:0:
36,192,76834,128,0,77109:0:0:0:0:
256,192,76834,1,0,0:0:0:0:
402,192,77109,1,0,0:0:0:0:
109,192,77109,1,0,0:0:0:0:
475,192,77247,1,0,0:0:0:0:
329,192,77384,1,0,0:0:0:0:
109,192,77384,1,0,0:0:0:0:
256,192,77660,1,0,0:0:0:0:
402,192,77935,1,0,0:0:0:0:
109,192,77935,1,0,0:0:0:0:
475,192,78073,1,0,0:0:0:0:
329,192,78210,1,0,0:0:0:0:
109,192,78210,1,0,0:0:0:0:
182,192,78485,128,0,78761:0:0:0:0:
256,192,78485,1,0,0:0:0:0:
402,192,78761,1,0,0:0:0:0:
109,192,78761,1,0,0:0:0:0:
475,192,78898,1,0,0:0:0:0:
109,192,79036,1,0,0:0:0:0:
329,192,79036,1,0,0:0:0:0:
36,192,79311,128,0,79586:0:0:0:0:
475,192,79311,128,0,79586:0:0:0:0:
182,192,79586,128,0,79862:0:0:0:0:
329,192,79586,128,0,79862:0:0:0:0:
109,192,79862,128,0,80137:0:0:0:0:
402,192,79862,128,0,80137:0:0:0:0:
256,192,80137,1,4,0:0:0:0:
36,192,80137,1,0,0:0:0:0:
475,192,80137,1,0,0:0:0:0:
36,192,80412,1,0,0:0:0:0:
256,192,80412,1,4,0:0:0:0:
475,192,80412,1,0,0:0:0:0:
36,192,80687,1,0,0:0:0:0:
256,192,80687,1,4,0:0:0:0:
475,192,80687,1,0,0:0:0:0:
329,192,81237,1,0,0:0:0:0:
402,192,81237,1,0,0:0:0:0:
109,192,81513,1,0,0:0:0:0:
182,192,81513,1,0,0:0:0:0:
329,192,81650,1,0,0:0:0:0:
256,192,81650,1,0,0:0:0:0:
402,192,81925,1,0,0:0:0:0:
329,192,81994,1,0,0:0:0:0:
256,192,82063,1,0,0:0:0:0:
109,192,82201,1,0,0:0:0:0:
329,192,82338,1,0,0:0:0:0:
475,192,82338,1,0,0:0:0:0:
182,192,82614,1,0,0:0:0:0:
36,192,82614,1,0,0:0:0:0:
402,192,82751,1,0,0:0:0:0:
256,192,82751,1,0,0:0:0:0:
109,192,83026,1,0,0:0:0:0:
182,192,83095,1,0,0:0:0:0:
256,192,83164,1,0,0:0:0:0:
402,192,83302,1,0,0:0:0:0:
36,192,83439,1,0,0:0:0:0:
329,192,83439,1,0,0:0:0:0:
109,192,83577,1,0,0:0:0:0:
402,192,83577,1,0,0:0:0:0:
182,192,83714,1,0,0:0:0:0:
475,192,83714,1,0,0:0:0:0:
109,192,83852,1,0,0:0:0:0:
402,192,83852,1,0,0:0:0:0:
36,192,83990,1,0,0:0:0:0:
329,192,83990,1,0,0:0:0:0:
109,192,84127,1,0,0:0:0:0:
402,192,84127,1,0,0:0:0:0:
36,192,84265,1,0,0:0:0:0:
329,192,84265,1,0,0:0:0:0:
109,192,84403,1,0,0:0:0:0:
402,192,84403,1,0,0:0:0:0:
182,192,84540,1,0,0:0:0:0:
475,192,84540,1,0,0:0:0:0:
256,192,84540,1,4,0:0:0:0:
109,192,84678,1,0,0:0:0:0:
402,192,84678,1,0,0:0:0:0:
182,192,84815,1,0,0:0:0:0:
475,192,84815,1,0,0:0:0:0:
109,192,84953,1,0,0:0:0:0:
402,192,84953,1,0,0:0:0:0:
182,192,85091,1,0,0:0:0:0:
475,192,85091,1,0,0:0:0:0:
109,192,85228,1,0,0:0:0:0:
402,192,85228,1,0,0:0:0:0:
182,192,85366,1,0,0:0:0:0:
475,192,85366,1,0,0:0:0:0:
109,192,85503,1,0,0:0:0:0:
402,192,85503,1,0,0:0:0:0:
256,192,85641,1,0,0:0:0:0:
182,192,85641,1,0,0:0:0:0:
475,192,85641,1,0,0:0:0:0:
329,192,85779,1,0,0:0:0:0:
36,192,85779,1,0,0:0:0:0:
475,192,85916,1,0,0:0:0:0:
182,192,85916,1,0,0:0:0:0:
329,192,86054,1,0,0:0:0:0:
36,192,86054,1,0,0:0:0:0:
475,192,86192,1,0,0:0:0:0:
182,192,86192,1,0,0:0:0:0:
329,192,86329,1,0,0:0:0:0:
36,192,86329,1,0,0:0:0:0:
475,192,86467,1,0,0:0:0:0:
182,192,86467,1,0,0:0:0:0:
329,192,86604,1,0,0:0:0:0:
36,192,86604,1,0,0:0:0:0:
256,192,86742,1,0,0:0:0:0:
109,192,86742,1,0,0:0:0:0:
402,192,86742,1,0,0:0:0:0:
36,192,86880,1,0,0:0:0:0:
329,192,86880,1,0,0:0:0:0:
109,192,87017,1,0,0:0:0:0:
402,192,87017,1,0,0:0:0:0:
36,192,87155,1,0,0:0:0:0:
329,192,87155,1,0,0:0:0:0:
256,192,87292,1,0,0:0:0:0:
109,192,87292,1,0,0:0:0:0:
402,192,87292,1,0,0:0:0:0:
182,192,87430,1,0,0:0:0:0:
475,192,87430,1,0,0:0:0:0:
36,192,87568,1,0,0:0:0:0:
329,192,87568,1,0,0:0:0:0:
109,192,87705,1,0,0:0:0:0:
402,192,87705,1,0,0:0:0:0:
256,192,87843,1,0,0:0:0:0:
182,192,87843,1,0,0:0:0:0:
475,192,87843,1,0,0:0:0:0:
109,192,87981,1,0,0:0:0:0:
402,192,87981,1,0,0:0:0:0:
256,192,88118,1,0,0:0:0:0:
36,192,88118,1,0,0:0:0:0:
329,192,88118,1,0,0:0:0:0:
109,192,88256,1,0,0:0:0:0:
402,192,88256,1,0,0:0:0:0:
256,192,88393,1,0,0:0:0:0:
36,192,88393,1,0,0:0:0:0:
329,192,88393,1,0,0:0:0:0:
182,192,88531,1,0,0:0:0:0:
109,192,88600,1,0,0:0:0:0:
36,192,88669,1,0,0:0:0:0:
329,192,88806,1,0,0:0:0:0:
402,192,88875,1,0,0:0:0:0:
475,192,88944,1,0,0:0:0:0:
256,192,88944,1,4,0:0:0:0:
109,192,88944,1,0,0:0:0:0:
329,192,89081,1,0,0:0:0:0:
182,192,89219,1,0,0:0:0:0:
36,192,89219,1,0,0:0:0:0:
109,192,89357,1,0,0:0:0:0:
402,192,89494,1,0,0:0:0:0:
475,192,89494,1,0,0:0:0:0:
256,192,89494,1,0,0:0:0:0:
182,192,89632,1,0,0:0:0:0:
109,192,89770,1,0,0:0:0:0:
329,192,89770,1,0,0:0:0:0:
402,192,89907,1,0,0:0:0:0:
256,192,90045,1,0,0:0:0:0:
329,192,90045,1,0,0:0:0:0:
475,192,90045,1,0,0:0:0:0:
109,192,90182,1,0,0:0:0:0:
182,192,90320,1,0,0:0:0:0:
329,192,90320,1,0,0:0:0:0:
256,192,90458,1,0,0:0:0:0:
36,192,90595,1,0,0:0:0:0:
109,192,90595,1,0,0:0:0:0:
402,192,90595,1,0,0:0:0:0:
329,192,90733,1,0,0:0:0:0:
256,192,90870,1,0,0:0:0:0:
475,192,90870,1,0,0:0:0:0:
329,192,91008,1,0,0:0:0:0:
109,192,91146,1,0,0:0:0:0:
182,192,91146,1,0,0:0:0:0:
402,192,91146,1,0,0:0:0:0:
256,192,91283,1,0,0:0:0:0:
36,192,91421,1,0,0:0:0:0:
182,192,91421,1,0,0:0:0:0:
109,192,91559,1,0,0:0:0:0:
36,192,91696,1,0,0:0:0:0:
329,192,91696,1,0,0:0:0:0:
402,192,91696,1,0,0:0:0:0:
182,192,91834,1,0,0:0:0:0:
475,192,91834,1,0,0:0:0:0:
329,192,91971,1,0,0:0:0:0:
109,192,92109,1,0,0:0:0:0:
182,192,92247,1,0,0:0:0:0:
256,192,92247,1,0,0:0:0:0:
36,192,92247,1,0,0:0:0:0:
402,192,92384,1,0,0:0:0:0:
182,192,92522,1,0,0:0:0:0:
329,192,92522,1,0,0:0:0:0:
256,192,92659,1,0,0:0:0:0:
475,192,92797,1,0,0:0:0:0:
36,192,92797,1,0,0:0:0:0:
109,192,92797,1,0,0:0:0:0:
329,192,92935,1,0,0:0:0:0:
109,192,93072,1,0,0:0:0:0:
256,192,93072,1,0,0:0:0:0:
182,192,93210,1,0,0:0:0:0:
329,192,93348,1,0,0:0:0:0:
475,192,93348,1,0,0:0:0:0:
402,192,93348,1,0,0:0:0:0:
182,192,93485,1,0,0:0:0:0:
36,192,93623,1,0,0:0:0:0:
256,192,93623,1,0,0:0:0:0:
182,192,93760,1,0,0:0:0:0:
329,192,93898,1,0,0:0:0:0:
256,192,94036,1,0,0:0:0:0:
36,192,94036,1,0,0:0:0:0:
109,192,94173,1,0,0:0:0:0:
329,192,94173,1,0,0:0:0:0:
182,192,94311,1,0,0:0:0:0:
402,192,94311,1,0,0:0:0:0:
475,192,94448,1,0,0:0:0:0:
256,192,94448,1,0,0:0:0:0:
329,192,94586,1,0,0:0:0:0:
109,192,94586,1,0,0:0:0:0:
182,192,94861,1,0,0:0:0:0:
402,192,94861,1,0,0:0:0:0:
256,192,95136,128,0,95412:0:0:0:0:
475,192,95136,128,0,95412:0:0:0:0:
475,192,95549,1,0,0:0:0:0:
256,192,95549,1,0,0:0:0:0:
402,192,95641,1,0,0:0:0:0:
182,192,95641,1,0,0:0:0:0:
329,192,95733,1,0,0:0:0:0:
109,192,95733,1,0,0:0:0:0:
256,192,95825,1,0,0:0:0:0:
475,192,95825,1,0,0:0:0:0:
182,192,95916,1,0,0:0:0:0:
402,192,95916,1,0,0:0:0:0:
109,192,96008,1,0,0:0:0:0:
329,192,96008,1,0,0:0:0:0:
475,192,96100,1,0,0:0:0:0:
256,192,96100,1,0,0:0:0:0:
182,192,96192,1,0,0:0:0:0:
402,192,96192,1,0,0:0:0:0:
109,192,96283,1,0,0:0:0:0:
329,192,96283,1,0,0:0:0:0:
475,192,96375,1,0,0:0:0:0:
256,192,96375,1,0,0:0:0:0:
182,192,96467,1,0,0:0:0:0:
402,192,96467,1,0,0:0:0:0:
109,192,96559,1,0,0:0:0:0:
329,192,96559,1,0,0:0:0:0:
402,192,96650,1,0,0:0:0:0:
182,192,96650,1,0,0:0:0:0:
329,192,96742,1,0,0:0:0:0:
109,192,96742,1,0,0:0:0:0:
256,192,96834,1,0,0:0:0:0:
36,192,96834,1,0,0:0:0:0:
182,192,96925,1,0,0:0:0:0:
402,192,96925,1,0,0:0:0:0:
109,192,97017,1,0,0:0:0:0:
329,192,97017,1,0,0:0:0:0:
36,192,97109,1,0,0:0:0:0:
256,192,97109,1,0,0:0:0:0:
182,192,97201,1,0,0:0:0:0:
402,192,97201,1,0,0:0:0:0:
109,192,97292,1,0,0:0:0:0:
329,192,97292,1,0,0:0:0:0:
36,192,97384,1,0,0:0:0:0:
256,192,97384,1,0,0:0:0:0:
182,192,97476,1,0,0:0:0:0:
402,192,97476,1,0,0:0:0:0:
109,192,97568,1,0,0:0:0:0:
329,192,97568,1,0,0:0:0:0:
36,192,97659,1,0,0:0:0:0:
256,192,97659,1,0,0:0:0:0:
182,192,97751,1,4,0:0:0:0:
475,192,97751,1,0,0:0:0:0:
109,192,97751,1,4,0:0:0:0:
329,192,97889,1,0,0:0:0:0:
182,192,98027,1,0,0:0:0:0:
36,192,98027,1,0,0:0:0:0:
109,192,98165,1,0,0:0:0:0:
402,192,98302,1,0,0:0:0:0:
475,192,98302,1,0,0:0:0:0:
256,192,98302,1,0,0:0:0:0:
182,192,98440,1,0,0:0:0:0:
109,192,98578,1,0,0:0:0:0:
329,192,98578,1,0,0:0:0:0:
402,192,98715,1,0,0:0:0:0:
256,192,98852,1,0,0:0:0:0:
329,192,98852,1,0,0:0:0:0:
475,192,98852,1,0,0:0:0:0:
109,192,98989,1,0,0:0:0:0:
182,192,99127,1,0,0:0:0:0:
329,192,99127,1,0,0:0:0:0:
256,192,99265,1,0,0:0:0:0:
36,192,99402,1,0,0:0:0:0:
109,192,99402,1,0,0:0:0:0:
402,192,99402,1,0,0:0:0:0:
329,192,99540,1,0,0:0:0:0:
256,192,99677,1,0,0:0:0:0:
475,192,99677,1,0,0:0:0:0:
329,192,99815,1,0,0:0:0:0:
109,192,99953,1,0,0:0:0:0:
182,192,99953,1,0,0:0:0:0:
402,192,99953,1,0,0:0:0:0:
256,192,100090,1,0,0:0:0:0:
36,192,100228,1,0,0:0:0:0:
182,192,100228,1,0,0:0:0:0:
109,192,100366,1,0,0:0:0:0:
36,192,100503,1,0,0:0:0:0:
329,192,100503,1,0,0:0:0:0:
402,192,100503,1,0,0:0:0:0:
182,192,100641,1,0,0:0:0:0:
475,192,100641,1,0,0:0:0:0:
329,192,100778,1,0,0:0:0:0:
109,192,100917,1,0,0:0:0:0:
182,192,101055,1,0,0:0:0:0:
256,192,101055,1,0,0:0:0:0:
36,192,101055,1,0,0:0:0:0:
402,192,101192,1,0,0:0:0:0:
182,192,101330,1,0,0:0:0:0:
329,192,101330,1,0,0:0:0:0:
256,192,101467,1,0,0:0:0:0:
475,192,101605,1,0,0:0:0:0:
36,192,101605,1,0,0:0:0:0:
109,192,101605,1,0,0:0:0:0:
329,192,101743,1,0,0:0:0:0:
109,192,101880,1,0,0:0:0:0:
256,192,101880,1,0,0:0:0:0:
182,192,102018,1,0,0:0:0:0:
329,192,102156,1,0,0:0:0:0:
475,192,102156,1,0,0:0:0:0:
402,192,102156,1,4,0:0:0:0:
182,192,102293,1,0,0:0:0:0:
36,192,102431,1,0,0:0:0:0:
256,192,102431,1,0,0:0:0:0:
182,192,102568,1,0,0:0:0:0:
475,192,102705,1,0,0:0:0:0:
402,192,102705,1,4,0:0:0:0:
329,192,102706,1,0,0:0:0:0:
256,192,102844,1,0,0:0:0:0:
36,192,102844,1,0,0:0:0:0:
109,192,102981,1,0,0:0:0:0:
329,192,102981,1,0,0:0:0:0:
402,192,103118,1,0,0:0:0:0:
182,192,103119,1,0,0:0:0:0:
475,192,103256,1,0,0:0:0:0:
256,192,103256,1,4,0:0:0:0:
329,192,103393,1,0,0:0:0:0:
109,192,103394,1,0,0:0:0:0:
182,192,103669,1,0,0:0:0:0:
402,192,103669,1,0,0:0:0:0:
256,192,103944,128,0,104219:0:0:0:0:
475,192,103944,128,0,104219:0:0:0:0:
475,192,104357,1,0,0:0:0:0:
256,192,104357,1,0,0:0:0:0:
402,192,104449,1,0,0:0:0:0:
182,192,104449,1,0,0:0:0:0:
329,192,104541,1,0,0:0:0:0:
109,192,104541,1,0,0:0:0:0:
256,192,104633,1,0,0:0:0:0:
475,192,104633,1,0,0:0:0:0:
182,192,104724,1,0,0:0:0:0:
402,192,104724,1,0,0:0:0:0:
109,192,104816,1,0,0:0:0:0:
329,192,104816,1,0,0:0:0:0:
256,192,104907,1,0,0:0:0:0:
475,192,104908,1,0,0:0:0:0:
182,192,105000,1,0,0:0:0:0:
402,192,105000,1,0,0:0:0:0:
109,192,105091,1,0,0:0:0:0:
329,192,105091,1,0,0:0:0:0:
475,192,105183,1,0,0:0:0:0:
256,192,105183,1,0,0:0:0:0:
182,192,105275,1,0,0:0:0:0:
402,192,105275,1,0,0:0:0:0:
109,192,105367,1,0,0:0:0:0:
329,192,105367,1,0,0:0:0:0:
475,192,105458,1,4,0:0:0:0:
256,192,105458,1,4,0:0:0:0:
402,192,105549,1,0,0:0:0:0:
182,192,105641,1,0,0:0:0:0:
109,192,105733,1,0,0:0:0:0:
329,192,105733,1,0,0:0:0:0:
256,192,105825,1,0,0:0:0:0:
182,192,105916,1,0,0:0:0:0:
36,192,106008,1,0,0:0:0:0:
109,192,106054,1,0,0:0:0:0:
182,192,106100,1,0,0:0:0:0:
256,192,106146,1,0,0:0:0:0:
329,192,106192,1,0,0:0:0:0:
402,192,106237,1,0,0:0:0:0:
475,192,106283,1,0,0:0:0:0:
36,192,106283,1,0,0:0:0:0:
109,192,106329,1,0,0:0:0:0:
182,192,106375,1,0,0:0:0:0:
256,192,106421,1,0,0:0:0:0:
329,192,106467,1,0,0:0:0:0:
402,192,106513,1,0,0:0:0:0:
475,192,106559,1,0,0:0:0:0:
36,192,106559,1,0,0:0:0:0:
182,192,106559,1,4,0:0:0:0:
256,192,106696,1,0,0:0:0:0:
182,192,106834,1,0,0:0:0:0:
329,192,106834,1,0,0:0:0:0:
402,192,106971,1,0,0:0:0:0:
329,192,107109,1,0,0:0:0:0:
475,192,107109,1,0,0:0:0:0:
256,192,107247,1,0,0:0:0:0:
182,192,107384,1,0,0:0:0:0:
329,192,107384,1,0,0:0:0:0:
109,192,107522,1,0,0:0:0:0:
36,192,107659,1,0,0:0:0:0:
182,192,107659,1,0,0:0:0:0:
256,192,107797,1,0,0:0:0:0:
182,192,107935,1,0,0:0:0:0:
329,192,107935,1,0,0:0:0:0:
402,192,108072,1,0,0:0:0:0:
329,192,108210,1,0,0:0:0:0:
475,192,108210,1,0,0:0:0:0:
256,192,108348,1,0,0:0:0:0:
182,192,108485,1,0,0:0:0:0:
329,192,108485,1,0,0:0:0:0:
109,192,108623,1,0,0:0:0:0:
36,192,108760,1,0,0:0:0:0:
182,192,108760,1,0,0:0:0:0:
256,192,108852,1,0,0:0:0:0:
475,192,108852,1,0,0:0:0:0:
182,192,108944,1,0,0:0:0:0:
402,192,108944,1,0,0:0:0:0:
109,192,109036,1,0,0:0:0:0:
329,192,109036,1,0,0:0:0:0:
36,192,109127,1,0,0:0:0:0:
256,192,109127,1,0,0:0:0:0:
182,192,109219,1,0,0:0:0:0:
402,192,109219,1,0,0:0:0:0:
109,192,109311,1,0,0:0:0:0:
329,192,109311,1,0,0:0:0:0:
256,192,109403,1,0,0:0:0:0:
475,192,109403,1,0,0:0:0:0:
182,192,109494,1,0,0:0:0:0:
402,192,109494,1,0,0:0:0:0:
329,192,109586,1,0,0:0:0:0:
475,192,109586,1,0,0:0:0:0:
36,192,109860,1,0,0:0:0:0:
182,192,109860,1,0,0:0:0:0:
256,192,109952,1,0,0:0:0:0:
475,192,109952,1,0,0:0:0:0:
182,192,110044,1,0,0:0:0:0:
402,192,110044,1,0,0:0:0:0:
109,192,110136,1,0,0:0:0:0:
329,192,110136,1,0,0:0:0:0:
256,192,110227,1,0,0:0:0:0:
36,192,110227,1,0,0:0:0:0:
402,192,110319,1,0,0:0:0:0:
182,192,110319,1,0,0:0:0:0:
329,192,110411,1,0,0:0:0:0:
109,192,110411,1,0,0:0:0:0:
475,192,110503,1,0,0:0:0:0:
256,192,110503,1,0,0:0:0:0:
402,192,110594,1,0,0:0:0:0:
182,192,110594,1,0,0:0:0:0:
329,192,110686,1,0,0:0:0:0:
475,192,110686,1,0,0:0:0:0:
256,192,110962,1,0,0:0:0:0:
475,192,110962,1,0,0:0:0:0:
329,192,111100,1,0,0:0:0:0:
109,192,111100,1,0,0:0:0:0:
402,192,111237,1,0,0:0:0:0:
182,192,111237,1,0,0:0:0:0:
329,192,111375,1,0,0:0:0:0:
109,192,111375,1,0,0:0:0:0:
475,192,111513,1,0,0:0:0:0:
256,192,111513,1,0,0:0:0:0:
329,192,111650,1,0,0:0:0:0:
109,192,111650,1,0,0:0:0:0:
402,192,111788,1,0,0:0:0:0:
182,192,111788,1,0,0:0:0:0:
329,192,111925,1,0,0:0:0:0:
109,192,111925,1,0,0:0:0:0:
182,192,112063,1,0,0:0:0:0:
402,192,112063,1,0,0:0:0:0:
36,192,112201,1,0,0:0:0:0:
256,192,112201,1,0,0:0:0:0:
182,192,112338,1,0,0:0:0:0:
402,192,112338,1,0,0:0:0:0:
109,192,112476,1,0,0:0:0:0:
329,192,112476,1,0,0:0:0:0:
182,192,112614,1,0,0:0:0:0:
402,192,112614,1,0,0:0:0:0:
36,192,112751,1,0,0:0:0:0:
256,192,112751,1,0,0:0:0:0:
182,192,112889,1,0,0:0:0:0:
402,192,112889,1,0,0:0:0:0:
109,192,113026,1,0,0:0:0:0:
329,192,113026,1,0,0:0:0:0:
402,192,113164,1,0,0:0:0:0:
182,192,113164,1,0,0:0:0:0:
329,192,113256,1,0,0:0:0:0:
109,192,113256,1,0,0:0:0:0:
256,192,113348,1,0,0:0:0:0:
36,192,113348,1,0,0:0:0:0:
402,192,113439,1,0,0:0:0:0:
182,192,113439,1,0,0:0:0:0:
109,192,113531,1,0,0:0:0:0:
329,192,113531,1,0,0:0:0:0:
36,192,113623,1,0,0:0:0:0:
256,192,113623,1,0,0:0:0:0:
402,192,113714,1,0,0:0:0:0:
182,192,113714,1,0,0:0:0:0:
329,192,113806,1,0,0:0:0:0:
109,192,113806,1,0,0:0:0:0:
36,192,113898,1,0,0:0:0:0:
256,192,113898,1,0,0:0:0:0:
182,192,113990,1,0,0:0:0:0:
402,192,113990,1,0,0:0:0:0:
329,192,114081,1,0,0:0:0:0:
109,192,114081,1,0,0:0:0:0:
36,192,114173,1,0,0:0:0:0:
256,192,114173,1,0,0:0:0:0:
109,192,114265,1,0,0:0:0:0:
329,192,114265,1,0,0:0:0:0:
182,192,114357,1,0,0:0:0:0:
402,192,114357,1,0,0:0:0:0:
256,192,114448,1,0,0:0:0:0:
475,192,114448,1,0,0:0:0:0:
36,192,114540,1,0,0:0:0:0:
182,192,114540,1,0,0:0:0:0:
329,192,114632,1,0,0:0:0:0:
109,192,114632,1,0,0:0:0:0:
402,192,114724,1,0,0:0:0:0:
182,192,114724,1,0,0:0:0:0:
475,192,114815,1,0,0:0:0:0:
256,192,114815,1,0,0:0:0:0:
182,192,114907,1,0,0:0:0:0:
329,192,114907,1,0,0:0:0:0:
402,192,114999,1,0,0:0:0:0:
256,192,114999,1,0,0:0:0:0:
109,192,115091,1,0,0:0:0:0:
182,192,115091,1,0,0:0:0:0:
329,192,115182,1,0,0:0:0:0:
256,192,115182,1,0,0:0:0:0:
36,192,115274,1,0,0:0:0:0:
109,192,115274,1,0,0:0:0:0:
256,192,115366,1,0,0:0:0:0:
475,192,115366,1,0,0:0:0:0:
182,192,115503,1,0,0:0:0:0:
402,192,115503,1,4,0:0:0:0:
329,192,115503,1,4,0:0:0:0:
182,192,115641,1,0,0:0:0:0:
402,192,115641,1,4,0:0:0:0:
329,192,115641,1,4,0:0:0:0:
109,192,115916,1,4,0:0:0:0:
182,192,115916,1,4,0:0:0:0:
329,192,115916,1,0,0:0:0:0:
109,192,116054,1,4,0:0:0:0:
182,192,116054,1,4,0:0:0:0:
329,192,116054,1,0,0:0:0:0:
329,192,116329,1,4,0:0:0:0:
402,192,116329,1,0,0:0:0:0:
182,192,116329,1,4,0:0:0:0:
329,192,116467,1,4,0:0:0:0:
402,192,116467,1,0,0:0:0:0:
182,192,116467,1,4,0:0:0:0:
329,192,116604,1,4,0:0:0:0:
182,192,116604,1,4,0:0:0:0:
402,192,116604,1,0,0:0:0:0:
329,192,116742,1,4,0:0:0:0:
182,192,116742,1,4,0:0:0:0:
402,192,116742,1,0,0:0:0:0:
36,192,117017,1,0,0:0:0:0:
256,192,117017,1,4,0:0:0:0:
182,192,117017,1,4,0:0:0:0:
182,192,117155,1,4,0:0:0:0:
256,192,117155,1,4,0:0:0:0:
36,192,117155,1,0,0:0:0:0:
36,192,117430,1,0,0:0:0:0:
256,192,117430,1,4,0:0:0:0:
182,192,117430,1,4,0:0:0:0:
402,192,117705,1,0,0:0:0:0:
182,192,117705,1,4,0:0:0:0:
329,192,117705,1,4,0:0:0:0:
329,192,117843,1,4,0:0:0:0:
402,192,117843,1,0,0:0:0:0:
182,192,117843,1,4,0:0:0:0:
109,192,118118,1,4,0:0:0:0:
329,192,118118,1,0,0:0:0:0:
182,192,118118,1,4,0:0:0:0:
182,192,118256,1,4,0:0:0:0:
329,192,118256,1,0,0:0:0:0:
109,192,118256,1,4,0:0:0:0:
109,192,118531,5,4,0:0:0:0:
329,192,118531,1,0,0:0:0:0:
182,192,118531,1,4,0:0:0:0:
329,192,118669,5,0,0:0:0:0:
182,192,118669,1,4,0:0:0:0:
109,192,118669,1,4,0:0:0:0:
329,192,118806,1,4,0:0:0:0:
475,192,118806,1,4,0:0:0:0:
256,192,118806,1,0,0:0:0:0:
256,192,118944,1,0,0:0:0:0:
475,192,118944,1,4,0:0:0:0:
329,192,118944,1,4,0:0:0:0:
475,192,119219,1,0,0:0:0:0:
329,192,119219,1,4,0:0:0:0:
256,192,119219,1,4,0:0:0:0:
329,192,119357,1,4,0:0:0:0:
256,192,119357,1,4,0:0:0:0:
475,192,119357,1,0,0:0:0:0:
109,192,119632,1,0,0:0:0:0:
329,192,119632,1,4,0:0:0:0:
402,192,119632,1,4,0:0:0:0:
36,192,119770,5,0,0:0:0:0:
256,192,119770,1,0,0:0:0:0:
182,192,119770,1,0,0:0:0:0:
109,192,119861,1,0,0:0:0:0:
329,192,119861,1,0,0:0:0:0:
182,192,119953,1,0,0:0:0:0:
402,192,119953,1,0,0:0:0:0:
256,192,120045,1,0,0:0:0:0:
36,192,120045,1,0,0:0:0:0:
329,192,120136,1,0,0:0:0:0:
109,192,120136,1,0,0:0:0:0:
402,192,120228,1,0,0:0:0:0:
182,192,120228,1,0,0:0:0:0:
256,192,120320,1,0,0:0:0:0:
36,192,120320,1,0,0:0:0:0:
329,192,120412,1,0,0:0:0:0:
109,192,120412,1,0,0:0:0:0:
402,192,120503,1,0,0:0:0:0:
182,192,120503,1,0,0:0:0:0:
256,192,120595,1,0,0:0:0:0:
36,192,120595,1,0,0:0:0:0:
329,192,120687,1,0,0:0:0:0:
109,192,120687,1,0,0:0:0:0:
402,192,120779,1,0,0:0:0:0:
182,192,120779,1,0,0:0:0:0:
109,192,120870,1,0,0:0:0:0:
329,192,120870,1,0,0:0:0:0:
182,192,120962,1,0,0:0:0:0:
402,192,120962,1,0,0:0:0:0:
256,192,121054,1,0,0:0:0:0:
475,192,121054,1,0,0:0:0:0:
329,192,121146,1,0,0:0:0:0:
109,192,121146,1,0,0:0:0:0:
402,192,121237,1,0,0:0:0:0:
182,192,121237,1,0,0:0:0:0:
475,192,121329,1,0,0:0:0:0:
256,192,121329,1,0,0:0:0:0:
329,192,121421,1,0,0:0:0:0:
109,192,121421,1,0,0:0:0:0:
402,192,121513,1,0,0:0:0:0:
182,192,121513,1,0,0:0:0:0:
475,192,121604,1,0,0:0:0:0:
256,192,121604,1,0,0:0:0:0:
329,192,121696,1,0,0:0:0:0:
109,192,121696,1,0,0:0:0:0:
402,192,121788,1,0,0:0:0:0:
182,192,121788,1,0,0:0:0:0:
475,192,121880,1,0,0:0:0:0:
256,192,121880,1,0,0:0:0:0:
36,192,121971,1,0,0:0:0:0:
182,192,121971,1,0,0:0:0:0:
109,192,122063,1,0,0:0:0:0:
256,192,122063,1,0,0:0:0:0:
182,192,122155,1,0,0:0:0:0:
329,192,122155,1,0,0:0:0:0:
109,192,122247,1,0,0:0:0:0:
256,192,122247,1,0,0:0:0:0:
182,192,122338,1,0,0:0:0:0:
329,192,122338,1,0,0:0:0:0:
256,192,122430,1,0,0:0:0:0:
402,192,122430,1,0,0:0:0:0:
182,192,122522,1,0,0:0:0:0:
329,192,122522,1,0,0:0:0:0:
256,192,122614,1,0,0:0:0:0:
402,192,122614,1,0,0:0:0:0:
329,192,122705,1,0,0:0:0:0:
475,192,122705,1,0,0:0:0:0:
256,192,122797,1,0,0:0:0:0:
109,192,122797,1,0,0:0:0:0:
329,192,122889,1,0,0:0:0:0:
182,192,122889,1,0,0:0:0:0:
256,192,122981,1,0,0:0:0:0:
402,192,122981,1,0,0:0:0:0:
182,192,123072,1,0,0:0:0:0:
36,192,123072,1,0,0:0:0:0:
109,192,123164,1,0,0:0:0:0:
256,192,123164,1,0,0:0:0:0:
182,192,123256,1,0,0:0:0:0:
329,192,123256,1,0,0:0:0:0:
109,192,123348,1,0,0:0:0:0:
256,192,123348,1,0,0:0:0:0:
182,192,123439,1,0,0:0:0:0:
329,192,123439,1,0,0:0:0:0:
402,192,123531,1,0,0:0:0:0:
256,192,123531,1,0,0:0:0:0:
329,192,123623,1,0,0:0:0:0:
182,192,123623,1,0,0:0:0:0:
256,192,123714,1,0,0:0:0:0:
402,192,123714,1,0,0:0:0:0:
475,192,123806,1,0,0:0:0:0:
329,192,123806,1,0,0:0:0:0:
402,192,123898,1,0,0:0:0:0:
256,192,123898,1,0,0:0:0:0:
182,192,123990,1,0,0:0:0:0:
329,192,123990,1,0,0:0:0:0:
402,192,124081,1,0,0:0:0:0:
109,192,124081,1,0,0:0:0:0:
36,192,124173,1,4,0:0:0:0:
256,192,124173,1,0,0:0:0:0:
475,192,124173,1,4,0:0:0:0:
256,192,124586,1,0,0:0:0:0:
256,192,124724,1,0,0:0:0:0:
36,192,124724,1,4,0:0:0:0:
475,192,124724,1,4,0:0:0:0:
256,192,125136,1,0,0:0:0:0:
256,192,125274,1,0,0:0:0:0:
475,192,125274,1,4,0:0:0:0:
36,192,125274,1,4,0:0:0:0:
256,192,125549,1,0,0:0:0:0:
36,192,125549,1,4,0:0:0:0:
182,192,125549,1,0,0:0:0:0:
329,192,125549,1,0,0:0:0:0:
475,192,125549,1,4,0:0:0:0:
