osu file format v10

[General]
AudioFilename: Azis - Sen trope.mp3
AudioLeadIn: 0
PreviewTime: 49937
Countdown: 0
SampleSet: Normal
StackLeniency: 0.7
Mode: 0
LetterboxInBreaks: 0

[Editor]
DistanceSpacing: 0.8
BeatDivisor: 8
GridSize: 4

[Metadata]
Title:Sen Trope
TitleUnicode:Sen Trope
Artist:Azis
ArtistUnicode:Azis
Creator:Stefan
Version:Normal
Source:
Tags:bulgarian crystalloid thenutritiousguy
BeatmapID:187996
BeatmapSetID:55129

[Difficulty]
HPDrainRate:3
CircleSize:4
OverallDifficulty:3
ApproachRate:4
SliderMultiplier:2
SliderTickRate:4

[Events]
//Background and Video events
0,0,"O711-1024x768.jpg"
Video,173,"azis - sen trope.avi"
//Break Periods
2,73784,83558
2,141549,151323
//Storyboard Layer 0 (Background)
//Storyboard Layer 1 (Fail)
//Storyboard Layer 2 (Pass)
//Storyboard Layer 3 (Foreground)
//Storyboard Sound Samples
//Background Colour Transformations
3,100,0,0,0

[TimingPoints]
173,705.882352941176,4,1,1,70,1,0
12437,-100,4,1,2,70,0,0
12614,-100,4,1,1,70,0,0
17378,-100,4,1,2,70,0,0
17555,-100,4,1,1,70,0,0
18790,-100,4,1,2,70,0,0
18967,-100,4,1,1,70,0,0
19496,-100,4,1,1,50,0,0
19672,-100,4,1,1,70,0,0
20202,-100,4,1,2,70,0,0
20378,-100,4,1,1,70,0,0
21614,-100,4,1,2,70,0,0
21790,-100,4,1,1,70,0,0
22320,-100,4,1,1,50,0,0
22496,-100,4,1,1,70,0,0
23025,-100,4,1,2,70,0,0
23202,-100,4,1,1,70,0,0
24437,-100,4,1,2,70,0,0
24614,-100,4,1,1,70,0,0
28408,-100,4,1,1,70,0,0
29025,-100,4,1,2,70,0,0
29202,-100,4,1,1,70,0,0
32555,-100,4,2,0,70,0,0
32731,-100,4,1,1,70,0,0
41731,-100,4,1,1,50,0,0
41908,-100,4,1,1,70,0,0
43849,-100,4,2,1,80,0,0
44025,-100,4,1,1,70,0,0
46320,-100,4,1,1,50,0,0
46496,-100,4,1,1,70,0,0
47731,-100,4,1,1,50,0,0
47908,-100,4,1,1,70,0,0
48878,-100,4,2,0,70,0,0
50996,-100,4,1,1,70,0,1
59908,-100,4,1,1,50,0,1
60084,-100,4,1,1,70,0,1
72349,-100,4,1,1,60,0,1
72525,-100,4,1,1,50,0,1
72702,-100,4,1,1,40,0,1
72878,-100,4,1,1,30,0,1
73055,-100,4,1,1,20,0,1
73231,-100,4,1,1,10,0,1
73408,-100,4,1,1,5,0,1
73584,-100,4,1,1,70,0,0
85143,-100,4,1,2,70,0,0
85320,-100,4,1,1,70,0,0
87967,-100,4,1,2,70,0,0
88143,-100,4,1,1,70,0,0
90084,-100,4,1,1,50,0,0
90261,-100,4,1,1,70,0,0
90790,-100,4,1,2,70,0,0
90967,-100,4,1,1,70,0,0
92202,-100,4,1,2,70,0,0
92378,-100,4,1,1,70,0,0
93614,-100,4,1,2,70,0,0
93790,-100,4,1,1,70,0,0
94320,-100,4,1,1,50,0,0
94496,-100,4,1,1,70,0,0
95467,-100,4,2,0,80,0,0
96172,-100,4,1,1,60,0,0
97231,-100,4,1,1,50,0,0
97584,-100,4,1,1,60,0,0
98555,-100,4,1,1,50,0,0
98731,-100,4,1,1,60,0,0
100408,-100,4,2,0,80,0,0
100761,-100,4,1,1,60,0,0
108084,-100,4,1,2,60,0,0
108261,-100,4,1,1,60,0,0
111702,-100,4,2,0,80,0,0
112055,-100,4,1,1,70,0,0
114084,-100,4,1,1,50,0,0
114261,-100,4,1,1,70,0,0
115496,-100,4,1,1,50,0,0
115672,-100,4,1,1,70,0,0
116643,-100,4,2,0,70,0,0
116731,-100,4,1,1,80,0,0
117349,-100,4,2,0,70,0,0
118761,-100,4,1,1,70,0,1
124672,-100,4,1,1,50,0,1
124849,-100,4,1,1,70,0,1
126084,-100,4,1,1,50,0,1
126261,-100,4,1,1,70,0,1
129614,-100,4,1,2,70,0,1
129790,-100,4,1,1,70,0,1
131025,-100,4,1,1,50,0,1
131202,-100,4,1,1,70,0,1
133849,-100,4,1,1,50,0,1
134025,-100,4,1,1,70,0,1
136672,-100,4,1,2,70,0,1
136849,-100,4,1,1,70,0,1
140114,-100,4,1,1,60,0,1
140290,-100,4,1,1,50,0,1
140467,-100,4,1,1,40,0,1
140643,-100,4,1,1,30,0,1
140820,-100,4,1,1,20,0,1
140996,-100,4,1,1,10,0,1
141172,-100,4,1,1,5,0,1
141349,-100,4,1,1,70,0,0
153614,-100,4,1,2,70,0,0
153790,-100,4,1,1,70,0,0
157849,-100,4,1,2,70,0,0
158025,-100,4,1,1,70,0,0
160672,-100,4,1,2,70,0,0
160849,-100,4,1,1,70,0,0
177790,-100,4,1,1,70,0,0
180878,-100,4,1,1,50,0,0
183702,-100,4,1,1,70,0,0
186525,-100,4,1,1,70,0,1
187849,-100,4,1,2,70,0,1
188025,-100,4,1,1,70,0,1
207878,-100,4,1,1,60,0,1
208055,-100,4,1,1,50,0,1
208231,-100,4,1,1,40,0,1
208408,-100,4,1,1,30,0,1
208584,-100,4,1,1,20,0,1
208761,-100,4,1,1,10,0,1
208937,-100,4,1,1,5,0,1
209114,-100,4,1,1,50,0,0

[Colours]
Combo1 : 140,6,117
Combo2 : 247,172,111
Combo3 : 0,128,192
Combo4 : 211,211,211

[HitObjects]
48,224,5820,2,0,B|128:248|128:248|184:216|240:236,1,200,4|0,0:0|0:0,0:0:0
316,256,6878,1,8,0:0:0
352,328,7231,2,0,B|412:292|392:224|392:224|412:148,1,200
348,100,8290,1,0,0:0:0
268,104,8643,6,0,B|100:104|268:272|68:272,1,300,0|8,0:0|0:0,0:0:0
76,352,10055,2,0,B|129:352|176:340|224:312|244:264,1,200
200,200,11114,1,0,0:0:0
164,128,11467,6,0,B|192:104|224:92|256:88|288:92|320:104|348:128,2,200
256,260,13584,1,0,0:0:0
260,100,14290,6,0,B|166:38|166:142|72:80,1,200
68,240,15702,2,0,B|162:302|162:198|256:260,1,200
308,108,17114,6,0,B|392:52|392:52|484:88,1,200,4|0,0:0|0:0,0:0:0
464,164,18172,1,8,0:0:0
492,240,18525,2,0,B|408:296|408:296|316:260,1,200,0|0,0:0|0:0,0:0:0
212,140,19937,6,0,B|234:86|198:30|130:18|95:61,1,200
146,110,20996,1,8,0:0:0
72,136,21349,2,0,B|78:221|202:181|210:274,1,200
288,288,22408,1,2,0:0:0
288,288,22761,6,0,B|333:310|389:310|440:271|463:225,1,200
460,152,23820,1,8,0:0:0
460,152,24172,2,0,B|440:112|389:73|333:73|287:95,1,200
220,136,25231,1,8,0:0:0
256,192,25584,12,0,27702,0:0:0
44,64,28408,6,0,B|180:176|-54:213|92:320,1,300,4|0,0:0|0:0,0:0:0
168,300,29820,1,8,0:0:0
328,324,30525,1,8,0:0:0
368,256,30878,1,0,0:0:0
448,256,31231,6,0,B|483:209|483:209|485:124|406:104,1,200,4|8,0:0|0:0,0:0:0
332,80,32290,1,0,0:0:0
256,108,32643,1,8,0:0:0
144,224,33349,2,0,B|105:191|53:188,1,100,0|8,0:0|0:0,0:0:0
28,264,34055,6,0,B|76:264|112:300|148:336|212:336,1,200,4|0,0:0|0:0,0:0:0
256,268,35114,1,8,0:0:0
300,336,35467,2,0,B|364:336|400:300|436:264|484:264,1,200,4|0,0:0|0:0,0:0:0
428,116,36878,2,0,B|268:-68|228:244|81:51,1,400,4|0,0:0|0:0,0:0:0
60,216,38996,5,0,0:0:0
140,228,39349,1,8,0:0:0
200,280,39702,2,0,B|236:327|285:327|330:343|381:311,1,200,4|8,0:0|0:0,0:0:0
452,272,40761,1,0,0:0:0
488,200,41114,1,8,0:0:0
376,84,41820,1,8,0:0:0
296,96,42172,1,0,0:0:0
232,144,42525,6,0,B|224:244|224:244|232:352,1,200,4|8,0:0|0:0,0:0:0
308,372,43584,1,0,0:0:0
384,352,43937,1,8,0:0:0
412,196,44643,1,0,0:0:0
344,152,44996,1,8,0:0:0
268,120,45349,6,0,B|245:67|180:46|118:81|112:122,1,200,4|0,0:0|0:0,0:0:0
188,160,46408,1,8,0:0:0
112,198,46761,2,0,B|118:239|180:274|245:253|268:200,1,200,4|0,0:0|0:0,0:0:0
336,160,47820,1,8,0:0:0
404,204,48172,5,4,0:0:0
312,336,48878,1,4,0:0:0
152,356,49584,1,4,0:0:0
44,56,50996,6,0,B|44:128|68:192|132:240,1,200,4|0,0:0|0:0,0:0:0
180,288,52055,1,0,0:0:0
248,328,52408,1,8,0:0:0
180,184,53114,1,0,0:0:0
248,140,53467,1,0,0:0:0
276,216,53820,6,0,B|292:264|344:304|416:296|448:268,1,200
452,192,54878,1,0,0:0:0
404,128,55231,1,8,0:0:0
272,40,55937,1,0,0:0:0
192,32,56290,1,0,0:0:0
116,56,56643,6,0,B|32:88|68:208|164:176,1,200,4|0,0:0|0:0,0:0:0
216,224,57702,1,8,0:0:0
144,260,58055,2,0,B|65:216|8:324|81:368,1,200,4|0,0:0|0:0,0:0:0
160,344,59114,1,8,0:0:0
224,296,59467,6,0,B|304:304|360:240,2,150,4|0|0,0:0|0:0|0:0,0:0:0
144,280,60878,1,0,0:0:0
216,136,61584,2,0,B|267:110|316:120,1,100,0|8,0:0|0:0,0:0:0
388,152,62290,6,0,B|444:184|444:256|380:288|324:248,2,200,4|0|8,0:0|0:0|0:0,0:0:0
312,124,64055,1,0,0:0:0
232,108,64408,1,8,0:0:0
152,124,64761,1,0,0:0:0
76,152,65114,6,0,B|20:184|20:256|84:288|140:248,2,200,0|0|8,0:0|0:0|0:0,0:0:0
152,124,66878,1,0,0:0:0
232,140,67231,1,8,0:0:0
272,208,67584,1,0,0:0:0
308,280,67937,6,0,B|352:319|410:325|456:296|475:248,1,200,4|0,0:0|0:0,0:0:0
444,176,68996,1,8,0:0:0
476,104,69349,2,0,B|457:57|411:29|353:35|308:74,1,200,4|0,0:0|0:0,0:0:0
252,132,70408,1,8,0:0:0
256,192,70761,12,4,73584,0:0:0
52,124,84878,6,0,B|176:0|193:220|317:95,1,300,4|8,0:0|0:0,0:0:0
392,120,86290,1,0,0:0:0
404,200,86643,1,8,0:0:0
436,272,86996,1,0,0:0:0
280,300,87702,6,0,B|216:300|216:300|152:276|152:276|80:276,1,200
100,196,88761,1,8,0:0:0
132,124,89114,2,0,B|180:132|220:116|236:84|228:36,2,150,0|0|2,0:0|0:0|0:0,0:0:0
52,124,90525,6,0,B|-12:216|48:312,1,200
120,344,91584,1,8,0:0:0
200,328,91937,2,0,B|264:284|272:224|272:224|344:224,1,200
464,328,93349,6,0,B|392:328|392:328|408:256|340:224,1,200
344,144,94408,1,8,0:0:0
280,96,94761,1,0,0:0:0
200,92,95114,1,8,0:0:0
132,132,95467,2,0,B|88:104,2,50,0|0|8,0:0|0:0|0:1,0:0:0
100,208,96172,6,0,B|80:238|69:269|100:317|156:326|181:303|200:273,1,200,4|8,0:0|0:0,0:0:0
276,264,97231,1,0,0:0:0
236,196,97584,2,0,B|249:162|268:135|326:133|365:174|360:207|347:240,1,200,8|0,0:0|0:0,0:0:0
368,316,98643,1,0,0:0:0
428,264,98996,6,0,B|452:204|436:144|404:112|372:88,1,200,4|8,0:0|0:0,0:0:0
315,31,100055,2,0,B|257:14|215:47,1,100,0|8,0:0|0:0,0:0:0
144,76,100761,1,0,0:0:0
76,120,101114,1,0,0:0:0
52,196,101467,1,8,0:0:0
72,272,101820,6,0,B|72:312|72:312|116:352|116:352|160:312|160:312|160:264,1,200,4|0,0:0|0:0,0:0:0
216,212,102878,1,8,0:0:0
276,160,103231,2,0,B|276:120|276:120|320:80|320:80|364:120|364:120|364:168,1,200,4|0,0:0|0:0,0:0:0
432,208,104290,1,8,0:0:0
416,288,104643,6,0,B|256:472|216:160|69:353,1,400,4|0,0:0|0:0,0:0:0
72,188,106761,2,0,B|72:140,2,50,0|0|8,0:0|0:0|0:0,0:0:0
52,268,107467,6,0,B|173:385|197:169|319:310,1,300,4|0,0:0|0:0,0:0:0
380,356,108878,1,8,0:0:0
472,228,109584,1,8,0:0:0
468,148,109937,1,0,0:0:0
404,100,110290,6,0,B|398:26|296:-7|245:66,1,200,4|8,0:0|0:0,0:0:0
192,108,111349,2,0,B|132:123|128:175,1,100,0|8,0:0|0:0,0:0:0
152,252,112055,1,0,0:0:0
84,296,112408,1,0,0:0:0
4,296,112761,1,8,0:0:0
36,224,113114,6,0,B|12:160|52:112|124:104|156:144,1,200,4|0,0:0|0:0,0:0:0
232,140,114172,1,8,0:0:0
312,140,114525,2,0,B|338:98|410:106|450:154|426:218,1,200,4|0,0:0|0:0,0:0:0
376,280,115584,1,8,0:0:0
296,272,115937,6,0,B|228:296|184:244|184:244|120:284,2,200,4|4|4,0:0|0:0|0:0,0:0:0
456,292,118055,2,0,B|512:292,2,50,2|0|2,0:0|0:0|0:0,0:0:0
388,248,118761,5,4,0:0:0
380,88,119467,1,0,0:0:0
304,60,119820,1,0,0:0:0
228,88,120172,1,8,0:0:0
112,200,120878,1,0,0:0:0
164,260,121231,1,0,0:0:0
224,312,121584,6,0,B|280:336|328:304|352:248|312:200,1,200,0|0,0:0|0:0,0:0:0
288,124,122643,1,0,0:0:0
236,64,122996,1,8,0:0:0
80,96,123702,1,0,0:0:0
80,176,124055,1,0,0:0:0
136,232,124408,6,0,B|164:276|216:292,1,100,4|0,0:0|0:0,0:0:0
256,224,125114,2,0,B|256:176,2,50,0|0|8,0:0|0:0|0:0,0:0:0
298,291,125820,2,0,B|348:276|376:232,1,100,4|0,0:0|0:0,0:0:0
376,152,126525,2,0,B|348:108|298:92,1,100,0|8,0:0|0:0,0:0:0
220,72,127231,6,0,B|109:20|-8:88|-31:214|48:292,1,400,4|8,0:0|0:0,0:0:0
206,286,129349,2,0,B|293:277|307:195|307:195|347:155,1,200,0|4,0:0|0:0,0:0:0
324,80,130408,5,0,0:0:0
248,56,130761,1,0,0:0:0
188,108,131114,1,0,0:0:0
200,188,131467,2,0,B|108:256|108:140|16:208,2,200,8|8|0,0:0|0:0|0:0,0:0:0
248,252,133231,5,0,0:0:0
320,292,133584,1,0,0:0:0
376,236,133937,1,0,0:0:0
352,160,134290,2,0,B|333:105|278:86,1,100,8|0,0:0|0:0,0:0:0
208,80,134996,2,0,B|153:98|134:154,1,100,8|0,0:0|0:0,0:0:0
64,180,135702,6,0,B|-4:272|112:272|44:364,2,200,4|0|4,0:0|0:0|0:0,0:0:0
212,240,137820,1,0,0:0:0
272,188,138172,1,8,0:0:0
256,192,138525,12,4,141349,0:0:0
216,32,152643,5,4,0:0:0
216,32,152996,2,0,B|216:152|376:152|376:272,1,300
372,352,154408,1,0,0:0:0
292,364,154761,1,8,0:0:0
212,352,155114,1,8,0:0:0
200,272,155467,6,0,B|200:152|360:152|360:32,1,300,0|8,0:0|0:0,0:0:0
280,32,156878,1,0,0:0:0
208,64,157231,1,0,0:0:0
152,120,157584,2,0,B|90:124|63:176|68:234|124:261,1,200,8|0,0:0|0:0,0:0:0
176,324,158643,5,0,0:0:0
252,352,158996,1,0,0:0:0
332,364,159349,1,8,0:0:0
412,356,159702,2,0,B|452:308,3,50
468,284,160408,2,0,B|534:191|445:104,1,200,8|0,0:0|0:0,0:0:0
364,124,161467,5,0,0:0:0
292,156,161820,1,0,0:0:0
252,224,162172,1,8,0:0:0
184,268,162525,2,0,B|144:300|144:300|96:300,1,100
28,256,163231,2,0,B|68:224|68:224|116:224,1,100,8|0,0:0|0:0,0:0:0
136,148,163937,6,0,B|136:96,1,50,4|0,0:0|0:0,0:0:0
256,96,164643,2,0,B|304:96,1,50
304,216,165349,2,0,B|304:272,1,50
184,272,166055,1,0,0:0:0
184,272,166408,1,0,0:0:0
200,192,166761,6,0,B|224:144|280:120,1,100,0|8,0:0|0:0,0:0:0
352,124,167467,2,0,B|400:140|422:192,1,100,0|8,0:0|0:0,0:0:0
448,264,168172,2,0,B|464:328|424:368|352:384|312:328,1,200,0|8,0:0|0:0,0:0:0
248,308,169231,1,0,0:0:0
168,296,169584,6,0,B|120:296,1,50
118,175,170290,2,0,B|118:127,1,50
238,125,170996,2,0,B|294:125,1,50
408,125,171702,1,0,0:0:0
464,184,172055,1,0,0:0:0
464,264,172408,6,0,B|432:264|408:240|408:240|368:240,1,100,0|8,0:0|0:0,0:0:0
292,256,173114,1,0,0:0:0
216,284,173467,2,0,B|162:316|111:288|82:238|112:183,1,200,8|8,0:0|0:0,0:0:0
188,204,174525,2,0,B|224:164,2,50
268,224,175231,5,4,0:0:0
296,148,175584,1,0,0:0:0
236,96,175937,1,0,0:0:0
156,104,176290,1,8,0:0:0
96,156,176643,2,0,B|80:192|40:196|6:231|2:281|40:320,1,200,0|0,0:0|0:0,0:0:0
120,336,177702,1,0,0:0:0
200,352,178055,6,0,B|216:316|256:312|290:277|294:227|256:188,1,200,0|0,0:0|0:0,0:0:0
288,116,179114,1,8,0:0:0
228,60,179467,2,0,B|180:36|180:36|132:36,1,100
108,112,180172,2,0,B|64:144,2,50,0|0|8,0:0|0:0|0:0,0:0:0
176,152,180878,6,0,B|265:152|265:152|320:192|280:232|280:264,1,200
200,248,181937,1,8,0:0:0
120,248,182290,2,0,B|121:267|81:307|136:346|136:346|225:347,1,200
304,324,183349,1,8,0:0:0
256,192,183702,12,4,186525,0:0:0
124,152,187231,6,8,B|160:104|224:80|288:80|352:104|388:152,1,300,0|0,0:0|0:0,0:0:0
444,212,188643,1,0,0:0:0
396,276,188996,1,0,0:0:0
320,296,189349,6,0,B|224:216|104:360|24:264,1,300
8,200,190761,1,8,0:0:0
160,148,191467,1,0,0:0:0
232,108,191820,1,0,0:0:0
312,108,192172,6,0,B|350:58|412:64|453:100|446:162,1,200,4|0,0:0|0:0,0:0:0
456,240,193231,1,8,0:0:0
400,296,193584,2,0,B|361:345|300:340|258:303|265:241,1,200,4|0,0:0|0:0,0:0:0
276,164,194643,1,8,0:0:0
196,176,194996,6,0,B|116:200|156:296|36:312,2,200,4|0|8,0:0|0:0|0:0,0:0:0
268,144,196761,1,8,0:0:0
348,128,197114,2,0,B|328:80,2,50
392,196,197820,6,0,B|340:304|224:256,1,200,4|0,0:0|0:0,0:0:0
200,180,198878,1,0,0:0:0
168,108,199231,2,0,B|56:60|0:168,1,200,8|8,0:0|0:0,0:0:0
24,244,200290,1,0,0:0:0
104,240,200643,6,0,B|192:284|192:284|240:264|240:264|288:284|288:284|376:240,1,300
456,232,202055,1,8,0:0:0
472,152,202408,1,0,0:0:0
404,108,202761,1,8,0:0:0
348,168,203114,1,0,0:0:0
284,216,203467,6,0,B|192:168|140:80,1,200,4|0,0:0|0:0,0:0:0
64,104,204525,1,8,0:0:0
36,180,204878,2,0,B|128:228|180:316,1,200,4|0,0:0|0:0,0:0:0
256,292,205937,1,8,0:0:0
256,192,206290,12,4,209114,0:0:0
