osu file format v10

[General]
AudioFilename: Azis - Sen trope.mp3
AudioLeadIn: 0
PreviewTime: 49937
Countdown: 0
SampleSet: Normal
StackLeniency: 0.7
Mode: 0
LetterboxInBreaks: 0

[Editor]
DistanceSpacing: 0.9
BeatDivisor: 4
GridSize: 4

[Metadata]
Title:Sen Trope
TitleUnicode:Sen Trope
Artist:Azis
ArtistUnicode:Azis
Creator:Stefan
Version:Hard
Source:
Tags:bulgarian crystalloid thenutritiousguy
BeatmapID:167414
BeatmapSetID:55129

[Difficulty]
HPDrainRate:6
CircleSize:4
OverallDifficulty:6
ApproachRate:8
SliderMultiplier:3.2
SliderTickRate:4

[Events]
//Background and Video events
0,0,"O711-1024x768.jpg"
Video,173,"azis - sen trope.avi"
//Break Periods
2,73784,84128
2,141549,151893
//Storyboard Layer 0 (Background)
//Storyboard Layer 1 (Fail)
//Storyboard Layer 2 (Pass)
//Storyboard Layer 3 (Foreground)
//Storyboard Sound Samples
//Background Colour Transformations
3,100,0,0,0

[TimingPoints]
173,705.882352941176,4,1,1,70,1,0
12437,-100,4,1,2,70,0,0
12614,-100,4,1,1,70,0,0
17378,-100,4,1,2,70,0,0
17555,-100,4,1,1,70,0,0
18790,-100,4,1,2,70,0,0
18967,-100,4,1,1,70,0,0
19496,-100,4,1,1,50,0,0
19672,-100,4,1,1,70,0,0
20202,-100,4,1,2,70,0,0
20378,-100,4,1,1,70,0,0
22320,-100,4,1,1,50,0,0
22496,-100,4,1,1,70,0,0
23025,-100,4,1,2,70,0,0
23202,-100,4,1,1,70,0,0
24437,-100,4,1,2,70,0,0
24614,-100,4,1,1,70,0,0
28408,-100,4,1,1,70,0,0
32555,-100,4,2,0,70,0,0
32731,-100,4,1,1,70,0,0
41731,-100,4,1,0,50,0,0
41908,-100,4,1,1,70,0,0
43849,-100,4,2,0,80,0,0
44025,-100,4,1,1,70,0,0
46320,-100,4,1,0,50,0,0
46496,-100,4,1,1,70,0,0
48437,-100,4,1,2,70,0,0
48614,-100,4,1,1,70,0,0
48878,-100,4,2,0,70,0,0
50996,-100,4,1,1,70,0,1
59908,-100,4,1,1,50,0,1
60084,-100,4,1,1,70,0,1
72349,-100,4,1,1,60,0,1
72525,-100,4,1,1,50,0,1
72702,-100,4,1,1,40,0,1
72878,-100,4,1,1,30,0,1
73055,-100,4,1,1,20,0,1
73231,-100,4,1,1,10,0,1
73408,-100,4,1,1,5,0,1
73584,-100,4,1,1,70,0,0
85143,-100,4,1,2,70,0,0
85320,-100,4,1,1,70,0,0
85937,-100,4,1,2,70,0,0
86114,-100,4,1,1,70,0,0
87967,-100,4,1,2,70,0,0
88143,-100,4,1,1,70,0,0
90084,-100,4,1,1,50,0,0
90261,-100,4,1,1,70,0,0
90790,-100,4,1,2,70,0,0
90967,-100,4,1,1,70,0,0
92202,-100,4,1,2,70,0,0
92378,-100,4,1,1,70,0,0
92996,-100,4,1,2,70,0,0
93349,-100,4,1,1,70,0,0
93614,-100,4,1,2,70,0,0
93790,-100,4,1,1,70,0,0
94320,-100,4,1,1,50,0,0
94496,-100,4,1,1,70,0,0
95467,-100,4,2,0,80,0,0
96172,-100,4,1,1,60,0,0
97231,-100,4,1,1,50,0,0
97584,-100,4,1,1,60,0,0
98555,-100,4,1,1,50,0,0
98731,-100,4,1,1,60,0,0
100408,-100,4,2,0,80,0,0
100761,-100,4,1,1,60,0,0
111702,-100,4,2,0,80,0,0
112055,-100,4,1,1,70,0,0
116643,-100,4,2,0,80,0,0
118761,-100,4,1,1,70,0,1
124672,-100,4,1,1,50,0,1
124849,-100,4,1,1,70,0,1
126084,-100,4,1,1,50,0,1
126261,-100,4,1,1,70,0,1
131025,-100,4,1,1,50,0,1
131202,-100,4,1,1,70,0,1
133849,-100,4,1,1,50,0,1
134025,-100,4,1,1,70,0,1
136672,-100,4,1,2,70,0,1
136849,-100,4,1,1,70,0,1
140114,-100,4,1,1,60,0,1
140290,-100,4,1,1,50,0,1
140467,-100,4,1,1,40,0,1
140643,-100,4,1,1,30,0,1
140820,-100,4,1,1,20,0,1
140996,-100,4,1,1,10,0,1
141172,-100,4,1,1,5,0,1
141349,-100,4,1,1,70,0,0
177790,-100,4,1,1,70,0,0
180878,-100,4,1,1,50,0,0
183702,-100,4,1,1,70,0,0
186525,-83.3333333333333,4,1,1,70,0,1
187849,-83.3333333333333,4,1,2,70,0,1
188025,-83.3333333333333,4,1,1,70,0,1
207878,-83.3333333333333,4,1,1,60,0,1
208055,-83.3333333333333,4,1,1,50,0,1
208231,-83.3333333333333,4,1,1,40,0,1
208408,-83.3333333333333,4,1,1,30,0,1
208584,-83.3333333333333,4,1,1,20,0,1
208761,-83.3333333333333,4,1,1,10,0,1
208937,-83.3333333333333,4,1,1,5,0,1
209114,-83.3333333333333,4,1,1,50,0,0

[Colours]
Combo1 : 140,6,117
Combo2 : 247,172,111
Combo3 : 0,128,192
Combo4 : 211,211,211

[HitObjects]
244,40,5820,2,0,B|186:6|47:35|37:184|124:236,1,320,4|0,0:0|0:0,0:0:0
194,310,6878,1,8,0:0:0
252,336,7055,1,8,0:0:0
316,336,7231,2,0,B|353:373|392:393|455:377|494:338|510:277|490:238|451:199,1,320
304,112,8290,1,0,0:0:0
136,60,8643,6,0,B|-48:112|20:312,1,320
140,356,9702,1,8,0:0:0
204,364,9878,1,8,0:0:0
268,360,10055,2,0,B|231:189|410:263|341:70,1,320
432,208,11114,1,0,0:0:0
400,340,11467,6,0,B|370:167|229:289|220:101,1,320,0|0,0:0|0:0,0:0:0
96,72,12525,1,8,0:0:0
40,104,12702,1,8,0:0:0
16,164,12878,2,0,B|80:216|84:304|84:304|152:372|232:348,1,320
200,224,13937,1,0,0:0:0
228,348,14290,6,0,B|280:284|368:280|368:280|436:212|412:134,1,320
292,88,15349,1,8,0:0:0
228,84,15525,1,8,0:0:0
168,108,15702,2,0,B|156:232|337:192|337:356,1,320
484,260,16761,1,0,0:0:0
420,96,17114,6,0,B|344:112|268:64|268:64|192:12|116:48,1,320,4|0,0:0|0:0,0:0:0
32,144,18172,1,8,0:0:0
20,208,18349,1,8,0:0:0
40,268,18525,2,0,B|116:292|116:292|188:252,1,160,0|8,0:0|0:0,0:0:0
236,136,19231,2,0,B|306:172|306:172|329:251,1,160,0|8,0:0|0:0,0:0:0
452,280,19937,5,0,0:0:0
464,216,20114,1,0,0:0:0
452,152,20290,1,8,0:0:0
464,88,20467,1,0,0:0:0
404,60,20643,2,0,B|328:36|328:36|248:44,1,160,0|8,0:0|0:0,0:0:0
192,72,21172,1,8,0:0:0
140,112,21349,6,0,B|96:124|92:168,1,80,0|0,0:0|0:0,0:0:0
164,180,21702,2,0,B|160:224|116:236,1,80,8|0,0:0|0:0,0:0:0
44,224,22055,1,0,0:0:0
144,360,22408,1,2,0:0:0
268,324,22761,5,0,0:0:0
320,364,22938,1,0,0:0:0
384,372,23114,1,8,0:0:0
444,352,23291,1,0,0:0:0
488,304,23467,2,0,B|508:228|508:228|508:148,1,160,0|8,0:0|0:0,0:0:0
476,92,23996,1,8,0:0:0
420,64,24172,6,0,B|383:44|383:44|344:48,1,80
280,56,24525,1,8,0:0:0
220,80,24702,1,0,0:0:0
156,80,24878,2,0,B|80:136|112:224,1,160,0|8,0:0|0:0,0:0:0
256,192,25584,12,0,27702,0:0:0
116,328,28055,5,8,2:0:0
116,328,28408,2,0,B|208:206|304:422|401:280,1,320,4|8,0:0|0:0,2:0:0
440,164,29467,1,0,0:0:0
349,73,29820,1,8,0:0:0
224,40,30172,1,0,0:0:0
112,104,30525,1,8,0:0:0
128,168,30702,1,0,0:0:0
112,228,30878,1,0,0:0:0
128,292,31055,1,0,0:0:0
188,308,31231,6,0,B|244:308|264:328|264:328|284:308|340:308,1,160,4|0,0:0|0:0,0:0:0
460,348,31937,1,8,0:0:0
492,292,32114,1,0,0:0:0
492,228,32290,1,0,0:0:0
460,172,32467,1,0,0:0:0
408,136,32643,1,8,0:0:0
292,192,32996,1,0,0:0:0
192,108,33349,5,0,0:0:0
136,136,33525,1,0,0:0:0
96,188,33702,1,8,0:0:0
92,252,33878,1,0,0:0:0
124,308,34055,6,0,B|199:381|277:387|352:365|410:277,1,320,4|0,0:0|0:0,0:0:0
468,268,34937,2,0,B|452:228|408:220,1,80,0|8,0:0|0:0,0:0:0
396,96,35467,6,0,B|320:22|242:16|167:38|110:126,1,320,4|0,0:0|0:0,0:0:0
52,136,36349,2,0,B|68:176|112:184,1,80,0|8,0:0|0:0,0:0:0
108,312,36878,6,0,B|188:344|265:309|265:309|344:272|416:320,1,320,4|4,0:0|2:0,0:0:0
476,208,37937,1,0,0:0:0
396,108,38290,1,4,2:0:0
272,80,38643,1,0,0:0:0
144,88,38996,2,0,B|105:157,1,80
143,291,39349,2,0,B|105:222,1,80,8|0,0:0|0:0,0:0:0
164,192,39702,6,0,B|240:144|240:216|316:172,2,160,4|0|8,0:0|0:0|0:0,0:0:0
104,216,40584,1,0,0:0:0
48,184,40761,1,0,0:0:0
60,120,40937,1,0,0:0:0
108,76,41114,2,0,B|180:41|180:41|258:48,1,160,8|0,0:0|0:0,0:0:0
324,60,41643,1,0,0:0:0
384,80,41820,2,0,B|428:96|436:136,1,80,8|0,0:0|0:0,0:0:0
368,148,42172,2,0,B|376:188|420:204,1,80,0|0,0:0|0:0,0:0:0
465,249,42525,6,0,B|468:300|437:321|437:321|357:321,1,160,4|0,0:0|0:0,0:0:0
312,275,43055,1,0,0:0:0
266,320,43231,2,0,B|187:320|187:320|156:299|159:248,1,160,8|0,0:0|0:0,0:0:0
160,248,43761,1,0,0:0:0
124,192,43937,6,0,B|115:129|148:63|227:38|279:58,1,240,8|0,0:0|0:0,0:0:0
336,80,44643,2,0,B|382:78|405:112,1,80,0|0,0:0|0:0,0:0:0
346,149,44995,2,0,B|368:183|415:181,1,80,8|0,0:0|0:0,0:0:0
412,180,45349,6,0,B|415:264|351:323,1,160,4|0,0:0|0:0,0:0:0
292,344,45878,1,0,0:0:0
228,340,46055,2,0,B|143:343|84:279,1,160,0|8,0:0|0:0,0:0:0
64,220,46584,1,0,0:0:0
72,156,46761,6,0,B|84:72|159:26,1,160,4|8,0:0|0:0,0:0:0
220,20,47290,1,0,0:0:0
284,28,47467,2,0,B|367:40|413:115,1,160,0|8,0:0|0:0,0:0:0
440,172,47996,1,0,0:0:0
404,224,48172,6,0,B|280:212|348:332|192:288|192:288|116:316,1,320,4|4,0:0|0:0,0:0:0
72,196,49231,1,8,0:0:0
120,76,49584,1,4,0:0:0
336,296,50114,5,2,0:0:0
276,320,50291,2,0,B|237:336|196:320,1,80,2|0,0:0|0:0,0:0:0
140,296,50643,1,2,0:0:0
336,184,50996,6,0,B|252:140|280:48,2,160,4|0|0,0:0|0:0|0:0,0:0:0
448,124,52055,1,0,0:0:0
452,252,52408,1,8,0:0:0
332,296,52761,1,0,0:0:0
280,336,52937,1,0,0:0:0
220,352,53113,1,0,0:0:0
160,336,53290,1,0,0:0:0
112,296,53466,1,0,0:0:0
68,176,53820,6,0,B|108:104|188:52|272:64|352:96,1,320
476,96,54878,1,0,0:0:0
360,44,55231,1,8,0:0:0
232,44,55584,1,0,0:0:0
268,96,55761,1,0,0:0:0
316,140,55937,1,0,0:0:0
268,180,56114,1,0,0:0:0
228,232,56290,1,0,0:0:0
92,44,56643,6,0,B|36:124|24:192|36:260|92:340,1,320,4|0,0:0|0:0,0:0:0
256,272,57702,1,8,0:0:0
419,340,58055,2,0,B|476:260|488:192|476:124|420:44,1,320,4|0,0:0|0:0,0:0:0
256,112,59114,1,8,0:0:0
372,184,59467,6,0,B|292:248|216:136|136:224,2,240,4|0|0,0:0|0:0|0:0,0:0:0
480,256,60878,1,0,0:0:0
364,312,61231,1,0,0:0:0
300,304,61408,1,0,0:0:0
240,280,61584,1,0,0:0:0
192,240,61761,2,0,B|156:216|156:168,1,80,0|8,0:0|0:0,0:0:0
48,56,62290,6,0,B|80:16|152:-4|228:24|256:76|256:76|284:24|360:-4|432:16|464:56,1,480,4|0,0:0|0:0,0:0:0
380,152,63702,1,8,0:0:0
420,272,64055,1,0,0:0:0
372,316,64231,1,0,0:0:0
312,336,64408,2,0,B|269:354|235:331,1,80
176,308,64760,1,8,0:0:0
85,217,65114,6,0,B|25:145|121:133|53:69,2,160
204,172,66172,1,0,0:0:0
320,120,66525,1,8,0:0:0
448,124,66878,1,0,0:0:0
456,252,67231,1,8,0:0:0
408,296,67408,1,0,0:0:0
344,312,67584,2,0,B|271:366|195:311,1,160,0|4,0:0|0:0,0:0:0
96,232,68290,5,0,0:0:0
160,120,68643,1,0,0:0:0
216,86,68820,1,0,0:0:0
280,78,68996,1,8,0:0:0
404,116,69349,2,0,B|464:101|513:161|476:217,1,160,4|0,0:0|0:3,0:0:0
384,300,70055,1,0,0:0:0
327,333,70232,1,0,0:0:0
263,341,70408,1,8,0:0:0
256,192,70761,12,4,73584,0:0:0
40,136,84878,5,4,0:0:0
72,192,85055,1,0,0:0:0
120,232,85231,1,8,0:0:0
184,244,85408,1,0,0:0:0
244,224,85584,2,0,B|384:256|264:340|416:368,1,240,0|8,0:0|0:0,0:0:0
476,352,86290,5,0,0:0:0
488,288,86467,1,0,0:0:0
468,228,86643,1,8,0:0:0
428,180,86820,2,0,B|412:140|360:116,1,80
284,32,87349,1,8,0:0:0
224,52,87525,1,8,0:0:0
184,100,87702,6,0,B|193:137|224:168,1,80,0|0,0:0|0:0,0:0:0
256,224,88055,1,8,0:0:0
232,284,88231,1,0,0:0:0
192,336,88408,2,0,B|112:355|112:355|45:319,1,160,0|8,0:0|0:0,0:0:0
76,236,88937,1,8,0:0:0
68,148,89114,2,0,B|120:140|160:172|172:216|164:248,1,160,0|8,0:0|0:0,0:0:0
340,252,89820,2,0,B|288:260|248:228|236:184|244:152,1,160,0|2,0:0|0:0,0:0:0
400,72,90525,5,0,0:0:0
448,112,90702,1,0,0:0:0
480,168,90878,1,8,0:0:0
476,232,91055,1,0,0:0:0
460,292,91231,2,0,B|455:339|413:369|359:355|339:327,1,160,0|8,0:0|0:0,0:0:0
284,296,91761,1,8,0:0:0
232,332,91937,5,0,0:0:0
180,296,92114,1,0,0:0:0
124,264,92290,1,8,0:0:0
68,296,92467,1,0,0:0:0
12,264,92643,2,0,B|-47:185|-13:83|90:49|164:111,1,320
212,140,93525,5,0,0:0:0
252,188,93702,1,8,0:0:0
240,252,93878,1,0,0:0:0
260,312,94055,2,0,B|300:368|336:368|336:368|400:368,1,160,0|8,0:0|0:0,0:0:0
464,364,94584,1,8,0:0:0
504,316,94761,1,0,0:0:0
496,188,95114,1,8,0:0:0
464,64,95467,5,0,0:0:0
456,76,95643,1,0,0:0:0
448,88,95820,1,8,1:0:0
440,100,95996,1,0,0:0:0
432,116,96172,6,0,B|308:40|244:192|124:116,1,320,4|0,0:0|0:0,0:0:0
12,64,97231,1,0,0:0:0
12,232,97584,1,8,0:0:0
148,336,97937,1,0,0:0:0
280,232,98290,1,0,0:0:0
280,64,98643,1,0,0:0:0
408,64,98996,6,0,B|376:144|284:148,1,160,4|0,0:0|0:0,0:0:0
228,180,99525,1,0,0:0:0
164,200,99702,2,0,B|72:208|40:296,1,160,8|0,0:0|0:0,0:0:0
88,336,100231,1,0,0:0:0
152,344,100408,1,8,0:0:0
280,344,100761,1,0,0:0:0
400,300,101114,2,0,B|444:312|480:284,1,80
428,228,101467,2,0,B|384:216|348:244,1,80,8|0,0:0|0:0,0:0:0
288,244,101820,6,0,B|212:264|212:264|124:256,1,160,4|0,0:0|0:0,0:0:0
68,240,102349,1,0,0:0:0
24,196,102525,2,0,B|4:120|4:120|12:40,1,160,0|8,0:0|0:0,0:0:0
188,36,103231,6,0,B|264:16|264:16|352:24,1,160,4|0,0:0|0:0,0:0:0
404,52,103760,1,0,0:0:0
448,100,103936,2,0,B|468:176|468:176|460:256,1,160,0|8,0:0|0:0,0:0:0
332,292,104643,6,0,B|240:200|112:332|24:228,1,320,4|4,0:0|2:0,0:0:0
112,80,105702,1,0,1:0:0
288,56,106055,1,4,2:0:0
432,156,106408,1,0,0:0:0
340,304,106761,5,0,0:0:0
276,320,106937,1,0,0:0:0
212,332,107114,1,8,0:0:0
148,320,107290,1,0,0:0:0
84,304,107467,6,0,B|24:236|120:212|48:152,1,160,4|0,0:0|0:0,0:0:0
100,112,107996,1,0,0:0:0
152,76,108172,2,0,B|220:16|240:112|316:20,1,160
404,112,108878,1,8,0:0:0
400,280,109231,1,0,0:0:0
320,180,109584,5,0,0:0:0
260,200,109761,1,0,0:0:0
200,180,109937,1,8,0:0:0
140,200,110114,1,0,0:0:0
80,180,110290,2,0,B|8:216|8:216|8:296,1,160,4|0,0:0|0:0,0:0:0
60,336,110820,1,0,0:0:0
120,360,110996,2,0,B|192:324|192:324|192:244,1,160
200,180,111525,1,0,0:0:0
248,140,111702,1,8,0:0:0
372,176,112055,5,0,0:0:0
360,48,112408,1,0,0:0:0
296,44,112584,2,0,B|256:24|220:44,1,80,0|8,0:0|0:0,0:0:0
156,60,112937,2,0,B|116:80|80:60,1,80,0|4,0:0|0:0,0:0:0
28,100,113290,5,0,0:0:0
44,164,113467,1,0,0:0:0
24,224,113643,1,0,0:0:0
40,288,113820,2,0,B|56:328|92:348|92:348|172:348,1,160,0|8,0:0|0:0,0:0:0
236,340,114349,1,0,0:0:0
300,356,114525,6,0,B|348:372|384:348,1,80,4|0,0:0|0:0,0:0:0
436,324,114878,1,8,0:0:0
480,280,115054,1,0,0:0:0
500,220,115231,2,0,B|500:132|416:96,1,160,0|8,0:0|0:0,0:0:0
360,60,115761,1,0,0:0:0
296,48,115937,6,0,B|215:12|148:74,1,160,4|8,0:0|0:0,0:0:0
84,184,116643,2,0,B|164:219|231:157,1,160,4|8,0:0|0:0,0:0:0
240,284,117349,1,4,0:0:0
432,284,117878,5,2,0:0:0
460,228,118054,1,2,0:0:0
468,164,118231,1,0,0:0:0
436,108,118407,1,2,0:0:0
232,68,118761,6,0,B|156:104|156:36|76:76,1,160,4|0,0:0|0:0,0:0:0
24,108,119290,1,0,0:0:0
8,168,119467,2,0,B|-28:244|40:244|0:324,1,160
128,324,120172,1,8,0:0:0
256,324,120525,1,0,0:0:0
312,296,120702,2,0,B|344:268|360:228,1,80
380,172,121055,1,0,0:0:0
360,112,121231,1,0,0:0:0
256,40,121584,6,0,B|208:48|152:112|248:216|92:224,1,240
72,252,122290,1,0,0:0:0
72,316,122467,1,0,0:0:0
116,364,122643,1,0,0:0:0
180,368,122820,1,0,0:0:0
244,356,122996,2,0,B|320:320|400:352,1,160,8|0,0:0|0:0,0:0:0
460,328,123525,5,0,0:0:0
476,268,123702,2,0,B|483:225|450:196,1,80
412,144,124054,1,0,0:0:0
324,52,124408,5,4,0:0:0
260,48,124584,1,0,0:0:0
200,68,124761,1,0,0:0:0
144,96,124937,1,0,0:0:0
88,128,125114,2,0,B|96:188|43:218|43:218|24:268,1,160,0|8,0:0|0:0,0:0:0
56,324,125643,1,0,0:0:0
120,336,125820,6,0,B|160:352|200:336,1,80,4|0,0:0|0:0,0:0:0
278,335,126172,2,0,B|238:351|200:336,1,80,0|0,0:0|0:0,0:0:0
200,336,126525,2,0,B|200:256,1,80
200,256,126878,1,8,0:0:0
304,184,127231,6,0,B|284:136|204:104|124:136|104:184,2,240,4|0|0,0:0|0:0|0:0,0:0:0
480,184,128643,1,0,0:0:0
364,316,128996,1,0,0:0:0
336,260,129172,1,0,0:0:0
320,196,129349,1,0,0:0:0
336,136,129525,1,0,0:0:0
364,76,129702,2,0,B|332:48|280:44,1,80,8|0,0:0|0:0,0:0:0
228,48,130055,6,0,B|196:24|128:12|84:44|55:99|74:160|108:192|164:204,1,320,4|0,0:0|0:0,0:0:0
168,116,131114,1,0,0:0:0
168,292,131467,1,8,0:0:0
292,320,131820,1,0,0:0:0
352,340,131996,1,0,0:0:0
416,332,132172,1,8,0:0:0
472,300,132349,1,0,0:0:0
488,240,132525,1,0,0:0:0
428,128,132878,6,0,B|444:88|418:22|370:-5|308:-4|261:35|252:80|260:132,1,320
344,104,133937,1,0,0:0:0
168,108,134290,1,8,0:0:0
76,196,134643,2,0,B|28:208|32:260,1,80
32,254,134996,2,0,B|44:302|96:298,1,80,8|0,0:0|0:0,0:0:0
89,298,135349,2,0,B|137:286|133:234,1,80
178,194,135702,6,0,B|254:154|254:234|330:194,1,160,4|0,0:0|0:0,0:0:0
456,168,136408,1,0,0:0:0
460,104,136584,1,0,0:0:0
416,56,136761,1,8,0:0:0
352,44,136937,1,0,0:0:0
296,68,137114,6,0,B|220:108|220:28|144:68,1,160,4|0,0:0|0:0,0:0:0
52,156,137820,1,0,0:0:0
68,216,137996,1,0,0:0:0
120,256,138173,1,8,0:0:0
256,192,138525,12,4,141349,0:0:0
384,160,152643,5,4,0:0:0
300,256,152996,2,0,B|288:295|246:309,1,80
176,296,153349,2,0,B|187:256|229:242,1,80
184,196,153702,2,0,B|112:148|116:60,1,160,8|0,0:0|0:0,0:0:0
176,44,154231,1,0,0:0:0
240,60,154408,1,0,0:0:0
300,44,154584,1,0,0:0:0
364,60,154761,2,0,B|368:148|296:196,1,160,8|8,0:0|0:0,0:0:0
341,241,155290,1,0,0:0:0
295,286,155467,5,0,0:0:0
204,195,155820,1,0,0:0:0
140,204,155996,1,0,0:0:0
88,240,156172,1,0,0:0:0
84,304,156349,1,0,0:0:0
116,360,156525,1,8,0:0:0
292,356,156878,6,0,B|388:352|400:260,1,160
445,214,157408,1,0,0:0:0
399,168,157584,2,0,B|395:72|303:60,1,160,8|8,0:0|0:0,0:0:0
304,60,158114,1,0,0:0:0
112,68,158643,6,0,B|72:79|58:121,1,80
125,138,158996,2,0,B|111:180|72:192,1,80
71,256,159349,2,0,B|123:332|211:332,1,160,8|0,0:0|0:0,0:0:0
268,332,159878,1,0,0:0:0
324,304,160054,1,0,0:0:0
364,252,160231,1,0,0:0:0
384,192,160408,2,0,B|364:102|288:72,1,160,8|8,0:0|0:0,0:0:0
228,48,160937,1,0,0:0:0
168,72,161114,5,0,0:0:0
208,192,161467,2,0,B|200:279|120:316,1,160
112,216,161996,1,0,0:0:0
20,240,162172,2,0,B|27:152|107:115,1,160,8|8,0:0|0:0,0:0:0
160,80,162702,1,0,0:0:0
220,56,162878,1,0,0:0:0
284,64,163055,1,0,0:0:0
344,88,163231,1,8,0:0:0
468,64,163584,1,8,0:0:0
504,188,163937,6,0,B|488:228|448:244,1,80,4|0,0:0|0:0,0:0:0
396,276,164290,1,0,0:0:0
332,268,164467,1,0,0:0:0
276,300,164643,2,0,B|236:316|220:356,1,80
156,364,164996,1,0,0:0:0
104,328,165172,1,0,0:0:0
84,268,165349,6,0,B|59:232|68:190,1,80,4|0,0:0|0:0,0:0:0
88,132,165702,1,0,0:0:0
140,92,165879,1,0,0:0:0
200,76,166055,2,0,B|241:65|276:87,1,80
332,116,166408,1,0,0:0:0
364,172,166584,1,0,0:0:0
368,236,166761,6,0,B|324:308|232:300,1,160,0|8,0:0|0:0,0:0:0
106,175,167467,2,0,B|150:103|242:111,1,160,0|8,0:0|0:0,0:0:0
287,156,167996,1,0,0:0:0
309,178,168084,1,0,0:0:0
331,200,168172,1,0,0:0:0
364,256,168349,1,0,0:0:0
364,319,168525,2,0,B|328:343|284:323,1,80,8|0,0:0|0:0,0:0:0
223,324,168878,2,0,B|133:311|189:255|102:229,1,160,8|0,0:0|0:0,0:0:0
228,105,169584,6,0,B|200:72|156:80,1,80
172,144,169937,2,0,B|128:152|100:119,1,80
54,164,170290,2,0,B|25:198|39:238,1,80
98,213,170643,2,0,B|112:253|84:288,1,80
140,320,170996,5,0,0:0:0
204,332,171172,1,0,0:0:0
268,320,171349,1,0,0:0:0
332,332,171525,1,0,0:0:0
396,320,171702,2,0,B|476:276|464:188,1,160
428,136,172231,1,0,0:0:0
368,116,172408,6,0,B|324:43|232:51,1,160,0|8,0:0|0:0,0:0:0
105,176,173114,2,0,B|148:248|241:240,1,160,0|8,0:0|0:0,0:0:0
287,195,173643,1,0,0:0:0
309,173,173731,1,0,0:0:0
331,151,173819,1,0,0:0:0
376,105,173996,1,0,0:0:0
421,59,174172,2,0,B|463:74|474:114,1,80,8|0,0:0|0:0,0:0:0
428,159,174525,2,0,B|442:203|482:214,2,80,0|0|8,0:0|0:0|0:0,0:0:0
80,264,175231,5,4,0:0:0
112,320,175408,1,0,0:0:0
172,348,175584,1,0,0:0:0
236,356,175761,1,0,0:0:0
300,348,175937,2,0,B|398:329|423:252,1,160,0|8,0:0|0:0,0:0:0
380,180,176467,1,0,0:0:0
308,132,176643,6,0,B|276:104|232:112,1,80,0|0,0:0|0:0,0:0:0
88,132,176996,2,0,B|120:104|164:112,1,80
196,176,177349,2,0,B|187:217|216:251,1,80
215,250,177702,1,0,0:0:0
440,264,178055,6,0,B|428:224|436:184,1,80,0|0,0:0|0:0,0:0:0
436,184,178408,2,0,B|448:144|440:104,1,80,0|0,0:0|0:0,0:0:0
384,72,178761,2,0,B|360:48|308:36|256:48|236:72,1,160,0|8,0:0|0:0,0:0:0
208,128,179290,1,0,0:0:0
168,180,179467,2,0,B|144:204|92:216|40:204|20:180,1,160
4,120,179996,1,0,0:0:0
40,68,180172,1,0,0:0:0
100,44,180349,1,0,0:0:0
164,52,180525,1,0,0:0:0
84,152,180878,6,0,B|40:225|111:229|67:307,1,160
100,360,181408,1,0,0:0:0
164,356,181584,2,0,B|240:396|240:324|320:364,1,160,0|8,0:0|0:0,0:0:0
442,237,182290,6,0,B|485:163|414:159|458:81,1,160
426,29,182820,1,0,0:0:0
362,33,182996,2,0,B|286:-7|286:65|206:25,1,160,0|8,0:0|0:0,0:0:0
83,151,183702,6,0,B|121:228|49:228|89:304,1,160
144,340,184232,1,0,0:0:0
208,328,184408,1,0,0:0:0
372,260,184761,1,8,0:0:0
440,96,185114,1,0,0:0:0
272,40,185467,5,0,0:0:0
212,60,185643,1,0,0:0:0
156,92,185820,1,0,0:0:0
120,144,185996,1,0,0:0:0
108,208,186172,1,0,0:0:0
20,336,186525,6,0,B|60:368|112:352,1,96.0000022888184,4|0,0:0|0:0,0:0:0
188,348,186878,1,0,0:0:0
256,308,187055,1,0,0:0:0
332,324,187231,2,0,B|389:374|470:391|531:346|552:273|508:203|442:166,1,384.000009155274,0|8,0:0|0:0,0:0:0
372,128,188114,1,0,0:0:0
300,96,188290,2,0,B|256:72|256:72|212:72,1,95.9999970703126
48,96,188643,2,0,B|92:72|92:72|136:72,1,95.9999970703126
172,140,188996,1,0,0:0:0
32,208,189349,6,0,B|97:290|136:204|196:288,1,191.999994140625
256,332,189878,1,0,0:0:0
316,288,190055,2,0,B|376:204|415:290|480:208,1,191.999994140625
396,80,190761,1,8,0:0:0
244,112,191114,6,0,B|212:80|216:20,1,96.0000022888184
244,112,191467,2,0,B|212:144|152:140,1,96.0000022888184
244,112,191820,2,0,B|276:144|272:204,1,96.0000022888184
212,252,192172,2,0,B|120:304|120:216|20:276,1,192.000004577637,4|0,0:0|0:0,0:0:0
40,116,192878,5,0,0:0:0
112,84,193055,1,0,0:0:0
184,108,193231,1,8,0:0:0
337,108,193584,2,0,B|285:196|405:196|333:296,1,192.000004577637,4|0,0:0|0:0,0:0:0
185,286,194290,5,0,0:0:0
113,318,194467,1,0,0:0:0
41,294,194643,1,8,0:0:0
41,140,194996,2,0,B|69:81|136:23|224:18|285:41,2,287.999991210938,4|0|0,0:0|0:0|0:0,0:0:0
149,248,196408,5,8,0:0:0
203,193,196584,1,0,0:0:0
268,152,196761,1,0,0:0:0
340,120,196937,1,0,0:0:0
416,112,197114,1,8,0:0:0
488,140,197290,2,0,B|516:196|492:260,1,96.0000022888184
456,296,197643,1,0,0:0:0
424,316,197731,1,0,0:0:0
384,312,197820,6,0,B|344:292|332:324|288:312,1,95.9999970703126,4|0,0:0|0:0,0:0:0
212,308,198172,1,0,0:0:0
136,292,198349,1,0,0:0:0
88,232,198525,2,0,B|36:140|132:140|72:44,2,192.000004577637,0|0|8,0:0|0:0|0:0,0:0:0
156,192,199408,1,0,0:0:0
232,180,199584,1,0,0:0:0
308,192,199761,1,0,0:0:0
384,180,199937,2,0,B|435:170|476:195,1,95.9999970703126,8|0,0:0|0:0,0:0:0
488,92,200290,2,0,B|436:101|395:76,1,95.9999970703126,0|0,0:0|0:0,0:0:0
324,48,200643,6,0,B|280:24|232:16|184:24|140:48,1,192.000004577637
76,92,201172,1,0,0:0:0
28,152,201349,2,0,B|4:196|-4:244|4:292|28:336,1,192.000004577637
96,356,201878,1,0,0:0:0
172,348,202055,2,0,B|380:392|232:108|452:180,1,383.99998828125,8|8,0:0|0:0,0:0:0
488,112,202937,1,0,0:0:0
444,48,203114,1,0,0:0:0
368,32,203290,1,0,0:0:0
292,52,203467,6,0,B|212:52|212:140|128:140,1,192.000004577637,4|0,0:0|0:0,0:0:0
72,188,203996,1,0,0:0:0
72,264,204172,1,0,0:0:0
136,308,204349,1,0,0:0:0
212,300,204525,1,8,0:0:0
364,332,204878,6,0,B|342:252|423:231|402:150,1,192.000004577637,4|0,0:0|0:0,0:0:0
292,44,205584,1,0,0:0:0
228,88,205761,1,0,0:0:0
152,76,205937,1,8,0:0:0
256,192,206290,12,4,209114,0:0:0
