osu file format v10

[General]
AudioFilename: Azis - Sen trope.mp3
AudioLeadIn: 2000
PreviewTime: 49937
Countdown: 0
SampleSet: Normal
StackLeniency: 0.7
Mode: 1
LetterboxInBreaks: 0

[Editor]
DistanceSpacing: 0.7
BeatDivisor: 6
GridSize: 4

[Metadata]
Title:Sen Trope
TitleUnicode:Sen Trope
Artist:Azis
ArtistUnicode:Azis
Creator:Stefan
Version:Crystal's Taiko Oni
Source:
Tags:bulgarian crystalloid thenutritiousguy
BeatmapID:167412
BeatmapSetID:55129

[Difficulty]
HPDrainRate:5
CircleSize:5
OverallDifficulty:6
ApproachRate:5
SliderMultiplier:2.8
SliderTickRate:4

[Events]
//Background and Video events
0,0,"Taikobg.jpg"
//Break Periods
//Storyboard Layer 0 (Background)
//Storyboard Layer 1 (Fail)
//Storyboard Layer 2 (Pass)
//Storyboard Layer 3 (Foreground)
//Storyboard Sound Samples
//Background Colour Transformations
3,100,0,0,0

[TimingPoints]
173,705.882352941176,4,1,0,80,1,0
50996,-100,4,1,0,80,0,1
73584,-100,4,1,0,80,0,0
118761,-100,4,1,0,80,0,1
141349,-100,4,1,0,80,0,0
186525,-83.3333333333333,4,1,0,80,0,1
209114,-83.3333333333333,4,1,0,60,0,0

[Colours]
Combo1 : 0,128,192
Combo2 : 128,128,128

[HitObjects]
256,192,173,5,0,0:0:0
256,192,525,1,8,0:0:0
256,192,702,1,0,0:0:0
256,192,878,1,8,0:0:0
256,192,1055,1,0,0:0:0
256,192,1231,1,8,0:0:0
256,192,1408,1,0,0:0:0
256,192,1496,1,0,0:0:0
256,192,1584,1,8,0:0:0
256,192,1761,1,0,0:0:0
256,192,1937,1,8,0:0:0
256,192,2114,1,0,0:0:0
256,192,2202,1,0,0:0:0
256,192,2290,1,8,0:0:0
256,192,2467,1,0,0:0:0
256,192,2643,1,8,0:0:0
256,192,2820,1,0,0:0:0
256,192,2908,1,0,0:0:0
256,192,2996,1,8,0:0:0
256,192,3173,1,0,0:0:0
256,192,3349,1,8,0:0:0
256,192,3525,1,0,0:0:0
256,192,3614,1,0,0:0:0
256,192,3702,1,8,0:0:0
256,192,4055,1,8,0:0:0
256,192,4231,1,0,0:0:0
256,192,4320,1,0,0:0:0
256,192,4408,1,8,0:0:0
256,192,4584,1,0,0:0:0
256,192,4761,1,8,0:0:0
256,192,4937,1,0,0:0:0
256,192,5025,1,0,0:0:0
256,192,5114,1,8,0:0:0
256,192,5290,1,0,0:0:0
256,192,5467,1,8,0:0:0
256,192,5820,1,4,0:0:0
256,192,6172,1,0,0:0:0
256,192,6349,1,0,0:0:0
256,192,6437,1,0,0:0:0
256,192,6525,1,8,0:0:0
256,192,6878,1,0,0:0:0
256,192,7055,1,0,0:0:0
256,192,7143,1,0,0:0:0
256,192,7231,1,8,0:0:0
256,192,7761,1,0,0:0:0
256,192,7849,1,0,0:0:0
256,192,7937,1,8,0:0:0
256,192,8290,1,8,0:0:0
256,192,8467,1,0,0:0:0
256,192,8555,1,0,0:0:0
256,192,8643,1,8,0:0:0
256,192,9172,1,0,0:0:0
256,192,9261,1,0,0:0:0
256,192,9349,1,8,0:0:0
256,192,9702,1,8,0:0:0
256,192,9878,1,0,0:0:0
256,192,9967,1,0,0:0:0
256,192,10055,1,8,0:0:0
256,192,10408,1,8,0:0:0
256,192,10584,1,0,0:0:0
256,192,10761,1,8,0:0:0
256,192,11114,1,8,0:0:0
256,192,11290,1,0,0:0:0
256,192,11378,1,0,0:0:0
256,192,11467,1,8,0:0:0
256,192,11996,1,0,0:0:0
256,192,12084,1,0,0:0:0
256,192,12173,1,8,0:0:0
256,192,12525,1,8,0:0:0
256,192,12702,1,0,0:0:0
256,192,12790,1,0,0:0:0
256,192,12878,1,8,0:0:0
256,192,13408,1,0,0:0:0
256,192,13496,1,0,0:0:0
256,192,13584,1,8,0:0:0
256,192,13937,1,8,0:0:0
256,192,14114,1,0,0:0:0
256,192,14202,1,0,0:0:0
256,192,14290,1,8,0:0:0
256,192,14820,1,0,0:0:0
256,192,14908,1,0,0:0:0
256,192,14996,1,8,0:0:0
256,192,15349,1,8,0:0:0
256,192,15525,1,0,0:0:0
256,192,15614,1,0,0:0:0
256,192,15702,1,8,0:0:0
256,192,16231,1,0,0:0:0
256,192,16320,1,0,0:0:0
256,192,16408,1,8,0:0:0
256,192,16761,1,0,0:0:0
256,192,16937,1,8,0:0:0
256,192,17114,1,4,0:0:0
256,192,17290,1,0,0:0:0
256,192,17467,1,0,0:0:0
256,192,17643,1,8,0:0:0
256,192,17731,1,0,0:0:0
256,192,17820,1,8,0:0:0
256,192,17996,1,0,0:0:0
256,192,18173,1,0,0:0:0
256,192,18349,1,8,0:0:0
256,192,18437,1,8,0:0:0
256,192,18525,1,0,0:0:0
256,192,18702,1,0,0:0:0
256,192,18878,1,0,0:0:0
256,192,19055,1,8,0:0:0
256,192,19143,1,0,0:0:0
256,192,19231,1,8,0:0:0
256,192,19408,1,0,0:0:0
256,192,19584,1,0,0:0:0
256,192,19761,1,8,0:0:0
256,192,19849,1,8,0:0:0
256,192,19937,1,0,0:0:0
256,192,20114,1,0,0:0:0
256,192,20290,1,0,0:0:0
256,192,20467,1,8,0:0:0
256,192,20555,1,0,0:0:0
256,192,20643,1,8,0:0:0
256,192,20820,1,0,0:0:0
256,192,20996,1,0,0:0:0
256,192,21172,1,8,0:0:0
256,192,21261,1,0,0:0:0
256,192,21349,1,8,0:0:0
256,192,21437,1,0,0:0:0
256,192,21525,1,8,0:0:0
256,192,21702,1,0,0:0:0
256,192,21878,1,8,0:0:0
256,192,22055,1,0,0:0:0
256,192,22408,1,0,0:0:0
256,192,22584,1,8,0:0:0
256,192,22672,1,8,0:0:0
256,192,22761,1,0,0:0:0
256,192,22937,1,8,0:0:0
256,192,23114,1,0,0:0:0
256,192,23290,1,8,0:0:0
256,192,23467,1,0,0:0:0
256,192,23820,1,0,0:0:0
256,192,23996,1,8,0:0:0
256,192,24084,1,8,0:0:0
256,192,24172,1,0,0:0:0
256,192,24349,1,8,0:0:0
256,192,24525,1,0,0:0:0
256,192,24702,1,8,0:0:0
256,192,24878,1,0,0:0:0
256,192,25231,1,0,0:0:0
256,192,25408,1,8,0:0:0
256,192,25496,1,8,0:0:0
256,192,25584,1,0,0:0:0
256,192,25761,1,8,0:0:0
256,192,25937,1,0,0:0:0
256,192,26114,1,0,0:0:0
256,192,26290,1,8,0:0:0
256,192,26467,12,0,26996,0:0:0
256,192,27349,5,0,0:0:0
256,192,27525,1,0,0:0:0
256,192,27614,1,8,0:0:0
256,192,27702,1,0,0:0:0
256,192,27878,1,0,0:0:0
256,192,28055,1,8,0:0:0
256,192,28231,1,0,0:0:0
256,192,28408,1,0,0:0:0
256,192,28496,1,0,0:0:0
256,192,28584,1,8,0:0:0
256,192,28672,1,8,0:0:0
256,192,28761,1,8,0:0:0
256,192,28937,1,0,0:0:0
256,192,29114,1,8,0:0:0
256,192,29202,1,8,0:0:0
256,192,29290,1,8,0:0:0
256,192,29378,1,0,0:0:0
256,192,29467,1,0,0:0:0
256,192,29555,1,0,0:0:0
256,192,29643,1,8,0:0:0
256,192,29731,1,8,0:0:0
256,192,29820,1,8,0:0:0
256,192,29996,1,0,0:0:0
256,192,30172,1,8,0:0:0
256,192,30349,1,0,0:0:0
256,192,30437,1,0,0:0:0
256,192,30525,1,8,0:0:0
256,192,30702,1,0,0:0:0
256,192,30878,1,8,0:0:0
256,192,31055,1,0,0:0:0
256,192,31231,1,0,0:0:0
256,192,31320,1,0,0:0:0
256,192,31408,1,8,0:0:0
256,192,31496,1,8,0:0:0
256,192,31584,1,8,0:0:0
256,192,31761,1,0,0:0:0
256,192,31937,1,0,0:0:0
256,192,32025,1,0,0:0:0
256,192,32114,1,0,0:0:0
256,192,32202,1,8,0:0:0
256,192,32290,1,8,0:0:0
256,192,32378,1,8,0:0:0
256,192,32467,1,0,0:0:0
256,192,32643,1,8,0:0:0
256,192,33172,1,0,0:0:0
256,192,33261,1,0,0:0:0
256,192,33349,1,8,0:0:0
256,192,33525,1,0,0:0:0
256,192,33702,1,8,0:0:0
256,192,33878,1,0,0:0:0
256,192,34055,1,0,0:0:0
256,192,34143,1,0,0:0:0
256,192,34231,1,8,0:0:0
256,192,34320,1,8,0:0:0
256,192,34408,1,8,0:0:0
256,192,34584,1,0,0:0:0
256,192,34761,1,8,0:0:0
256,192,34849,1,8,0:0:0
256,192,34937,1,8,0:0:0
256,192,35025,1,0,0:0:0
256,192,35114,1,0,0:0:0
256,192,35202,1,0,0:0:0
256,192,35290,1,0,0:0:0
256,192,35467,1,8,0:0:0
256,192,35555,1,0,0:0:0
256,192,35643,1,8,0:0:0
256,192,35731,1,0,0:0:0
256,192,35820,1,8,0:0:0
256,192,35996,1,0,0:0:0
256,192,36172,1,0,0:0:0
256,192,36261,1,0,0:0:0
256,192,36349,1,8,0:0:0
256,192,36437,1,8,0:0:0
256,192,36525,1,0,0:0:0
256,192,36702,1,0,0:0:0
256,192,36878,1,8,0:0:0
256,192,36967,1,0,0:0:0
256,192,37055,1,8,0:0:0
256,192,37143,1,0,0:0:0
256,192,37231,1,8,0:0:0
256,192,37408,1,0,0:0:0
256,192,37584,1,8,0:0:0
256,192,37672,1,8,0:0:0
256,192,37761,1,8,0:0:0
256,192,37849,1,0,0:0:0
256,192,37937,1,0,0:0:0
256,192,38025,1,0,0:0:0
256,192,38114,1,0,0:0:0
256,192,38290,1,8,0:0:0
256,192,38643,1,0,0:0:0
256,192,38731,1,0,0:0:0
256,192,38820,1,8,0:0:0
256,192,38996,1,0,0:0:0
256,192,39172,1,8,0:0:0
256,192,39349,1,0,0:0:0
256,192,39525,1,8,0:0:0
256,192,39702,1,0,0:0:0
256,192,39790,1,0,0:0:0
256,192,39878,1,8,0:0:0
256,192,39967,1,8,0:0:0
256,192,40055,1,8,0:0:0
256,192,40231,1,0,0:0:0
256,192,40408,1,8,0:0:0
256,192,40496,1,8,0:0:0
256,192,40584,1,8,0:0:0
256,192,40672,1,0,0:0:0
256,192,40761,1,0,0:0:0
256,192,40849,1,0,0:0:0
256,192,40937,1,8,0:0:0
256,192,41114,1,0,0:0:0
256,192,41643,1,8,0:0:0
256,192,41731,1,8,0:0:0
256,192,41820,1,0,0:0:0
256,192,41996,1,0,0:0:0
256,192,42172,1,8,0:0:0
256,192,42349,1,0,0:0:0
256,192,42525,1,0,0:0:0
256,192,42614,1,8,0:0:0
256,192,42702,1,8,0:0:0
256,192,42790,1,0,0:0:0
256,192,42878,1,0,0:0:0
228,184,43055,1,0,0:0:0
228,184,43231,1,0,0:0:0
228,184,43320,1,0,0:0:0
228,184,43408,1,0,0:0:0
228,184,43496,1,8,0:0:0
228,184,43584,1,0,0:0:0
228,184,43672,1,0,0:0:0
228,184,43761,1,8,0:0:0
228,184,43937,1,0,0:0:0
228,184,44467,1,0,0:0:0
228,184,44555,1,0,0:0:0
228,184,44643,1,8,0:0:0
228,184,44820,1,0,0:0:0
228,184,44996,1,8,0:0:0
228,184,45172,1,0,0:0:0
256,192,45349,1,8,0:0:0
256,192,45437,1,8,0:0:0
256,192,45525,1,8,0:0:0
256,192,45614,1,0,0:0:0
256,192,45702,1,0,0:0:0
256,192,45878,1,0,0:0:0
256,192,46055,1,0,0:0:0
256,192,46143,1,0,0:0:0
256,192,46231,1,8,0:0:0
256,192,46320,1,0,0:0:0
256,192,46408,1,8,0:0:0
256,192,46761,1,8,0:0:0
256,192,46849,1,8,0:0:0
256,192,46937,1,8,0:0:0
256,192,47025,1,8,0:0:0
256,192,47114,1,8,0:0:0
256,192,47290,1,0,0:0:0
256,192,47467,1,0,0:0:0
256,192,47555,1,0,0:0:0
256,192,47643,1,0,0:0:0
256,192,47731,1,0,0:0:0
256,192,47820,1,0,0:0:0
256,192,48172,1,8,0:0:0
256,192,48261,1,0,0:0:0
256,192,48349,1,8,0:0:0
256,192,48437,1,0,0:0:0
256,192,48525,1,8,0:0:0
256,192,48702,1,0,0:0:0
256,192,48878,1,6,0:0:0
256,192,49055,1,0,0:0:0
256,192,49231,1,0,0:0:0
256,192,49408,1,0,0:0:0
256,192,49584,1,6,0:0:0
256,192,50114,1,0,0:0:0
256,192,50290,1,8,0:0:0
256,192,50378,1,0,0:0:0
256,192,50467,1,8,0:0:0
256,192,50643,1,0,0:0:0
256,192,50996,1,8,0:0:0
256,192,51084,1,8,0:0:0
256,192,51172,1,8,0:0:0
256,192,51261,1,0,0:0:0
256,192,51349,1,0,0:0:0
256,192,51437,1,0,0:0:0
256,192,51525,1,8,0:0:0
256,192,51614,1,8,0:0:0
256,192,51702,1,8,0:0:0
256,192,51790,1,0,0:0:0
256,192,51878,1,0,0:0:0
256,192,51967,1,8,0:0:0
256,192,52055,1,0,0:0:0
256,192,52143,1,0,0:0:0
256,192,52231,1,8,0:0:0
256,192,52408,1,0,0:0:0
256,192,52761,1,0,0:0:0
256,192,52937,1,8,0:0:0
256,192,53025,1,0,0:0:0
256,192,53114,1,8,0:0:0
256,192,53290,1,0,0:0:0
256,192,53467,1,0,0:0:0
256,192,53643,1,0,0:0:0
256,192,53820,1,0,0:0:0
256,192,53908,1,0,0:0:0
256,192,53996,1,0,0:0:0
256,192,54084,1,8,0:0:0
256,192,54172,1,8,0:0:0
256,192,54261,1,8,0:0:0
256,192,54349,1,0,0:0:0
256,192,54437,1,0,0:0:0
256,192,54525,1,0,0:0:0
256,192,54614,1,8,0:0:0
256,192,54702,1,8,0:0:0
256,192,54790,1,0,0:0:0
256,192,54878,1,8,0:0:0
256,192,54967,1,8,0:0:0
256,192,55055,1,0,0:0:0
256,192,55231,1,0,0:0:0
256,192,55584,1,0,0:0:0
256,192,55761,1,8,0:0:0
256,192,55849,1,0,0:0:0
256,192,55937,1,8,0:0:0
256,192,56114,1,0,0:0:0
256,192,56290,1,8,0:0:0
256,192,56467,1,0,0:0:0
256,192,56643,1,8,0:0:0
256,192,56731,1,0,0:0:0
256,192,56820,1,8,0:0:0
256,192,56908,1,0,0:0:0
256,192,56996,1,8,0:0:0
256,192,57172,1,0,0:0:0
256,192,57349,1,8,0:0:0
256,192,57437,1,0,0:0:0
256,192,57525,1,8,0:0:0
256,192,57702,1,0,0:0:0
256,192,57878,1,0,0:0:0
256,192,58055,1,8,0:0:0
256,192,58143,1,0,0:0:0
256,192,58231,1,8,0:0:0
256,192,58320,1,0,0:0:0
256,192,58408,1,8,0:0:0
256,192,58584,1,0,0:0:0
256,192,58761,1,8,0:0:0
256,192,58849,1,0,0:0:0
256,192,58937,1,8,0:0:0
256,192,59114,1,0,0:0:0
256,192,59290,1,0,0:0:0
256,192,59467,1,8,0:0:0
256,192,59555,1,8,0:0:0
256,192,59643,1,8,0:0:0
256,192,59731,1,0,0:0:0
256,192,59820,1,0,0:0:0
256,192,59908,1,0,0:0:0
256,192,59996,1,8,0:0:0
256,192,60084,1,8,0:0:0
256,192,60172,1,8,0:0:0
256,192,60261,1,0,0:0:0
256,192,60349,1,0,0:0:0
256,192,60437,1,8,0:0:0
256,192,60525,1,0,0:0:0
256,192,60614,1,0,0:0:0
256,192,60702,1,8,0:0:0
256,192,60878,1,0,0:0:0
256,192,61231,1,0,0:0:0
256,192,61408,1,8,0:0:0
256,192,61496,1,0,0:0:0
256,192,61584,1,8,0:0:0
256,192,61761,1,0,0:0:0
256,192,61937,1,8,0:0:0
256,192,62114,1,0,0:0:0
256,192,62290,1,8,0:0:0
256,192,62378,1,8,0:0:0
256,192,62467,1,8,0:0:0
256,192,62555,1,0,0:0:0
256,192,62643,1,0,0:0:0
256,192,62731,1,0,0:0:0
256,192,62820,1,8,0:0:0
256,192,62908,1,8,0:0:0
256,192,62996,1,8,0:0:0
256,192,63084,1,0,0:0:0
256,192,63172,1,0,0:0:0
256,192,63261,1,8,0:0:0
256,192,63349,1,0,0:0:0
256,192,63437,1,0,0:0:0
256,192,63525,1,8,0:0:0
256,192,63702,1,0,0:0:0
256,192,64055,1,0,0:0:0
256,192,64231,1,8,0:0:0
256,192,64320,1,0,0:0:0
256,192,64408,1,8,0:0:0
256,192,64584,1,0,0:0:0
256,192,64761,1,0,0:0:0
256,192,64937,1,0,0:0:0
256,192,65114,1,0,0:0:0
256,192,65202,1,0,0:0:0
256,192,65290,1,0,0:0:0
256,192,65378,1,8,0:0:0
256,192,65467,1,8,0:0:0
256,192,65555,1,8,0:0:0
256,192,65643,1,0,0:0:0
256,192,65731,1,0,0:0:0
256,192,65820,1,0,0:0:0
256,192,65908,1,8,0:0:0
256,192,65996,1,8,0:0:0
256,192,66084,1,0,0:0:0
256,192,66172,1,8,0:0:0
256,192,66261,1,8,0:0:0
256,192,66349,1,0,0:0:0
256,192,66525,1,0,0:0:0
256,192,66878,1,0,0:0:0
256,192,67055,1,8,0:0:0
256,192,67143,1,0,0:0:0
256,192,67231,1,8,0:0:0
256,192,67408,1,0,0:0:0
256,192,67584,1,0,0:0:0
256,192,67761,1,0,0:0:0
256,192,67937,1,8,0:0:0
256,192,68025,1,0,0:0:0
256,192,68114,1,8,0:0:0
256,192,68202,1,8,0:0:0
256,192,68290,1,8,0:0:0
256,192,68467,1,0,0:0:0
256,192,68643,1,8,0:0:0
256,192,68731,1,0,0:0:0
256,192,68820,1,8,0:0:0
256,192,68996,1,0,0:0:0
256,192,69172,1,0,0:0:0
256,192,69349,1,8,0:0:0
256,192,69437,1,0,0:0:0
256,192,69525,1,8,0:0:0
256,192,69614,1,8,0:0:0
256,192,69702,1,8,0:0:0
256,192,69878,1,0,0:0:0
256,192,70055,1,8,0:0:0
256,192,70143,1,0,0:0:0
248,164,70231,1,8,0:0:0
256,192,70408,1,0,0:0:0
256,192,70761,1,8,0:0:0
256,192,70849,1,0,0:0:0
256,192,70937,1,8,0:0:0
256,192,71025,1,0,0:0:0
256,192,71114,1,8,0:0:0
256,192,71202,1,0,0:0:0
256,192,71290,1,0,0:0:0
256,192,71378,1,0,0:0:0
256,192,71467,1,8,0:0:0
256,192,71555,1,8,0:0:0
256,192,71643,1,8,0:0:0
256,192,71731,1,0,0:0:0
256,192,71820,1,0,0:0:0
256,192,71908,1,8,0:0:0
256,192,71996,1,0,0:0:0
256,192,72172,1,0,0:0:0
256,192,72525,1,0,0:0:0
256,192,72878,1,0,0:0:0
256,192,73231,1,0,0:0:0
164,228,73584,1,6,0:0:0
256,192,73761,1,0,0:0:0
256,192,73937,1,0,0:0:0
256,192,74114,1,8,0:0:0
256,192,74202,1,0,0:0:0
256,192,74290,1,8,0:0:0
256,192,74467,1,0,0:0:0
256,192,74643,1,0,0:0:0
256,192,74820,1,8,0:0:0
256,192,74908,1,8,0:0:0
256,192,74996,1,0,0:0:0
256,192,75172,1,0,0:0:0
256,192,75349,1,0,0:0:0
256,192,75525,1,8,0:0:0
256,192,75614,1,0,0:0:0
256,192,75702,1,8,0:0:0
256,192,75878,1,0,0:0:0
256,192,76055,1,0,0:0:0
256,192,76231,1,8,0:0:0
256,192,76320,1,8,0:0:0
256,192,76408,1,0,0:0:0
256,192,76584,1,0,0:0:0
256,192,76761,1,0,0:0:0
256,192,76937,1,8,0:0:0
256,192,77025,1,0,0:0:0
256,192,77114,1,8,0:0:0
256,192,77290,1,0,0:0:0
256,192,77467,1,0,0:0:0
256,192,77643,1,8,0:0:0
256,192,77731,1,0,0:0:0
256,192,77820,1,8,0:0:0
256,192,77908,1,0,0:0:0
256,192,77996,1,8,0:0:0
256,192,78173,1,0,0:0:0
256,192,78349,1,8,0:0:0
256,192,78525,1,8,0:0:0
256,192,78878,1,0,0:0:0
256,192,79055,1,8,0:0:0
256,192,79143,1,8,0:0:0
256,192,79231,1,0,0:0:0
256,192,79408,1,8,0:0:0
256,192,79584,1,0,0:0:0
256,192,79761,1,8,0:0:0
256,192,79937,1,0,0:0:0
256,192,80290,1,0,0:0:0
256,192,80467,1,8,0:0:0
256,192,80555,1,8,0:0:0
256,192,80643,1,0,0:0:0
256,192,80820,1,8,0:0:0
256,192,80996,1,0,0:0:0
256,192,81173,1,8,0:0:0
256,192,81349,1,0,0:0:0
256,192,81702,1,0,0:0:0
256,192,81878,1,8,0:0:0
256,192,81967,1,8,0:0:0
256,192,82055,1,8,0:0:0
256,192,82231,1,8,0:0:0
256,192,82408,1,8,0:0:0
256,192,82584,1,0,0:0:0
256,192,82761,1,6,0:0:0
256,192,83114,1,0,0:0:0
256,192,83290,1,8,0:0:0
256,192,83378,1,8,0:0:0
256,192,83467,1,8,0:0:0
256,192,83643,1,0,0:0:0
256,192,83820,1,0,0:0:0
256,192,83996,1,8,0:0:0
256,192,84084,1,0,0:0:0
256,192,84173,1,8,0:0:0
256,192,84261,1,0,0:0:0
256,192,84349,1,8,0:0:0
256,192,84525,1,0,0:0:0
256,192,84702,1,8,0:0:0
256,192,84790,1,8,0:0:0
256,192,84878,1,0,0:0:0
256,192,85055,1,0,0:0:0
256,192,85231,1,0,0:0:0
256,192,85408,1,8,0:0:0
256,192,85496,1,0,0:0:0
256,192,85584,1,8,0:0:0
256,192,85761,1,0,0:0:0
256,192,85937,1,0,0:0:0
256,192,86114,1,8,0:0:0
256,192,86202,1,8,0:0:0
256,192,86290,1,0,0:0:0
256,192,86467,1,0,0:0:0
256,192,86643,1,0,0:0:0
256,192,86820,1,8,0:0:0
256,192,86908,1,0,0:0:0
256,192,86996,1,8,0:0:0
256,192,87173,1,0,0:0:0
256,192,87349,1,0,0:0:0
256,192,87525,1,8,0:0:0
256,192,87614,1,0,0:0:0
256,192,87702,1,8,0:0:0
256,192,87790,1,0,0:0:0
256,192,87878,1,8,0:0:0
256,192,88055,1,0,0:0:0
256,192,88231,1,8,0:0:0
256,192,88408,1,0,0:0:0
256,192,88761,1,0,0:0:0
256,192,88937,1,8,0:0:0
256,192,89025,1,8,0:0:0
256,192,89114,1,0,0:0:0
256,192,89290,1,8,0:0:0
256,192,89467,1,0,0:0:0
256,192,89643,1,8,0:0:0
256,192,89820,1,0,0:0:0
256,192,90173,1,0,0:0:0
256,192,90349,1,8,0:0:0
256,192,90437,1,8,0:0:0
256,192,90525,1,0,0:0:0
256,192,90702,1,8,0:0:0
256,192,90878,1,0,0:0:0
256,192,91055,1,8,0:0:0
256,192,91231,1,0,0:0:0
256,192,91584,1,0,0:0:0
256,192,91761,1,8,0:0:0
256,192,91849,1,8,0:0:0
256,192,91937,1,0,0:0:0
256,192,92114,1,8,0:0:0
256,192,92290,1,8,0:0:0
256,192,92467,1,0,0:0:0
256,192,92643,1,8,0:0:0
256,192,92996,1,0,0:0:0
256,192,93173,1,8,0:0:0
256,192,93261,1,8,0:0:0
256,192,93349,1,0,0:0:0
256,192,93525,1,8,0:0:0
256,192,93702,1,8,0:0:0
256,192,93878,1,0,0:0:0
256,192,94055,1,8,0:0:0
256,192,94231,1,0,0:0:0
256,192,94320,1,0,0:0:0
256,192,94408,1,8,0:0:0
256,192,94584,1,0,0:0:0
256,192,94761,1,8,0:0:0
256,192,94849,1,0,0:0:0
256,192,94937,1,8,0:0:0
256,192,95025,1,0,0:0:0
256,192,95114,1,8,0:0:0
256,192,95290,1,0,0:0:0
212,160,95467,5,8,0:0:0
232,180,95643,1,8,0:0:0
232,180,95820,1,8,0:0:0
232,180,95996,1,8,0:0:0
232,180,96173,1,8,0:0:0
232,180,96261,1,8,0:0:0
232,180,96349,1,0,0:0:0
212,160,96525,1,0,0:0:0
232,180,96878,1,8,0:0:0
212,160,96967,1,8,0:0:0
212,160,97055,1,8,0:0:0
232,180,97143,1,8,0:0:0
232,180,97231,1,0,0:0:0
232,180,97320,1,0,0:0:0
232,180,97408,1,0,0:0:0
232,180,97496,1,8,0:0:0
232,180,97584,1,0,0:0:0
232,180,97761,1,0,0:0:0
232,180,97937,1,8,0:0:0
212,160,98114,1,0,0:0:0
212,160,98202,1,8,0:0:0
212,160,98290,1,0,0:0:0
212,160,98467,1,0,0:0:0
212,160,98643,1,8,0:0:0
212,160,98820,1,0,0:0:0
212,160,98996,1,8,0:0:0
232,180,99084,1,8,0:0:0
232,180,99173,1,0,0:0:0
232,180,99349,1,8,0:0:0
232,180,99525,1,0,0:0:0
212,160,99702,1,0,0:0:0
212,160,99790,1,0,0:0:0
212,160,99878,1,8,0:0:0
212,160,99967,1,8,0:0:0
212,160,100055,1,0,0:0:0
212,160,100143,1,8,0:0:0
212,160,100231,1,8,0:0:0
212,160,100408,1,0,0:0:0
232,180,100937,1,8,0:0:0
232,180,101025,1,8,0:0:0
232,180,101114,1,0,0:0:0
212,160,101290,1,0,0:0:0
212,160,101467,1,8,0:0:0
212,160,101643,1,0,0:0:0
212,160,101820,1,8,0:0:0
212,160,101908,1,0,0:0:0
212,160,101996,1,8,0:0:0
232,180,102173,1,0,0:0:0
232,180,102349,1,8,0:0:0
232,180,102525,1,0,0:0:0
232,180,102614,1,0,0:0:0
232,180,102702,1,8,0:0:0
232,180,102790,1,8,0:0:0
232,180,102878,1,0,0:0:0
232,180,103055,1,0,0:0:0
232,180,103231,1,8,0:0:0
232,180,103320,1,0,0:0:0
232,180,103408,1,8,0:0:0
232,180,103584,1,0,0:0:0
232,180,103761,1,0,0:0:0
232,180,103849,1,0,0:0:0
232,180,103937,1,8,0:0:0
232,180,104114,1,0,0:0:0
232,180,104290,1,8,0:0:0
232,180,104643,1,8,0:0:0
232,180,104731,1,0,0:0:0
232,180,104820,1,8,0:0:0
232,180,104996,1,0,0:0:0
232,180,105173,1,0,0:0:0
232,180,105349,1,8,0:0:0
232,180,105437,1,8,0:0:0
232,180,105525,1,8,0:0:0
232,180,105614,1,8,0:0:0
232,180,105702,1,0,0:0:0
232,180,105790,1,0,0:0:0
232,180,105878,1,0,0:0:0
232,180,106055,1,8,0:0:0
232,180,106584,1,8,0:0:0
232,180,106673,1,8,0:0:0
232,180,106761,1,0,0:0:0
232,180,106937,1,0,0:0:0
232,180,107114,1,8,0:0:0
232,180,107290,1,0,0:0:0
232,180,107467,1,8,0:0:0
232,180,107555,1,0,0:0:0
232,180,107643,1,8,0:0:0
232,180,107820,1,0,0:0:0
232,180,107996,1,8,0:0:0
232,180,108173,1,0,0:0:0
232,180,108261,1,0,0:0:0
232,180,108349,1,8,0:0:0
232,180,108437,1,8,0:0:0
232,180,108525,1,0,0:0:0
232,180,108614,1,8,0:0:0
232,180,108702,1,8,0:0:0
232,180,108878,1,0,0:0:0
260,192,109231,1,0,0:0:0
232,180,109408,1,0,0:0:0
232,180,109496,1,8,0:0:0
232,180,109584,1,0,0:0:0
232,180,109761,1,0,0:0:0
232,180,109937,1,8,0:0:0
232,180,110114,1,0,0:0:0
232,180,110290,1,8,0:0:0
232,180,110378,1,0,0:0:0
260,192,110467,1,8,0:0:0
232,180,110643,1,8,0:0:0
232,180,110731,1,8,0:0:0
232,180,110820,1,0,0:0:0
260,192,110996,1,8,0:0:0
232,180,111084,1,0,0:0:0
232,180,111173,1,0,0:0:0
232,180,111261,1,8,0:0:0
232,180,111349,1,0,0:0:0
232,180,111437,1,0,0:0:0
232,180,111525,1,8,0:0:0
232,180,111702,1,0,0:0:0
232,180,112055,1,0,0:0:0
232,180,112231,1,8,0:0:0
232,180,112320,1,8,0:0:0
232,180,112408,1,0,0:0:0
232,180,112584,1,0,0:0:0
232,180,112761,1,0,0:0:0
232,180,112937,1,0,0:0:0
232,180,113114,1,8,0:0:0
232,180,113202,1,0,0:0:0
232,180,113290,1,8,0:0:0
232,180,113467,1,0,0:0:0
232,180,113643,1,0,0:0:0
232,180,113820,1,8,0:0:0
232,180,113908,1,0,0:0:0
232,180,113996,1,8,0:0:0
232,180,114084,1,0,0:0:0
232,180,114173,1,8,0:0:0
232,180,114349,1,0,0:0:0
232,180,114525,1,8,0:0:0
232,180,114614,1,0,0:0:0
232,180,114702,1,8,0:0:0
232,180,114878,1,0,0:0:0
232,180,115055,1,0,0:0:0
232,180,115231,1,8,0:0:0
232,180,115320,1,8,0:0:0
232,180,115408,1,8,0:0:0
232,180,115496,1,0,0:0:0
232,180,115584,1,0,0:0:0
232,180,115761,1,0,0:0:0
232,180,115937,1,0,0:0:0
232,180,116025,1,0,0:0:0
232,180,116114,1,8,0:0:0
232,180,116290,1,0,0:0:0
232,180,116467,1,8,0:0:0
232,180,116643,1,6,0:0:0
232,180,116820,1,8,0:0:0
232,180,116996,1,0,0:0:0
232,180,117173,1,8,0:0:0
232,180,117349,1,6,0:0:0
232,180,117702,1,8,0:0:0
232,180,117878,1,0,0:0:0
232,180,118055,1,8,0:0:0
232,180,118143,1,0,0:0:0
232,180,118231,1,8,0:0:0
232,180,118408,1,0,0:0:0
232,180,118584,1,0,0:0:0
256,192,118761,1,8,0:0:0
256,192,118849,1,8,0:0:0
256,192,118937,1,8,0:0:0
256,192,119025,1,0,0:0:0
256,192,119114,1,0,0:0:0
256,192,119202,1,0,0:0:0
256,192,119290,1,8,0:0:0
256,192,119378,1,8,0:0:0
256,192,119467,1,8,0:0:0
256,192,119555,1,0,0:0:0
256,192,119643,1,0,0:0:0
256,192,119731,1,8,0:0:0
256,192,119820,1,0,0:0:0
256,192,119908,1,0,0:0:0
256,192,119996,1,8,0:0:0
256,192,120173,1,0,0:0:0
256,192,120525,1,0,0:0:0
256,192,120702,1,8,0:0:0
256,192,120790,1,0,0:0:0
256,192,120878,1,8,0:0:0
256,192,121055,1,0,0:0:0
256,192,121231,1,0,0:0:0
256,192,121408,1,0,0:0:0
256,192,121584,1,0,0:0:0
256,192,121673,1,0,0:0:0
256,192,121761,1,0,0:0:0
256,192,121849,1,8,0:0:0
256,192,121937,1,8,0:0:0
256,192,122025,1,8,0:0:0
256,192,122114,1,0,0:0:0
256,192,122202,1,0,0:0:0
256,192,122290,1,0,0:0:0
256,192,122378,1,8,0:0:0
256,192,122467,1,8,0:0:0
256,192,122555,1,0,0:0:0
256,192,122643,1,8,0:0:0
256,192,122731,1,8,0:0:0
256,192,122820,1,0,0:0:0
256,192,122996,1,0,0:0:0
256,192,123349,1,0,0:0:0
256,192,123525,1,8,0:0:0
256,192,123614,1,0,0:0:0
256,192,123702,1,8,0:0:0
256,192,123878,1,0,0:0:0
256,192,124055,1,8,0:0:0
256,192,124231,1,0,0:0:0
256,192,124408,1,8,0:0:0
256,192,124496,1,0,0:0:0
256,192,124584,1,8,0:0:0
256,192,124673,1,0,0:0:0
256,192,124761,1,8,0:0:0
256,192,124937,1,0,0:0:0
256,192,125114,1,8,0:0:0
256,192,125202,1,0,0:0:0
256,192,125290,1,8,0:0:0
256,192,125467,1,0,0:0:0
256,192,125643,1,0,0:0:0
256,192,125820,1,8,0:0:0
256,192,125908,1,0,0:0:0
256,192,125996,1,8,0:0:0
256,192,126084,1,0,0:0:0
256,192,126173,1,8,0:0:0
256,192,126349,1,0,0:0:0
256,192,126525,1,8,0:0:0
256,192,126614,1,0,0:0:0
256,192,126702,1,8,0:0:0
256,192,126878,1,0,0:0:0
256,192,127055,1,0,0:0:0
256,192,127231,1,8,0:0:0
256,192,127320,1,8,0:0:0
256,192,127408,1,8,0:0:0
256,192,127496,1,0,0:0:0
256,192,127584,1,0,0:0:0
256,192,127673,1,0,0:0:0
256,192,127761,1,8,0:0:0
256,192,127849,1,8,0:0:0
256,192,127937,1,8,0:0:0
256,192,128025,1,0,0:0:0
256,192,128114,1,0,0:0:0
256,192,128202,1,8,0:0:0
256,192,128290,1,0,0:0:0
256,192,128378,1,0,0:0:0
256,192,128467,1,8,0:0:0
256,192,128643,1,0,0:0:0
256,192,128996,1,0,0:0:0
256,192,129173,1,8,0:0:0
256,192,129261,1,0,0:0:0
256,192,129349,1,8,0:0:0
256,192,129525,1,0,0:0:0
256,192,129702,1,8,0:0:0
256,192,129878,1,0,0:0:0
256,192,130055,1,8,0:0:0
256,192,130143,1,8,0:0:0
256,192,130231,1,8,0:0:0
256,192,130320,1,0,0:0:0
256,192,130408,1,0,0:0:0
256,192,130496,1,0,0:0:0
256,192,130584,1,8,0:0:0
256,192,130673,1,8,0:0:0
256,192,130761,1,8,0:0:0
256,192,130849,1,0,0:0:0
256,192,130937,1,0,0:0:0
256,192,131025,1,8,0:0:0
256,192,131114,1,0,0:0:0
256,192,131202,1,0,0:0:0
256,192,131290,1,8,0:0:0
256,192,131467,1,0,0:0:0
256,192,131820,1,0,0:0:0
256,192,131996,1,8,0:0:0
256,192,132084,1,0,0:0:0
256,192,132173,1,8,0:0:0
256,192,132349,1,0,0:0:0
256,192,132525,1,0,0:0:0
256,192,132702,1,0,0:0:0
256,192,132878,1,0,0:0:0
256,192,132967,1,0,0:0:0
256,192,133055,1,0,0:0:0
256,192,133143,1,8,0:0:0
256,192,133231,1,8,0:0:0
256,192,133320,1,8,0:0:0
256,192,133408,1,0,0:0:0
256,192,133496,1,0,0:0:0
256,192,133584,1,0,0:0:0
256,192,133673,1,8,0:0:0
256,192,133761,1,8,0:0:0
256,192,133849,1,0,0:0:0
256,192,133937,1,8,0:0:0
256,192,134025,1,8,0:0:0
256,192,134114,1,0,0:0:0
256,192,134290,1,0,0:0:0
256,192,134643,1,0,0:0:0
256,192,134820,1,8,0:0:0
256,192,134908,1,0,0:0:0
256,192,134996,1,8,0:0:0
256,192,135173,1,0,0:0:0
256,192,135349,1,0,0:0:0
256,192,135525,1,0,0:0:0
256,192,135702,1,8,0:0:0
256,192,135790,1,0,0:0:0
256,192,135878,1,8,0:0:0
256,192,135967,1,8,0:0:0
256,192,136055,1,8,0:0:0
256,192,136231,1,0,0:0:0
256,192,136408,1,8,0:0:0
256,192,136496,1,0,0:0:0
256,192,136584,1,8,0:0:0
256,192,136761,1,0,0:0:0
256,192,136937,1,0,0:0:0
256,192,137114,1,8,0:0:0
256,192,137202,1,0,0:0:0
256,192,137290,1,8,0:0:0
256,192,137378,1,8,0:0:0
256,192,137467,1,8,0:0:0
256,192,137643,1,0,0:0:0
256,192,137820,1,8,0:0:0
256,192,137908,1,0,0:0:0
248,164,137996,1,8,0:0:0
256,192,138173,1,0,0:0:0
256,192,138525,1,8,0:0:0
256,192,138614,1,0,0:0:0
256,192,138702,1,8,0:0:0
256,192,138790,5,0,0:0:0
256,192,138878,1,8,0:0:0
256,192,138967,1,0,0:0:0
256,192,139055,1,0,0:0:0
256,192,139143,1,0,0:0:0
256,192,139231,1,8,0:0:0
256,192,139320,1,8,0:0:0
256,192,139408,1,8,0:0:0
256,192,139496,1,0,0:0:0
256,192,139584,1,0,0:0:0
256,192,139673,1,8,0:0:0
256,192,139761,1,0,0:0:0
256,192,139937,1,0,0:0:0
256,192,140290,1,0,0:0:0
256,192,140643,1,0,0:0:0
256,192,140996,1,0,0:0:0
256,192,141173,1,0,0:0:0
256,192,141261,1,0,0:0:0
256,192,141349,1,8,0:0:0
256,192,141702,1,0,0:0:0
256,192,141878,1,0,0:0:0
256,192,141967,1,0,0:0:0
256,192,142055,1,8,0:0:0
256,192,142584,1,0,0:0:0
256,192,142673,1,0,0:0:0
256,192,142761,1,8,0:0:0
256,192,143114,1,8,0:0:0
256,192,143290,1,0,0:0:0
256,192,143378,1,0,0:0:0
256,192,143467,1,8,0:0:0
256,192,143996,1,0,0:0:0
256,192,144084,1,0,0:0:0
256,192,144173,1,8,0:0:0
256,192,144525,1,0,0:0:0
256,192,144702,1,0,0:0:0
256,192,144790,1,0,0:0:0
256,192,144878,1,8,0:0:0
256,192,145231,1,8,0:0:0
256,192,145408,1,0,0:0:0
256,192,145584,1,8,0:0:0
256,192,145937,1,8,0:0:0
256,192,146114,1,0,0:0:0
256,192,146202,1,0,0:0:0
256,192,146290,1,8,0:0:0
256,192,146820,1,0,0:0:0
256,192,146908,1,0,0:0:0
256,192,146996,1,8,0:0:0
256,192,147349,1,8,0:0:0
256,192,147525,1,0,0:0:0
256,192,147614,1,0,0:0:0
256,192,147702,1,8,0:0:0
256,192,148231,1,0,0:0:0
256,192,148320,1,0,0:0:0
256,192,148408,1,8,0:0:0
256,192,148761,1,8,0:0:0
256,192,148937,1,0,0:0:0
256,192,149025,1,0,0:0:0
256,192,149114,1,8,0:0:0
256,192,149643,1,0,0:0:0
256,192,149731,1,0,0:0:0
256,192,149820,1,8,0:0:0
256,192,150173,1,8,0:0:0
256,192,150349,1,0,0:0:0
256,192,150437,1,0,0:0:0
256,192,150525,1,8,0:0:0
256,192,151055,1,0,0:0:0
256,192,151143,1,0,0:0:0
256,192,151231,1,8,0:0:0
256,192,151584,1,8,0:0:0
256,192,151761,1,0,0:0:0
256,192,151849,1,0,0:0:0
256,192,151937,1,8,0:0:0
256,192,152290,1,8,0:0:0
256,192,152467,1,0,0:0:0
256,192,152643,1,4,0:0:0
256,192,152820,1,0,0:0:0
256,192,152996,1,8,0:0:0
256,192,153173,1,0,0:0:0
256,192,153261,1,0,0:0:0
256,192,153349,1,8,0:0:0
256,192,153525,1,0,0:0:0
256,192,153702,1,8,0:0:0
256,192,153878,1,0,0:0:0
256,192,153967,1,0,0:0:0
256,192,154055,1,8,0:0:0
256,192,154231,1,0,0:0:0
256,192,154408,1,8,0:0:0
256,192,154584,1,0,0:0:0
256,192,154673,1,0,0:0:0
256,192,154761,1,8,0:0:0
256,192,154937,1,0,0:0:0
256,192,155114,1,8,0:0:0
256,192,155290,1,0,0:0:0
256,192,155378,1,0,0:0:0
256,192,155467,1,8,0:0:0
256,192,155643,1,0,0:0:0
256,192,155820,1,8,0:0:0
256,192,155996,1,0,0:0:0
256,192,156084,1,0,0:0:0
256,192,156173,1,8,0:0:0
256,192,156261,1,8,0:0:0
256,192,156349,1,0,0:0:0
256,192,156525,1,0,0:0:0
256,192,156702,1,8,0:0:0
256,192,156878,1,0,0:0:0
256,192,157055,1,8,0:0:0
256,192,157143,1,0,0:0:0
256,192,157231,1,8,0:0:0
256,192,157408,1,8,0:0:0
256,192,157496,1,8,0:0:0
256,192,157584,1,0,0:0:0
256,192,157761,1,0,0:0:0
256,192,157937,1,8,0:0:0
256,192,158114,1,0,0:0:0
256,192,158290,1,8,0:0:0
256,192,158643,1,8,0:0:0
256,192,158731,1,0,0:0:0
256,192,158820,1,8,0:0:0
256,192,158996,1,0,0:0:0
256,192,159173,1,8,0:0:0
256,192,159349,1,0,0:0:0
256,192,159525,1,8,0:0:0
256,192,159702,1,0,0:0:0
256,192,159878,1,8,0:0:0
256,192,159967,1,0,0:0:0
256,192,160055,1,8,0:0:0
256,192,160231,1,0,0:0:0
256,192,160408,1,8,0:0:0
256,192,160584,1,0,0:0:0
256,192,160761,1,8,0:0:0
256,192,160937,1,0,0:0:0
256,192,161114,1,0,0:0:0
256,192,161467,1,0,0:0:0
256,192,161643,1,8,0:0:0
256,192,161731,1,0,0:0:0
256,192,161820,1,8,0:0:0
256,192,161996,1,0,0:0:0
256,192,162173,1,8,0:0:0
256,192,162349,1,0,0:0:0
256,192,162437,1,0,0:0:0
256,192,162525,1,8,0:0:0
256,192,162702,1,0,0:0:0
256,192,162878,1,8,0:0:0
256,192,162967,1,8,0:0:0
256,192,163055,1,0,0:0:0
256,192,163143,1,8,0:0:0
232,200,163231,1,0,0:0:0
256,192,163408,1,0,0:0:0
256,192,163584,1,8,0:0:0
256,192,163761,1,8,0:0:0
256,192,163937,1,8,0:0:0
256,192,164025,1,0,0:0:0
256,192,164114,1,8,0:0:0
256,192,164290,1,0,0:0:0
256,192,164467,1,0,0:0:0
256,192,164555,1,0,0:0:0
256,192,164643,1,8,0:0:0
256,192,164820,1,0,0:0:0
256,192,164996,1,8,0:0:0
256,192,165173,1,0,0:0:0
256,192,165261,1,0,0:0:0
256,192,165349,1,8,0:0:0
256,192,165525,1,0,0:0:0
256,192,165702,1,8,0:0:0
256,192,165878,1,0,0:0:0
256,192,165967,1,0,0:0:0
256,192,166055,1,8,0:0:0
256,192,166231,1,0,0:0:0
256,192,166408,1,8,0:0:0
256,192,166584,1,0,0:0:0
256,192,166761,1,8,0:0:0
256,192,166849,1,0,0:0:0
256,192,166937,1,8,0:0:0
256,192,167114,1,8,0:0:0
256,192,167202,1,0,0:0:0
256,192,167290,1,8,0:0:0
256,192,167467,1,8,0:0:0
256,192,167584,1,0,0:0:0
256,192,167702,1,0,0:0:0
256,192,167820,1,8,0:0:0
256,192,167996,1,0,0:0:0
256,192,168173,1,0,0:0:0
256,192,168349,1,8,0:0:0
256,192,168437,1,8,0:0:0
256,192,168525,1,0,0:0:0
256,192,168702,1,0,0:0:0
256,192,168878,1,0,0:0:0
256,192,169055,1,0,0:0:0
256,192,169143,1,0,0:0:0
256,192,169231,1,8,0:0:0
256,192,169408,1,0,0:0:0
256,192,169584,1,0,0:0:0
256,192,169673,1,0,0:0:0
256,192,169761,1,8,0:0:0
256,192,169937,1,0,0:0:0
256,192,170114,1,0,0:0:0
256,192,170290,1,0,0:0:0
256,192,170378,1,0,0:0:0
256,192,170467,1,8,0:0:0
256,192,170643,1,0,0:0:0
256,192,170820,1,0,0:0:0
256,192,170996,1,0,0:0:0
256,192,171084,1,0,0:0:0
256,192,171172,1,8,0:0:0
256,192,171349,1,0,0:0:0
256,192,171525,1,8,0:0:0
256,192,171702,1,0,0:0:0
256,192,171790,1,0,0:0:0
256,192,171878,1,8,0:0:0
256,192,172055,1,0,0:0:0
256,192,172231,1,0,0:0:0
256,192,172408,1,8,0:0:0
256,192,172496,1,8,0:0:0
256,192,172584,1,8,0:0:0
256,192,172761,1,0,0:0:0
256,192,172849,1,0,0:0:0
256,192,172937,1,0,0:0:0
256,192,173114,1,8,0:0:0
256,192,173231,1,8,0:0:0
256,192,173349,1,0,0:0:0
256,192,173467,1,8,0:0:0
256,192,173643,1,0,0:0:0
256,192,173820,1,8,0:0:0
256,192,173996,1,0,0:0:0
256,192,174172,1,8,0:0:0
256,192,174349,1,0,0:0:0
256,192,174525,1,8,0:0:0
256,192,174614,1,0,0:0:0
256,192,174702,1,8,0:0:0
256,192,174878,1,0,0:0:0
256,192,175231,1,4,0:0:0
256,192,175408,1,8,0:0:0
256,192,175584,1,0,0:0:0
256,192,175761,1,8,0:0:0
256,192,175937,1,8,0:0:0
256,192,176025,1,0,0:0:0
256,192,176114,1,8,0:0:0
256,192,176290,1,0,0:0:0
256,192,176467,1,8,0:0:0
256,192,176643,1,8,0:0:0
256,192,176731,1,0,0:0:0
256,192,176820,1,8,0:0:0
256,192,176996,1,0,0:0:0
256,192,177172,1,0,0:0:0
256,192,177349,1,8,0:0:0
256,192,177437,1,0,0:0:0
256,192,177525,1,8,0:0:0
256,192,177702,1,0,0:0:0
256,192,178055,1,0,0:0:0
256,192,178231,1,8,0:0:0
256,192,178408,1,0,0:0:0
256,192,178584,1,8,0:0:0
256,192,178761,1,0,0:0:0
256,192,178937,1,8,0:0:0
256,192,179025,1,0,0:0:0
256,192,179114,1,8,0:0:0
256,192,179290,1,0,0:0:0
256,192,179467,1,8,0:0:0
256,192,179555,1,0,0:0:0
256,192,179643,1,0,0:0:0
256,192,179731,1,0,0:0:0
256,192,179820,1,8,0:0:0
256,192,179996,1,0,0:0:0
256,192,180172,1,0,0:0:0
256,192,180349,1,8,0:0:0
256,192,180437,1,0,0:0:0
256,192,180525,1,8,0:0:0
256,192,180878,1,0,0:0:0
256,192,181055,1,8,0:0:0
256,192,181231,1,0,0:0:0
256,192,181408,1,8,0:0:0
256,192,181584,1,0,0:0:0
256,192,181672,1,8,0:0:0
256,192,181761,1,0,0:0:0
256,192,181849,1,8,0:0:0
256,192,181937,1,0,0:0:0
256,192,182114,1,0,0:0:0
256,192,182290,1,8,0:0:0
256,192,182467,1,0,0:0:0
256,192,182555,1,8,0:0:0
256,192,182643,1,0,0:0:0
256,192,182820,1,8,0:0:0
256,192,182996,1,8,0:0:0
256,192,183084,1,8,0:0:0
256,192,183172,1,8,0:0:0
256,192,183261,1,8,0:0:0
256,192,183349,1,8,0:0:0
256,192,183702,1,0,0:0:0
256,192,183878,1,8,0:0:0
256,192,183967,1,8,0:0:0
256,192,184055,1,0,0:0:0
256,192,184408,1,8,0:0:0
256,192,184496,1,8,0:0:0
256,192,184584,1,0,0:0:0
256,192,184672,1,8,0:0:0
256,192,184761,1,8,0:0:0
256,192,184849,1,0,0:0:0
256,192,184937,1,8,0:0:0
256,192,185025,1,8,0:0:0
256,192,185114,1,0,0:0:0
256,192,185467,1,0,0:0:0
256,192,185643,1,8,0:0:0
256,192,185731,1,0,0:0:0
256,192,185820,1,8,0:0:0
256,192,185996,1,0,0:0:0
256,192,186172,1,8,0:0:0
256,192,186349,1,0,0:0:0
256,192,186525,1,8,0:0:0
256,192,186614,1,8,0:0:0
256,192,186702,1,8,0:0:0
256,192,186790,1,0,0:0:0
256,192,186878,1,0,0:0:0
256,192,186967,1,0,0:0:0
256,192,187055,1,8,0:0:0
256,192,187143,1,8,0:0:0
256,192,187231,1,8,0:0:0
256,192,187320,1,0,0:0:0
256,192,187408,1,0,0:0:0
256,192,187496,1,8,0:0:0
256,192,187584,1,0,0:0:0
256,192,187672,1,0,0:0:0
256,192,187761,1,8,0:0:0
256,192,187937,1,0,0:0:0
256,192,188290,1,0,0:0:0
256,192,188467,1,8,0:0:0
256,192,188555,1,0,0:0:0
256,192,188643,1,8,0:0:0
256,192,188820,1,0,0:0:0
256,192,188996,1,8,0:0:0
256,192,189172,1,0,0:0:0
256,192,189349,1,0,0:0:0
256,192,189437,1,0,0:0:0
256,192,189525,1,0,0:0:0
256,192,189614,1,8,0:0:0
256,192,189702,1,8,0:0:0
256,192,189790,1,8,0:0:0
256,192,189878,1,0,0:0:0
256,192,189967,1,0,0:0:0
256,192,190055,1,0,0:0:0
256,192,190143,1,8,0:0:0
256,192,190231,1,8,0:0:0
256,192,190320,1,0,0:0:0
256,192,190408,1,8,0:0:0
256,192,190496,1,8,0:0:0
256,192,190584,1,0,0:0:0
256,192,190761,1,0,0:0:0
256,192,191114,1,0,0:0:0
256,192,191290,1,8,0:0:0
256,192,191378,1,0,0:0:0
256,192,191467,1,8,0:0:0
256,192,191643,1,0,0:0:0
256,192,191820,1,8,0:0:0
256,192,191996,1,0,0:0:0
256,192,192172,1,8,0:0:0
256,192,192261,1,0,0:0:0
256,192,192349,1,8,0:0:0
256,192,192437,1,0,0:0:0
256,192,192525,1,8,0:0:0
256,192,192702,1,0,0:0:0
256,192,192878,1,8,0:0:0
256,192,192967,1,0,0:0:0
256,192,193055,1,8,0:0:0
256,192,193231,1,0,0:0:0
256,192,193408,1,0,0:0:0
256,192,193584,1,8,0:0:0
256,192,193672,1,0,0:0:0
256,192,193761,1,8,0:0:0
256,192,193849,1,0,0:0:0
256,192,193937,1,8,0:0:0
256,192,194114,1,0,0:0:0
256,192,194290,1,8,0:0:0
256,192,194378,1,0,0:0:0
256,192,194467,1,8,0:0:0
256,192,194643,1,0,0:0:0
256,192,194820,1,0,0:0:0
256,192,194996,1,8,0:0:0
256,192,195084,1,8,0:0:0
256,192,195172,1,8,0:0:0
256,192,195261,1,0,0:0:0
256,192,195349,1,0,0:0:0
256,192,195437,1,0,0:0:0
256,192,195525,1,8,0:0:0
256,192,195614,1,8,0:0:0
256,192,195702,1,8,0:0:0
256,192,195790,1,0,0:0:0
256,192,195878,1,0,0:0:0
256,192,195967,1,8,0:0:0
256,192,196055,1,0,0:0:0
256,192,196143,1,0,0:0:0
256,192,196231,1,8,0:0:0
256,192,196408,1,0,0:0:0
256,192,196761,1,0,0:0:0
256,192,196937,1,8,0:0:0
256,192,197025,1,0,0:0:0
256,192,197114,1,8,0:0:0
256,192,197290,1,0,0:0:0
256,192,197467,1,8,0:0:0
256,192,197643,1,0,0:0:0
256,192,197820,1,8,0:0:0
256,192,197908,1,8,0:0:0
256,192,197996,1,8,0:0:0
256,192,198084,1,0,0:0:0
256,192,198172,1,0,0:0:0
256,192,198261,1,0,0:0:0
256,192,198349,1,8,0:0:0
256,192,198437,1,8,0:0:0
256,192,198525,1,8,0:0:0
256,192,198614,1,0,0:0:0
256,192,198702,1,0,0:0:0
256,192,198790,1,8,0:0:0
256,192,198878,1,0,0:0:0
256,192,198967,1,0,0:0:0
256,192,199055,1,8,0:0:0
256,192,199231,1,0,0:0:0
256,192,199584,1,0,0:0:0
256,192,199761,1,8,0:0:0
256,192,199849,1,0,0:0:0
256,192,199937,1,8,0:0:0
256,192,200114,1,0,0:0:0
256,192,200290,1,8,0:0:0
256,192,200467,1,0,0:0:0
256,192,200643,1,0,0:0:0
256,192,200731,1,0,0:0:0
256,192,200820,1,0,0:0:0
256,192,200908,5,8,0:0:0
256,192,200996,1,8,0:0:0
256,192,201084,1,8,0:0:0
256,192,201172,1,0,0:0:0
256,192,201261,1,0,0:0:0
256,192,201349,1,0,0:0:0
256,192,201437,1,8,0:0:0
256,192,201525,1,8,0:0:0
256,192,201614,1,0,0:0:0
256,192,201702,1,8,0:0:0
256,192,201790,1,8,0:0:0
256,192,201878,1,0,0:0:0
256,192,202055,5,0,0:0:0
256,192,202408,1,0,0:0:0
256,192,202584,1,8,0:0:0
256,192,202672,1,0,0:0:0
256,192,202761,1,8,0:0:0
256,192,202937,1,0,0:0:0
256,192,203114,1,8,0:0:0
256,192,203290,1,0,0:0:0
256,192,203467,1,8,0:0:0
256,192,203555,1,0,0:0:0
256,192,203643,1,8,0:0:0
256,192,203731,1,0,0:0:0
256,192,203820,1,8,0:0:0
256,192,203996,1,0,0:0:0
256,192,204172,1,8,0:0:0
256,192,204261,1,0,0:0:0
256,192,204349,1,8,0:0:0
256,192,204525,1,0,0:0:0
256,192,204702,1,0,0:0:0
256,192,204878,1,8,0:0:0
256,192,204967,1,0,0:0:0
256,192,205055,1,8,0:0:0
256,192,205143,1,0,0:0:0
256,192,205231,1,8,0:0:0
256,192,205408,1,0,0:0:0
256,192,205584,1,8,0:0:0
256,192,205672,1,0,0:0:0
256,192,205761,1,8,0:0:0
256,192,205937,1,0,0:0:0
256,192,206290,1,8,0:0:0
256,192,206467,1,8,0:0:0
256,192,206555,1,0,0:0:0
256,192,206643,1,8,0:0:0
256,192,206820,1,0,0:0:0
256,192,206996,1,0,0:0:0
256,192,207084,1,8,0:0:0
256,192,207172,1,0,0:0:0
256,192,207261,1,8,0:0:0
248,164,207349,1,0,0:0:0
256,192,207525,1,0,0:0:0
256,192,207702,1,8,0:0:0
256,192,207790,1,0,0:0:0
256,192,207878,1,8,0:0:0
256,192,208055,1,0,0:0:0
256,192,208231,1,8,0:0:0
256,192,208408,1,0,0:0:0
256,192,208496,1,8,0:0:0
256,192,208584,1,0,0:0:0
256,192,208672,1,8,0:0:0
256,192,208761,1,0,0:0:0
248,164,208937,1,8,0:0:0
256,192,209114,12,0,209996,0:0:0
284,196,210172,5,4,0:0:0
