osu file format v13

[General]
AudioFilename: Azis - Mama.mp3
AudioLeadIn: 2000
PreviewTime: 46661
Countdown: 0
SampleSet: None
StackLeniency: 0.7
Mode: 0
LetterboxInBreaks: 0
WidescreenStoryboard: 0

[Editor]
DistanceSpacing: 0.8
BeatDivisor: 4
GridSize: 4
TimelineZoom: 1.8

[Metadata]
Title:Mama
TitleUnicode:Mama
Artist:Azis ,Marta Savic feat. Mirko Gavric
ArtistUnicode:Azis ,Marta Savic feat. Mirko Gavric
Creator:lkx_Shore
Version:Insane2
Source:
Tags:thenutritiousguy pop bulgarian Vasili Troyanov Boyanov jyc-binggan
BeatmapID:512144
BeatmapSetID:150717

[Difficulty]
HPDrainRate:7
CircleSize:4
OverallDifficulty:7
ApproachRate:8
SliderMultiplier:1.6
SliderTickRate:1

[Events]
//Background and Video events
0,0,"your azis.png",0,0
//Break Periods
//Storyboard Layer 0 (Background)
//Storyboard Layer 1 (Fail)
//Storyboard Layer 2 (Pass)
//Storyboard Layer 3 (Foreground)
//Storyboard Sound Samples
//Background Colour Transformations
3,100,163,162,255

[TimingPoints]
255,468.75,4,2,1,70,1,0
840,-100,4,2,0,40,0,0
1426,-100,4,2,0,55,0,0
1895,-100,4,2,0,80,0,0
2012,-100,4,2,0,5,0,0
2130,-133.333333333333,4,2,0,70,0,0
18536,-66.6666666666667,4,2,0,70,0,0
19005,-76.9230769230769,4,1,0,70,0,1
19122,-76.9230769230769,4,1,0,70,0,0
45255,-133.333333333333,4,1,0,70,0,0
46661,-66.6666666666667,4,1,0,70,0,0
47130,-66.6666666666667,4,1,0,70,0,1

[HitObjects]
256,192,255,12,0,2012,0:0:0:0:
136,108,2130,5,0,0:0:0:0:
136,108,2481,5,0,0:0:0:0:
136,108,2833,2,0,L|108:224,1,120.000004577637
136,340,3653,2,0,P|180:336|212:304,1,90.0000034332277
228,228,4239,5,0,0:0:0:0:
228,228,4473,1,0,0:0:0:0:
228,228,4708,1,0,0:0:0:0:
228,228,4942,2,0,B|272:240|272:240|312:240|312:240|344:252,1,120.000004577637
380,268,5528,2,0,L|464:232,1,90.0000034332277
408,48,6348,5,0,1:0:0:0:
408,48,6817,2,0,L|384:168,1,120.000004577637,0|0,0:0|1:0,0:0:0:0:
376,336,7755,6,0,P|332:340|300:332,1,60.0000022888184
252,292,8223,1,0,1:0:0:0:
252,292,8458,2,0,P|222:288|192:293,1,60.0000022888184
40,344,9161,1,0,1:0:0:0:
40,344,9395,2,0,L|56:304,1,30.0000011444092
88,220,9630,5,0,0:0:0:0:
88,220,10098,2,0,P|100:160|80:104,1,120.000004577637,0|0,1:0|0:0,0:0:0:0:
276,136,11036,1,0,1:0:0:0:
464,84,11505,6,0,P|480:120|480:144,1,60.0000022888184
448,212,11973,1,0,1:0:0:0:
448,212,12208,2,0,P|432:248|432:272,1,60.0000022888184
296,344,12911,1,0,1:0:0:0:
296,344,13380,6,0,L|176:328,1,120.000004577637,0|0,0:0|1:0,0:0:0:0:
128,268,14083,1,2,0:0:0:0:
128,268,14551,1,0,0:0:0:0:
88,200,14786,2,0,L|60:148,1,60.0000022888184,0|0,1:0|0:0,0:0:0:0:
80,72,15255,6,0,P|120:88|176:76,1,90.0000034332277,2|0,0:0|0:0,0:0:0:0:
240,124,15723,2,0,P|280:140|336:128,1,90.0000034332277,2|0,0:0|0:0,0:0:0:0:
400,160,16192,1,0,1:0:0:0:
400,160,16426,1,0,1:0:0:0:
448,252,16661,1,0,1:0:0:0:
448,252,16778,1,0,1:0:0:0:
448,252,16895,2,0,L|440:272,3,15.0000005722046,0|0|0|0,0:0|0:0|0:0|0:0,1:0:0:0:
432,296,17130,1,4,1:0:0:0:
432,296,18067,5,0,1:0:0:0:
432,296,18419,1,0,1:0:0:0:
432,296,18536,2,0,P|376:296|328:252,1,120.000004577637,0|2,1:0|0:0,0:0:0:0:
384,76,19005,6,0,P|422:141|407:216,1,155.999992858887,4|0,1:2|0:0,0:0:0:0:
336,156,19473,2,0,L|228:176,1,103.999995239258,8|0,1:2|0:0,0:0:0:0:
44,268,19942,1,0,1:0:0:0:
140,340,20176,1,0,0:0:0:0:
140,340,20294,1,0,0:0:0:0:
140,340,20411,2,0,P|160:300|148:224,1,103.999995239258,8|8,1:2|0:2,0:0:0:0:
96,180,20762,1,0,0:0:0:0:
96,180,20880,6,0,P|136:116|212:104,1,155.999992858887,4|0,1:2|0:0,0:0:0:0:
260,180,21348,2,0,P|220:244|144:256,1,155.999992858887,12|0,1:2|0:0,0:0:0:0:
96,180,21817,1,0,1:0:0:0:
312,104,22051,1,0,1:0:0:0:
312,104,22169,1,0,1:0:0:0:
312,104,22286,1,8,1:0:0:0:
384,204,22520,1,0,1:0:0:0:
384,204,22755,6,0,P|428:164|432:68,1,155.999992858887,0|0,1:0|0:0,0:0:0:0:
312,104,23223,2,0,P|272:152|272:196,1,103.999995239258,8|0,1:0|0:0,0:0:0:0:
424,344,23692,1,0,1:0:0:0:
424,344,23926,2,10,L|320:328,1,103.999995239258,8|8,0:0|1:0,0:0:0:0:
48,288,24395,1,0,0:0:0:0:
48,288,24512,1,0,0:0:0:0:
48,288,24630,6,0,P|80:332|128:344,1,103.999995239258,4|0,1:2|0:0,0:0:0:0:
256,296,25098,2,0,P|224:252|176:240,1,103.999995239258,8|0,0:0|0:0,0:0:0:0:
424,344,25567,1,0,0:0:0:0:
408,180,25801,1,0,0:0:0:0:
396,216,25919,1,0,0:0:0:0:
384,252,26036,1,8,0:0:0:0:
368,96,26270,1,0,0:0:0:0:
368,96,26505,6,0,P|296:120|220:96,1,155.999992858887
160,48,26973,2,0,L|192:148,1,103.999995239258,8|0,0:0|0:0,0:0:0:0:
240,316,27442,1,0,0:0:0:0:
392,264,27676,1,0,0:0:0:0:
360,248,27794,1,0,0:0:0:0:
324,248,27911,1,8,0:0:0:0:
240,316,28145,1,0,0:0:0:0:
240,316,28262,1,8,0:0:0:0:
240,316,28380,6,0,L|136:304,1,103.999995239258,4|0,0:2|0:0,0:0:0:0:
36,168,28848,2,0,L|140:180,1,103.999995239258,12|0,0:2|0:0,0:0:0:0:
288,196,29317,1,0,0:0:0:0:
236,36,29551,1,0,0:0:0:0:
224,72,29669,1,0,0:0:0:0:
212,108,29786,1,8,0:0:0:0:
288,196,30020,1,0,0:0:0:0:
392,248,30255,6,0,P|432:224|452:168,1,103.999995239258,2|0,0:2|2:0,0:0:0:0:
408,64,30606,2,0,P|368:88|348:140,1,103.999995239258,2|0,0:2|2:0,0:0:0:0:
392,248,30958,1,2,0:2:0:0:
300,316,31192,1,2,0:2:0:0:
300,316,31426,2,2,L|196:300,1,103.999995239258,0|4,0:0|0:2,0:0:0:0:
197,300,31895,2,0,L|156:260,1,51.999997619629
68,96,32130,6,0,P|116:128|132:172,1,103.999995239258,4|0,0:0|0:0,0:0:0:0:
80,260,32598,1,0,0:0:0:0:
80,260,32833,1,0,0:0:0:0:
196,300,33067,2,0,P|260:296|296:268,1,103.999995239258
272,64,33536,2,0,P|224:108|232:212,1,155.999992858887
300,156,34005,5,0,0:0:0:0:
456,100,34239,1,0,0:0:0:0:
412,252,34473,1,0,0:0:0:0:
384,36,34708,1,0,0:0:0:0:
256,232,34942,2,0,P|204:232|132:160,1,155.999992858887
28,208,35411,2,0,P|72:240|88:292,1,103.999995239258
188,348,35762,1,0,0:0:0:0:
188,348,35880,6,0,P|248:360|292:344,1,103.999995239258
356,272,36348,1,0,0:0:0:0:
380,172,36583,1,0,0:0:0:0:
476,136,36817,2,0,P|480:200|460:236,1,103.999995239258
268,220,37286,1,0,0:0:0:0:
476,136,37520,6,0,P|380:172|284:132,1,207.999990478516
116,132,38223,2,0,L|204:44,1,103.999995239258
372,224,38692,2,0,L|324:128,1,103.999995239258
184,272,39161,1,0,0:0:0:0:
312,352,39395,1,0,0:0:0:0:
296,312,39512,1,0,0:0:0:0:
280,272,39630,5,4,0:2:0:0:
300,152,39864,1,0,0:0:0:0:
372,224,40098,1,0,0:0:0:0:
196,168,40333,1,0,0:0:0:0:
372,80,40567,1,0,0:0:0:0:
280,272,40801,1,0,0:0:0:0:
280,272,41036,2,0,L|296:168,1,103.999995239258
212,64,41505,6,0,L|196:166,1,103.999995239258
172,340,41973,1,0,0:0:0:0:
120,244,42208,1,0,0:0:0:0:
196,168,42442,2,0,P|276:148|360:184,1,155.999992858887,0|0,0:0|2:0,0:0:0:0:
424,244,42911,2,0,L|440:136,1,103.999995239258
360,68,43262,1,0,0:0:0:0:
360,68,43380,6,0,L|328:288,1,207.999990478516
330,273,44083,1,0,0:0:0:0:
240,324,44317,1,0,0:0:0:0:
144,288,44551,1,0,0:0:0:0:
116,188,44786,1,0,0:0:0:0:
192,120,45020,1,0,0:0:0:0:
330,273,45255,6,0,L|408:248,1,60.0000022888184
460,192,45723,2,0,L|403:173,1,60.0000022888184
372,84,46192,2,0,P|332:96|268:76,1,90.0000034332277
216,52,46661,5,0,0:0:0:0:
316,172,46895,1,0,0:0:0:0:
216,52,47130,2,0,P|164:48|104:88,1,120.000004577637
56,276,47598,2,0,P|108:280|168:240,1,120.000004577637
220,164,47950,1,0,0:0:0:0:
220,164,48067,2,0,P|296:188|328:284,1,180.000006866455
288,356,48536,1,0,0:0:0:0:
216,276,48770,1,0,0:0:0:0:
216,276,48887,1,0,0:0:0:0:
216,276,49005,5,0,0:0:0:0:
288,208,49239,1,0,0:0:0:0:
488,264,49473,1,0,0:0:0:0:
416,332,49707,1,0,0:0:0:0:
216,156,49942,1,0,0:0:0:0:
240,196,50059,1,0,0:0:0:0:
288,208,50176,1,0,0:0:0:0:
332,188,50294,1,0,0:0:0:0:
376,208,50411,1,8,0:0:0:0:
464,76,50645,2,0,L|396:68,1,60.0000022888184,0|8,0:0|0:0,0:0:0:0:
332,40,50880,6,0,P|272:48|228:92,1,120.000004577637,4|0,0:2|0:0,0:0:0:0:
274,255,51348,2,0,P|332:248|376:208,1,120.000004577637,8|0,0:0|0:0,0:0:0:0:
