osu file format v12

[General]
AudioFilename: Baby Sweet Berry Love - - _ - _ _ - bilibili.tv - Internet Explorer.mp3
AudioLeadIn: 2000
PreviewTime: 59571
Countdown: 0
SampleSet: Normal
StackLeniency: 0.7
Mode: 0
LetterboxInBreaks: 1
EpilepsyWarning: 1
WidescreenStoryboard: 0

[Editor]
DistanceSpacing: 1
BeatDivisor: 4
GridSize: 8
TimelineZoom: 1

[Metadata]
Title:Baby Sweet Berry Love Feat. JINKELOID
TitleUnicode:Baby Sweet Berry Love Feat. JINKELOID
Artist:Azige
ArtistUnicode:Azige
Creator:- Korean Kiwi -
Version:Jinkela
Source:
Tags:
BeatmapID:396868
BeatmapSetID:162755

[Difficulty]
HPDrainRate:6
CircleSize:4
OverallDifficulty:7
ApproachRate:9
SliderMultiplier:2.00000000596047
SliderTickRate:1

[Events]
//Background and Video events
0,0,"2014-04-26 15;28;07.PNG",0,0
Video,0,"【金坷垃】Baby Sweet Berry Love - 哔哩哔哩 - _ ゜- ゜_つロ 乾杯_ - bilibili.tv - Internet Explorer.flv"
//Break Periods
2,3539,5311
//Storyboard Layer 0 (Background)
//Storyboard Layer 1 (Fail)
//Storyboard Layer 2 (Pass)
//Storyboard Layer 3 (Foreground)
//Storyboard Sound Samples
//Background Colour Transformations
3,100,163,162,255

[TimingPoints]
781,352.941176470588,4,1,1,50,1,0
39516,-66.6666666666667,4,1,1,50,0,0
40103,-100,4,1,1,50,0,0

[HitObjects]
136,152,163,6,0,P|112:200|152:240,2,100.000000298023
256,72,692,2,0,P|360:72|440:152,1,200.000000596047
424,336,1398,2,0,P|320:336|248:264,1,200.000000596047
256,176,1928,5,0,0:0:0:0:
88,288,2280,1,0,0:0:0:0:
176,240,2457,1,0,0:0:0:0:
88,184,2633,2,0,P|16:112|88:112,1,200.000000596047
256,80,3339,5,0,0:0:0:0:
256,96,5911,5,0,0:0:0:0:
344,144,6088,1,0,0:0:0:0:
344,240,6264,1,0,0:0:0:0:
256,288,6441,2,0,B|216:328|216:328|160:328,1,100.000000298023
88,272,6794,2,0,B|88:224|88:224|128:184,1,100.000000298023
128,96,7147,2,0,B|184:96|184:64|224:64|224:96|272:96,1,150.000000447035
368,96,7588,1,0,0:0:0:0:
216,296,8029,2,0,P|256:272|304:320,2,100.000000298023
128,96,8999,5,0,0:0:0:0:
168,64,9088,1,0,0:0:0:0:
208,96,9176,1,0,0:0:0:0:
280,168,9352,1,0,0:0:0:0:
240,264,9529,1,0,0:0:0:0:
336,304,9705,1,0,0:0:0:0:
376,208,9882,1,0,0:0:0:0:
176,192,10235,5,0,0:0:0:0:
80,192,10411,2,0,B|32:144,1,50.0000001490117
40,104,10588,2,0,L|0:64,1,50.0000001490117
48,40,10764,2,0,L|104:96,1,50.0000001490117
136,80,10941,2,0,L|176:120,1,50.0000001490117
216,88,11117,1,0,0:0:0:0:
256,120,11205,1,0,0:0:0:0:
280,72,11294,1,0,0:0:0:0:
320,104,11382,1,0,0:0:0:0:
360,136,11470,1,0,0:0:0:0:
400,168,11558,1,0,0:0:0:0:
400,216,11647,1,0,0:0:0:0:
400,264,11735,1,0,0:0:0:0:
400,312,11823,1,0,0:0:0:0:
312,264,11999,6,0,L|256:264,1,50.0000001490117
224,232,12176,1,0,0:0:0:0:
136,192,12352,2,0,L|136:136,1,50.0000001490117
136,88,12529,1,0,0:0:0:0:
232,88,12705,5,0,0:0:0:0:
280,88,12794,1,0,0:0:0:0:
368,136,12970,1,0,0:0:0:0:
160,272,13411,5,0,0:0:0:0:
96,192,13588,1,0,0:0:0:0:
96,96,13764,1,0,0:0:0:0:
168,24,13941,1,0,0:0:0:0:
240,96,14117,2,0,L|280:56,1,50.0000001490117
328,144,14382,1,0,0:0:0:0:
80,192,14823,5,0,0:0:0:0:
80,96,14999,1,0,0:0:0:0:
160,32,15176,1,0,0:0:0:0:
280,192,15529,1,0,0:0:0:0:
344,112,15705,1,0,0:0:0:0:
448,112,15882,1,0,0:0:0:0:
352,288,16235,6,0,P|384:320|400:264,3,100.000000298023
384,192,16941,2,0,L|344:152,1,50.0000001490117
440,112,17205,1,0,0:0:0:0:
200,192,17647,5,0,0:0:0:0:
112,136,17823,1,0,0:0:0:0:
184,64,17999,1,0,0:0:0:0:
288,64,18176,2,0,P|392:64|472:144,1,200.000000596047
400,200,18705,1,0,0:0:0:0:
136,280,19058,6,0,P|96:240|96:176,2,100.000000298023
240,280,19588,2,0,B|344:280|344:280|384:240|384:240|384:200,1,200.000000596047
256,192,23281,5,0,0:0:0:0:
256,192,23722,2,0,P|184:120|88:120,1,200.000000596047
32,200,24251,1,0,0:0:0:0:
104,272,24428,1,0,0:0:0:0:
200,272,24604,1,0,0:0:0:0:
280,336,24781,2,0,P|352:264|352:168,1,200.000000596047
328,128,25222,1,0,0:0:0:0:
296,88,25310,1,0,0:0:0:0:
256,56,25398,1,0,0:0:0:0:
256,192,26192,5,0,0:0:0:0:
256,192,26545,2,0,P|336:272|424:272,1,200.000000596047
368,168,27075,2,0,P|416:120|416:56,3,100.000000298023
320,88,27780,2,0,B|216:88|216:88|144:160,1,200.000000596047
96,168,28222,2,0,L|144:216,2,50.0000001490117
224,280,28928,6,0,P|256:312|288:280,3,100.000000298023
256,184,29633,1,0,0:0:0:0:
168,136,29810,1,0,0:0:0:0:
256,96,29986,1,0,0:0:0:0:
344,136,30163,1,0,0:0:0:0:
344,232,30339,5,0,0:0:0:0:
256,288,30516,1,0,0:0:0:0:
168,232,30692,1,0,0:0:0:0:
256,184,30869,1,0,0:0:0:0:
224,88,31045,2,0,P|256:56|288:88,3,100.000000298023
392,88,31751,5,0,0:0:0:0:
280,256,32104,1,0,0:0:0:0:
112,144,32457,1,0,0:0:0:0:
232,0,32810,1,0,0:0:0:0:
128,96,34575,6,0,P|88:136|136:184,1,100.000000298023
184,224,34928,2,0,P|224:184|192:120,1,100.000000298023
304,96,35280,1,0,0:0:0:0:
384,152,35457,1,0,0:0:0:0:
304,216,35633,1,0,0:0:0:0:
384,280,35810,1,0,0:0:0:0:
304,344,35986,5,0,0:0:0:0:
304,344,36075,1,0,0:0:0:0:
304,344,36163,1,0,0:0:0:0:
224,280,36339,1,0,0:0:0:0:
120,280,36516,1,0,0:0:0:0:
120,232,36604,1,0,0:0:0:0:
120,184,36692,1,0,0:0:0:0:
72,96,36869,2,0,P|120:80|168:96,2,100.000000298023
384,96,37398,6,0,P|424:136|384:176,1,100.000000298023
312,200,37751,2,0,P|272:160|312:120,1,100.000000298023
216,56,38104,1,0,0:0:0:0:
128,112,38280,1,0,0:0:0:0:
128,216,38457,1,0,0:0:0:0:
216,264,38633,1,0,0:0:0:0:
312,328,38810,6,0,P|376:264|312:200,1,200.000000596047
312,96,39339,1,0,0:0:0:0:
192,96,39516,2,0,P|80:208|192:320,1,300.000012338163
0,192,40222,5,0,0:0:0:0:
152,192,40398,1,0,0:0:0:0:
304,192,40575,1,0,0:0:0:0:
456,192,40751,1,0,0:0:0:0:
304,192,40928,6,0,L|256:144,1,50.0000001490117
176,160,41104,2,0,L|128:112,1,50.0000001490117
104,216,41280,2,0,L|168:280,1,50.0000001490117
232,248,41457,2,0,L|280:296,1,50.0000001490117
304,320,41633,5,0,0:0:0:0:
392,264,41810,1,0,0:0:0:0:
400,168,41986,1,0,0:0:0:0:
304,128,42163,1,0,0:0:0:0:
216,88,42339,6,0,L|136:88,1,50.0000001490117
96,152,42516,2,0,L|24:152,1,50.0000001490117
48,240,42692,2,0,L|120:240,1,50.0000001490117
168,304,42869,2,0,L|248:304,1,50.0000001490117
320,304,43133,6,0,P|360:240|328:176,1,150.000000447035
144,96,43751,2,0,P|96:160|160:264,1,200.000000596047
304,144,44457,5,0,0:0:0:0:
376,216,44633,1,0,0:0:0:0:
304,288,44810,1,0,0:0:0:0:
224,232,44986,1,0,0:0:0:0:
184,200,45075,1,0,0:0:0:0:
144,168,45163,1,0,0:0:0:0:
72,240,45339,1,0,0:0:0:0:
112,272,45428,1,0,0:0:0:0:
152,304,45516,1,0,0:0:0:0:
