osu file format v6

[General]
AudioFilename: ayumu- witchofoccultics.mp3
AudioLeadIn: 1000
PreviewTime: 42529
Countdown: 1
SampleSet: Soft
StackLeniency: 0.7
Mode: 0
LetterboxInBreaks: 1

[Editor]
Bookmarks: 8407
DistanceSpacing: 0.899999976158142
BeatDivisor: 4
GridSize: 8

[Metadata]
Title:Witch of Occultics
Artist:Ayumu
Creator:Azure_Kyte
Version:Red Truth
Source:Umineko no Naku Koro ni Chiru
Tags:Visual Novel Opening When They Cry 4 Game zwei Seagulls

[Difficulty]
HPDrainRate:3
CircleSize:3
OverallDifficulty:3
SliderMultiplier:1.2
SliderTickRate:0.5

[Events]
//Background and Video events
Video,0,"1.flv"
0,0,"umineko_thingy.jpg"
//Break Periods
//Storyboard Layer 0 (Background)
//Storyboard Layer 1 (Fail)
//Storyboard Layer 2 (Pass)
//Storyboard Layer 3 (Foreground)
Sprite,Foreground,Centre,"backgroundvines.png",320,240 F,0,0,,0 F,0,0,443,0,1 F,0,102299,105815,1,0
Sprite,Foreground,Centre,"red_filter.png",320,240 F,0,0,754,0,0.4476904 F,0,754,102299,0.4476904,0.616 F,0,102299,105815,0.616,0
//Storyboard Sound Samples
//Background Colour Transformations
3,100,163,162,255

[TimingPoints]
3226,413.793103448276,4,2,0,100,1,0
59305,-100,4,2,0,100,0,1
72443,-100,4,2,0,100,0,0
72547,-100,4,2,0,100,0,1
89202,-100,4,2,0,100,0,0
89305,-100,4,2,0,100,0,1
89409,-100,4,2,0,100,0,0
102237,-100,4,2,0,100,0,0
102340,-100,4,1,0,100,0,1
102443,-100,4,2,0,100,0,0

[Colours]
Combo1 : 85,0,0
Combo2 : 255,0,0
Combo3 : 166,0,0
Combo4 : 225,0,0

[HitObjects]
256,104,3225,1,2
256,296,3846,1,2
152,192,4467,1,2
360,192,5088,1,2
256,192,5708,1,8
256,192,6122,1,8
360,192,6536,5,2
152,192,7157,1,2
256,296,7777,1,2
256,88,8398,1,2
256,192,9019,1,4
256,304,9432,1,4
360,264,9846,6,2,B|424:224|424:136|344:96,1,180
216,64,11088,1,2
80,152,11708,6,2,B|25:175|25:263|96:296,1,180
192,336,12743,1,2
256,192,13157,12,4,15639
152,192,16467,5,2
368,192,17294,1,2
256,80,17915,1,8
256,192,18329,2,0,B|256:256,1,60,8|4
96,232,19157,6,8,B|64:168|96:112,1,120
256,112,20191,1,2
256,112,20605,1,8
408,136,21225,2,2,B|456:192|408:248,2,120,2|2|2
312,192,22467,5,2
312,192,22674,1,4
136,64,23501,5,2
232,128,23915,2,2,B|312:168|360:112,1,120
344,128,24536,2,2,B|432:198|344:286,1,180
351,279,25363,2,2,B|264:256|160:288,1,180
72,312,26398,1,4
256,120,27432,5,2
176,192,27846,1,8
256,272,28260,1,8
336,192,28674,1,8
256,120,29088,1,4
96,136,29708,6,2,B|96:264,1,120
208,256,30536,2,2,B|280:256,1,60
376,256,31157,2,2,B|432:200|376:136,1,120
352,104,31777,2,2,B|256:72|160:104,1,180,4|0
128,120,32605,1,2
128,120,32812,1,4
256,224,33432,5,2
256,112,33846,2,0,B|256:48,1,60,4|2
96,136,34467,2,2,B|72:192|96:256,2,120
184,80,35708,1,2
184,80,35915,1,4
256,224,36743,5,2
312,320,37157,1,2
208,320,37570,1,2
208,320,37777,1,4
256,112,38605,6,0,B|256:256,1,120,4|2
256,288,39226,1,2
256,288,39432,1,4
168,152,40053,5,2
256,88,40467,1,2
344,152,40881,1,2
344,152,41088,1,4
256,192,41191,12,2,42329
376,80,42950,6,2,B|432:96|456:176,1,120
452,165,43570,2,2,B|384:160|336:208,1,120
216,304,44605,2,2,B|136:296|136:216,1,120
136,229,45226,2,2,B|208:224|232:160,1,120
368,80,46260,6,2,B|320:48|256:64,2,90,6|2|2
368,80,47088,2,2,B|328:112|336:168,1,90,6|2
344,240,47708,1,2
288,240,47915,2,2,B|216:240,2,60,6|2|6
344,240,48536,2,4,B|480:240,1,120
320,320,49570,6,2,B|256:288|184:328,1,120
152,336,50191,2,2,B|96:368|48:336|48:296,1,120
32,208,51019,1,0
24,152,51226,2,2,B|16:112|48:64|96:64,1,120
144,64,51846,2,2,B|216:80|216:152,1,120,6|4
368,192,52881,6,2,B|288:192,3,60
368,280,53915,2,2,B|432:280,2,60,2|2|6
256,32,55363,5,2
256,112,55674,1,2
256,192,55984,1,2
256,192,56191,2,0,B|256:304|384:312,1,180,4|0
419,317,57019,2,2,B|449:328|497:312,3,60,2|2|2|6
328,40,58881,5,2
184,40,59294,1,4
256,184,59915,5,2
281,288,60329,2,2,B|241:320|209:264,3,60,2|2|2|4
96,192,61570,5,2
56,152,61777,2,2,B|32:104|80:48|136:64,1,120
160,56,62398,1,4
376,80,63226,5,2
408,184,63639,2,2,B|368:192|360:224,3,60,2|2|2|6
96,264,65294,6,2,B|56:232|80:184,1,60
128,200,65708,2,2,B|120:160|72:144,1,60
40,136,66122,1,4
128,72,66536,1,2
128,72,66743,1,4
232,72,67157,1,4
360,168,67777,5,2
256,192,68191,1,2
256,192,68398,1,4
152,168,68812,1,4
256,296,69432,5,2
352,256,69846,1,2
352,256,70053,1,4
256,216,70467,1,4
160,176,70881,1,2
160,176,71088,1,4
160,176,71294,1,4
160,176,71501,1,8
160,176,71708,1,4
256,120,72122,6,2,B|320:96|384:120,2,120
208,144,73157,5,2
160,240,73570,1,2
208,328,73984,1,2
256,312,74191,1,4
368,192,74812,5,2
368,192,75019,2,4,B|344:128|272:104,1,120
232,96,75639,1,4
256,312,76467,5,2
256,208,76881,1,2
256,96,77294,1,2
256,96,77501,1,4
512,192,78536,5,2
416,152,78950,1,2
320,192,79363,1,4
256,104,79777,1,2
256,104,79984,1,4
200,192,80398,1,4
104,144,80812,5,2
104,144,81019,1,4
8,192,81432,1,2
8,192,81639,1,4
104,248,82053,1,4
256,312,82674,6,2,B|320:312,2,60,2|6|2
256,256,83294,2,2,B|120:256,1,120,6|2
136,200,83915,1,6
136,200,84122,1,4
384,96,85157,6,2,B|384:160,3,60
328,160,85984,2,2,B|200:160,1,120,6|2
152,160,86605,2,2,B|152:288,1,120,6|2
152,336,87226,1,2
152,336,87432,1,4
256,192,87536,12,4,89294
256,104,89915,5,2
256,296,90536,1,2
152,192,91157,1,2
360,192,91777,1,4
256,192,92191,1,4
360,192,92605,5,2
152,192,93226,1,2
256,296,93846,1,2
256,88,94467,1,2
256,192,95088,1,4
256,192,95501,1,4
344,256,95915,6,2,B|408:216|408:128|328:88,1,180
200,40,97157,1,4
80,160,97777,6,2,B|49:191|49:279|128:312,1,180
240,336,98812,1,4
256,192,99226,5,4
256,192,99432,1,4
256,336,100467,5,4
256,336,100674,1,4
256,48,101708,5,4
256,48,101915,1,4
256,152,102329,5,4
