osu file format v14

[General]
AudioFilename: op.mp3
AudioLeadIn: 0
PreviewTime: 64052
Countdown: 0
SampleSet: Soft
StackLeniency: 0.5
Mode: 0
LetterboxInBreaks: 0
WidescreenStoryboard: 1

[Editor]
Bookmarks: 77535
DistanceSpacing: 1
BeatDivisor: 4
GridSize: 16
TimelineZoom: 2.3

[Metadata]
Title:Hanagoyomi short version
TitleUnicode:華暦 short version
Artist:Ayumi.
ArtistUnicode:Ayumi.
Creator:Fushimi Rio
Version:z1085684963's Insane
Source:花の野に咲くうたかたの
Tags:galgame eroge opening applique PinkHeart Syameimaru-Aya iMage-- Meg chenwu
BeatmapID:785130
BeatmapSetID:324828

[Difficulty]
HPDrainRate:6
CircleSize:4
OverallDifficulty:7
ApproachRate:9
SliderMultiplier:1.8
SliderTickRate:1

[Events]
//Background and Video events
0,0,"bg.jpg",0,0
Video,0,"Hananono.flv"
//Break Periods
2,15253,15953
//Storyboard Layer 0 (Background)
//Storyboard Layer 1 (Fail)
//Storyboard Layer 2 (Pass)
//Storyboard Layer 3 (Foreground)
//Storyboard Sound Samples

[TimingPoints]
1553,500,4,2,1,15,1,0
1553,-133.333333333333,4,2,1,15,0,0
9553,-133.333333333333,4,2,1,30,0,0
10553,-133.333333333333,4,2,1,30,0,0
11553,-133.333333333333,4,2,1,35,0,0
12553,-133.333333333333,4,2,1,40,0,0
13553,-100,4,2,1,45,0,0
14553,-100,4,2,1,50,0,0
16219,-100,4,2,1,15,0,0
16553,-100,4,2,1,40,0,0
16886,333.333333333333,4,2,1,70,1,1
24885,-100,4,2,1,70,0,0
26219,-100,4,2,1,70,0,1
27552,-100,4,2,1,40,0,0
28885,-133.333333333333,4,2,1,40,0,0
41552,-100,4,2,1,40,0,0
41885,-133.333333333333,4,2,1,40,0,0
42219,-100,4,2,1,60,0,0
47052,-100,4,2,1,70,0,0
47552,-100,4,2,1,60,0,0
52219,-100,4,2,1,70,0,0
53219,-100,4,2,1,40,0,0
55552,-66.6666666666667,4,2,1,70,0,0
58219,-133.333333333333,4,2,1,60,0,0
60219,-200,4,2,1,60,0,0
60552,-100,4,2,1,60,0,0
60885,-133.333333333333,4,2,1,60,0,0
62219,-100,4,2,1,60,0,0
63552,-133.333333333333,4,2,1,15,0,0
64219,-133.333333333333,4,2,1,30,0,0
64552,-133.333333333333,4,2,1,15,0,0
64885,-80,4,2,1,80,0,1
86219,-80,4,2,1,80,0,0
88552,-133.333333333333,4,2,1,80,0,0
88885,-100,4,2,1,70,0,1
96885,-100,4,2,1,70,0,0
98219,-100,4,2,1,70,0,1
99219,-100,4,2,1,5,0,0

[Colours]
Combo1 : 255,255,175
Combo2 : 235,165,215
Combo3 : 255,215,185
Combo4 : 245,215,245

[HitObjects]
496,128,1053,6,0,P|464:96|416:144,1,90,0|0,0:0|0:0,0:0:0:0:
384,176,1553,6,0,P|320:208|240:192,1,135.000005149842,8|0,0:1|0:0,0:0:0:0:
176,144,2303,1,0,0:0:0:0:
64,256,2553,2,0,P|160:272|208:304,1,135.000005149842,2|0,0:0|0:0,0:0:0:0:
272,368,3303,1,0,0:0:0:0:
384,272,3553,6,0,L|368:112,1,135.000005149842,2|0,0:0|0:0,0:0:0:0:
128,0,4553,2,0,L|141:134,1,135.000005149842,2|0,0:0|0:0,0:0:0:0:
128,336,5303,1,0,0:0:0:0:
48,256,5553,6,0,P|144:240|208:224,1,135.000005149842,8|0,0:1|0:0,0:0:0:0:
400,304,6553,2,0,P|304:288|240:272,1,135.000005149842,2|0,0:0|0:0,0:0:0:0:
464,80,7553,6,0,P|480:144|480:176,1,67.5000025749208,2|0,0:0|0:0,0:0:0:0:
384,144,8053,2,0,P|368:192|336:224,1,67.5000025749208,0|0,0:0|0:0,0:0:0:0:
288,128,8553,2,0,P|224:160|160:176,1,135.000005149842,2|0,0:0|0:0,0:0:0:0:
352,384,9553,6,0,P|432:352|496:352,1,135.000005149842,8|0,0:1|0:0,0:0:0:0:
512,208,10303,1,0,0:0:0:0:
432,272,10553,2,0,P|365:266|288:256,1,135.000005149842,2|0,0:0|0:0,0:0:0:0:
0,128,11553,6,0,P|66:122|144:112,1,135.000005149842
288,64,12303,1,0,0:0:0:0:
304,192,12553,2,0,L|288:288,1,67.5000025749208,2|0,0:0|0:0,0:0:0:0:
432,160,13053,6,0,P|416:32|416:16,2,135.000005149842,0|8|0,0:0|0:1|0:0,0:0:0:0:
304,192,14303,1,0,0:0:0:0:
208,288,14553,1,2,0:0:0:0:
192,320,15053,1,0,0:0:0:0:
480,288,16553,5,2,0:0:0:0:
400,336,16719,1,0,0:0:0:0:
336,256,16886,54,0,L|352:128,1,90,4|0,1:2|0:0,0:0:0:0:
240,288,17219,2,0,L|256:160,1,90,0|0,1:0|0:0,0:0:0:0:
144,320,17552,2,0,L|160:192,1,90,8|0,1:0|0:0,0:0:0:0:
208,112,17886,1,0,1:0:0:0:
16,64,18052,2,0,P|48:112|64:160,1,90,0|8,0:0|1:0,0:0:0:0:
32,272,18386,5,0,0:0:0:0:
32,272,18469,1,0,0:0:0:0:
32,272,18552,1,0,1:0:0:0:
144,320,18719,1,0,0:0:0:0:
240,240,18885,2,0,P|336:240|400:272,1,135,0|0,1:0|0:0,0:0:0:0:
400,288,19219,1,0,1:0:0:0:
496,208,19385,1,0,0:0:0:0:
320,144,19552,6,0,P|192:160|128:160,1,180,4|0,1:2|1:0,0:0:0:0:
16,112,20052,1,0,0:0:0:0:
96,288,20219,2,0,P|208:288|288:304,1,180,8|0,1:0|1:2,0:0:0:0:
400,384,20719,1,0,0:0:0:0:
480,208,20885,6,0,B|496:224|496:224|400:240,1,90,4|0,1:2|0:0,0:0:0:0:
352,208,21135,1,0,0:0:0:0:
352,208,21219,2,0,L|363:118,1,90,0|0,1:0|0:0,0:0:0:0:
464,64,21552,1,8,1:0:0:0:
336,304,21719,1,0,0:0:0:0:
272,128,21886,2,0,L|284:38,1,90,0|0,1:0|1:0,0:0:0:0:
256,224,22219,6,0,P|192:256|96:256,1,135,4|0,1:2|0:0,0:0:0:0:
80,240,22552,1,0,1:0:0:0:
16,128,22719,1,0,0:0:0:0:
112,32,22885,2,0,B|208:48|208:48|288:32,1,135,8|0,1:0|0:0,0:0:0:0:
288,32,23219,1,0,1:0:0:0:
352,192,23385,1,0,0:0:0:0:
448,96,23552,6,0,P|400:96|336:112,1,90,0|0,1:2|0:0,0:0:0:0:
256,224,23885,2,0,P|208:224|160:208,1,90,0|0,1:2|0:0,0:0:0:0:
384,368,24219,2,0,P|400:288|384:224,1,135,8|0,1:0|0:0,0:0:0:0:
352,192,24552,1,4,0:2:0:0:
272,336,24719,1,0,0:0:0:0:
432,272,24885,5,4,0:0:0:0:
448,240,25385,1,0,1:0:0:0:
240,192,25552,1,4,0:2:0:0:
240,192,25885,2,0,P|272:224|208:224,1,135,0|0,1:0|0:0,0:0:0:0:
192,128,26219,6,0,P|256:112|288:128,1,90,4|0,1:2|3:0,0:0:0:0:
276,119,26469,1,0,3:0:0:0:
276,119,26552,1,0,3:0:0:0:
384,176,26719,1,0,0:0:0:0:
496,48,26885,2,0,P|416:64|320:16,2,180,4|0|2,1:2|0:0|0:0,0:0:0:0:
160,144,28885,6,0,P|224:160|336:80,1,202.500007724762,8|0,0:1|0:0,0:0:0:0:
308,233,29552,2,0,P|382:298|480:288,1,202.500007724762,2|0,0:0|0:0,0:0:0:0:
432,224,30219,1,0,0:0:0:0:
368,288,30385,1,0,0:0:0:0:
272,304,30552,1,0,0:0:0:0:
192,256,30719,1,0,0:0:0:0:
96,240,30885,1,2,0:0:0:0:
96,240,31552,6,0,P|112:160|192:224,1,202.500007724762,0|0,0:0|0:0,0:0:0:0:
288,336,32219,2,0,P|213:382|189:298,1,202.500007724762,2|0,0:0|0:0,0:0:0:0:
272,240,32885,1,0,0:0:0:0:
304,144,33052,1,0,0:0:0:0:
224,80,33219,1,0,0:0:0:0:
288,0,33385,1,0,0:0:0:0:
368,64,33552,1,2,0:0:0:0:
368,64,34219,6,0,P|256:96|160:96,1,202.500007724762,0|0,0:0|0:0,0:0:0:0:
32,208,34885,2,0,P|132:211|229:241,1,202.500007724762,2|0,0:0|0:0,0:0:0:0:
160,304,35552,1,0,0:0:0:0:
144,208,35719,1,0,0:0:0:0:
224,144,35885,1,0,0:0:0:0:
320,192,36052,1,0,0:0:0:0:
336,288,36219,1,2,0:0:0:0:
336,288,36885,6,0,B|416:256|400:304|480:272,1,135.000005149842,0|0,0:0|0:0,0:0:0:0:
384,352,37385,1,0,0:0:0:0:
432,208,37552,2,0,P|416:128|384:96,1,101.250003862381,0|0,0:0|0:0,0:0:0:0:
384,96,37885,2,0,P|384:48|400:16,1,67.5000025749208,2|0,0:0|0:0,0:0:0:0:
256,192,38219,2,0,P|304:176|336:176,1,67.5000025749208,0|0,0:0|0:0,0:0:0:0:
320,175,38469,1,0,0:0:0:0:
320,175,38552,1,2,0:0:0:0:
192,128,38719,1,0,0:0:0:0:
160,256,38885,6,0,P|80:288|16:272,2,135.000005149842,2|0|0,0:0|0:0|0:0,0:0:0:0:
256,192,39635,12,0,41385,0:0:0:0:
496,208,41552,6,0,P|464:160|432:128,2,60,2|0|0,0:0|0:0|0:0,0:0:0:0:
416,224,41885,2,0,P|400:208|352:176,2,45.0000017166138
352,272,42219,6,0,P|288:240|224:240,1,135.000005149842,4|0,0:0|0:0,0:0:0:0:
192,256,42552,1,0,1:0:0:0:
96,320,42719,1,0,0:0:0:0:
0,192,42885,2,0,P|64:208|144:160,1,135,0|0,0:0|0:0,0:0:0:0:
144,144,43219,1,0,1:0:0:0:
176,32,43385,1,0,0:0:0:0:
272,160,43552,6,0,P|320:144|368:144,1,90,2|0,0:0|0:0,0:0:0:0:
416,352,43885,2,0,P|368:368|320:368,1,90,0|0,1:0|0:0,0:0:0:0:
256,320,44219,1,2,0:0:0:0:
128,336,44385,1,0,0:0:0:0:
336,224,44552,2,0,P|400:224|448:240,1,90,0|0,1:0|0:0,0:0:0:0:
496,64,44885,6,0,P|416:96|336:80,1,135,0|0,3:0|0:0,0:0:0:0:
336,80,45219,1,0,1:0:0:0:
192,48,45385,1,0,0:0:0:0:
64,224,45552,2,0,P|176:208|224:224,1,135,0|0,0:0|0:0,0:0:0:0:
224,240,45885,1,0,1:0:0:0:
352,288,46052,1,0,0:0:0:0:
432,176,46219,6,0,L|416:64,1,90,2|0,0:0|0:0,0:0:0:0:
419,86,46469,1,0,0:0:0:0:
419,86,46552,1,0,1:0:0:0:
496,224,46719,1,0,0:0:0:0:
416,336,46885,1,2,0:0:0:0:
352,288,47052,1,0,3:0:0:0:
352,288,47135,1,0,0:0:0:0:
352,288,47219,6,0,L|336:176,1,90,2|0,1:0|0:0,0:0:0:0:
64,272,47552,6,0,P|128:272|208:256,1,135,4|0,0:0|0:0,0:0:0:0:
224,240,47885,1,0,1:0:0:0:
256,64,48052,1,0,0:0:0:0:
336,176,48219,2,0,P|304:272|304:320,1,135,0|0,0:0|0:0,0:0:0:0:
320,352,48552,1,0,1:0:0:0:
176,320,48719,1,0,0:0:0:0:
384,288,48885,6,0,P|432:272|512:256,1,90,2|0,0:0|0:0,0:0:0:0:
288,80,49219,2,0,P|240:144|224:176,1,90,0|0,1:0|0:0,0:0:0:0:
176,320,49552,2,0,P|96:352|0:336,1,180,2|0,0:0|1:0,0:0:0:0:
32,208,50052,1,0,0:0:0:0:
144,96,50219,6,0,B|128:112|128:144|128:144|160:144|176:112,1,90,2|0,0:0|0:0,0:0:0:0:
224,96,50469,1,2,0:0:0:0:
256,32,50552,6,0,B|250:10|222:-5|222:-5|206:21|226:51,1,90,0|0,1:0|0:0,0:0:0:0:
224,96,50802,1,2,0:0:0:0:
255,160,50885,6,0,B|276:165|304:149|304:149|288:122|252:124,1,90,0|0,0:0|0:0,0:0:0:0:
80,352,51219,1,0,1:0:0:0:
224,336,51385,1,0,0:0:0:0:
368,320,51552,6,0,P|432:336|480:336,1,90,2|0,0:0|0:0,0:0:0:0:
272,208,51885,2,0,P|227:212|184:225,1,90,0|0,1:0|0:0,0:0:0:0:
416,176,52219,2,0,P|448:112|464:32,1,135,0|0,0:0|0:0,0:0:0:0:
448,32,52552,2,0,L|464:128,1,90,0|0,1:0|0:0,0:0:0:0:
368,320,52885,5,0,0:0:0:0:
368,320,55552,6,0,P|368:208|448:144,1,202.500007724762,4|0,0:0|1:0,0:0:0:0:
512,128,55885,1,0,1:0:0:0:
304,144,56052,2,0,B|224:128|192:80|192:80|256:48|336:64,1,270.000010299683,0|0,1:0|1:0,0:0:0:0:
272,368,56552,1,0,1:0:0:0:
273,351,56635,1,0,1:0:0:0:
273,334,56718,1,8,1:0:0:0:
271,317,56802,1,0,3:0:0:0:
267,301,56885,6,0,P|176:336|48:336,1,202.500007724762,0|0,3:0|1:0,0:0:0:0:
0,288,57219,1,0,1:0:0:0:
208,208,57385,2,0,L|384:240,1,135.000005149842,0|0,1:0|1:0,0:0:0:0:
128,64,57719,1,0,1:0:0:0:
384,32,57885,1,0,1:0:0:0:
384,32,57969,1,0,1:0:0:0:
384,32,58052,1,0,1:0:0:0:
384,32,58135,1,0,1:0:0:0:
384,32,58219,6,0,L|368:160,1,101.250003862381,0|0,1:0|3:0,0:0:0:0:
368,160,58552,2,0,P|416:144|432:128,1,67.5000025749208,0|0,3:0|3:0,0:0:0:0:
272,80,58885,2,0,P|224:64|160:64,1,101.250003862381,2|0,0:0|3:0,0:0:0:0:
128,64,59219,1,0,3:0:0:0:
32,16,59385,1,0,3:0:0:0:
0,176,59552,6,0,P|32:176|112:160,1,101.250003862381,2|0,0:0|3:0,0:0:0:0:
176,208,59885,2,0,L|192:112,1,67.5000025749208,0|0,3:0|3:0,0:0:0:0:
32,272,60219,2,0,L|43:338,1,67.5000025749208,2|0,0:0|3:0,0:0:0:0:
119,294,60552,2,0,P|168:304|224:304,1,90,0|0,3:0|3:0,0:0:0:0:
368,224,60885,6,0,L|256:240,1,101.250003862381,8|0,0:1|3:0,0:0:0:0:
176,208,61219,2,0,P|160:160|160:128,1,67.5000025749208,0|0,3:0|3:0,0:0:0:0:
400,80,61552,2,0,P|400:128|384:192,1,101.250003862381,2|0,0:0|3:0,0:0:0:0:
368,224,61885,1,0,3:0:0:0:
400,352,62052,1,0,3:0:0:0:
448,272,62219,2,0,B|352:240|304:336|304:336|288:160|256:208|208:96|208:96|128:256|240:208|208:352|208:352|192:320|192:320|176:368|112:400|48:352,1,900,4|0,0:0|0:0,0:0:0:0:
192,336,64219,5,0,0:0:0:0:
320,304,64552,5,0,3:0:0:0:
448,272,64885,6,0,P|480:192|464:96,1,168.75,4|0,0:0|0:0,0:0:0:0:
448,64,65219,1,0,1:0:0:0:
320,144,65385,1,0,0:0:0:0:
224,32,65552,2,0,P|128:80|48:80,1,168.75,0|0,0:0|0:0,0:0:0:0:
32,64,65885,1,0,1:0:0:0:
144,192,66052,1,0,0:0:0:0:
0,304,66219,6,0,L|128:320,1,112.5,8|0,0:1|0:0,0:0:0:0:
448,272,66552,2,0,L|336:258,1,112.5,0|0,1:2|0:0,0:0:0:0:
128,128,66885,2,0,P|112:208|144:320,1,168.75,0|0,0:0|0:0,0:0:0:0:
144,320,67219,1,0,1:2:0:0:
0,176,67385,1,2,0:0:0:0:
208,240,67552,6,0,P|304:208|384:224,1,168.75,0|0,0:2|0:0,0:0:0:0:
448,272,67885,1,0,1:0:0:0:
304,336,68052,1,0,0:0:0:0:
272,128,68219,2,0,P|188:136|110:105,1,168.75,8|0,0:1|0:0,0:0:0:0:
128,128,68552,1,0,1:0:0:0:
336,48,68719,1,0,0:0:0:0:
384,208,68885,6,0,P|384:272|400:320,1,112.5,4|0,0:0|0:0,0:0:0:0:
208,272,69219,2,0,P|224:192|256:144,1,112.5,0|0,1:0|0:0,0:0:0:0:
208,16,69552,2,0,P|128:32|32:80,1,168.75,0|0,0:0|0:0,0:0:0:0:
16,96,69885,1,0,1:0:0:0:
64,240,70052,1,0,0:0:0:0:
256,208,70219,6,0,L|272:80,1,112.5,4|0,0:0|0:0,0:0:0:0:
448,240,70552,2,0,L|434:351,1,112.5,0|0,1:0|0:0,0:0:0:0:
368,128,70885,2,0,L|496:144,1,112.5,2|0,0:0|0:0,0:0:0:0:
336,320,71218,2,0,L|224:306,1,112.5,0|0,1:0|0:0,0:0:0:0:
16,208,71552,6,0,P|128:192|208:144,1,168.75,4|0,0:0|0:0,0:0:0:0:
208,144,71885,2,0,L|192:32,1,112.5,0|0,1:0|0:0,0:0:0:0:
496,176,72219,2,0,P|384:192|304:240,1,168.75,0|0,0:0|0:0,0:0:0:0:
304,240,72552,2,0,L|320:352,1,112.5,0|0,1:0|0:0,0:0:0:0:
208,288,72885,6,0,P|128:256|32:256,1,168.75,0|0,0:0|0:0,0:0:0:0:
0,272,73219,1,0,1:0:0:0:
128,160,73385,1,0,0:0:0:0:
176,384,73552,2,0,P|240:368|304:320,1,112.5,0|0,0:0|0:0,0:0:0:0:
416,48,73885,1,0,1:0:0:0:
480,272,74052,2,0,L|496:112,1,112.5,0|0,0:0|0:0,0:0:0:0:
416,48,74385,5,0,0:0:0:0:
352,176,74552,1,0,1:0:0:0:
352,176,74719,1,0,0:0:0:0:
288,64,74885,1,0,0:0:0:0:
224,192,75052,1,0,1:0:0:0:
160,80,75219,1,0,1:0:0:0:
96,208,75386,1,0,1:0:0:0:
96,208,75469,1,0,1:0:0:0:
96,208,75552,6,0,P|64:128|80:32,1,168.75,4|0,0:0|0:0,0:0:0:0:
96,16,75885,1,0,1:0:0:0:
208,144,76052,1,0,0:0:0:0:
400,128,76219,2,0,P|320:96|224:128,1,168.75,2|0,0:0|0:0,0:0:0:0:
208,144,76552,1,0,1:0:0:0:
128,304,76719,1,0,0:0:0:0:
304,352,76885,6,0,L|432:368,1,112.5,8|0,0:1|0:0,0:0:0:0:
495,145,77219,2,0,L|384:159,1,112.5,0|0,1:0|0:0,0:0:0:0:
400,352,77552,2,0,P|417:270|401:187,1,168.75,0|0,0:0|0:0,0:0:0:0:
384,160,77886,1,0,1:0:0:0:
496,320,78052,1,0,0:0:0:0:
336,256,78219,6,0,P|240:224|160:240,1,168.75,0|0,0:0|0:0,0:0:0:0:
96,272,78552,1,0,1:0:0:0:
224,352,78719,1,0,0:0:0:0:
272,144,78886,2,0,P|349:174|433:166,1,168.75,8|0,0:1|0:0,0:0:0:0:
464,144,79219,1,0,1:0:0:0:
176,112,79386,1,0,0:0:0:0:
128,240,79552,6,0,P|112:304|112:352,1,112.5,2|2,0:0|0:0,0:0:0:0:
304,304,79886,2,0,P|288:224|256:176,1,112.5,0|0,1:0|0:0,0:0:0:0:
304,48,80219,2,0,P|384:80|480:80,1,168.75,0|0,0:0|0:0,0:0:0:0:
496,64,80552,1,0,1:0:0:0:
448,272,80719,1,0,0:0:0:0:
256,240,80886,6,0,L|240:112,1,112.5,4|0,0:0|0:0,0:0:0:0:
64,272,81219,2,0,L|78:383,1,112.5,0|0,1:0|0:0,0:0:0:0:
144,160,81552,2,0,L|16:176,1,112.5,0|0,0:0|0:0,0:0:0:0:
176,352,81885,2,0,L|288:338,1,112.5,0|0,1:0|0:0,0:0:0:0:
496,176,82219,6,0,P|384:160|304:112,1,168.75,4|0,0:0|0:0,0:0:0:0:
304,112,82552,2,0,L|320:0,1,112.5,0|0,1:0|0:0,0:0:0:0:
16,208,82886,2,0,P|128:224|208:272,1,168.75,0|0,0:0|0:0,0:0:0:0:
208,272,83219,2,0,L|192:384,1,112.5,0|0,1:0|0:0,0:0:0:0:
304,320,83552,6,0,P|384:288|480:288,1,168.75,0|0,0:0|0:0,0:0:0:0:
512,304,83886,1,0,1:0:0:0:
384,192,84052,1,0,0:0:0:0:
336,368,84219,2,0,P|272:352|208:304,1,112.5,0|0,0:0|0:0,0:0:0:0:
96,80,84552,1,0,1:0:0:0:
32,304,84719,2,0,L|16:144,1,112.5,0|0,0:0|0:0,0:0:0:0:
96,80,85052,5,0,0:0:0:0:
171,319,85219,2,0,L|155:159,1,112.5,0|0,1:0|3:0,0:0:0:0:
224,96,85552,1,0,3:0:0:0:
288,224,85719,1,0,1:0:0:0:
352,112,85886,1,0,3:0:0:0:
416,240,86052,1,0,3:0:0:0:
480,128,86219,5,4,1:0:0:0:
352,112,86552,1,0,0:0:0:0:
224,96,86885,1,4,1:0:0:0:
96,80,87219,1,0,0:0:0:0:
416,240,87552,5,0,1:2:0:0:
288,224,87719,1,0,3:0:0:0:
288,224,87802,1,0,3:0:0:0:
288,224,87885,1,0,1:0:0:0:
160,208,88052,1,0,3:0:0:0:
32,192,88219,1,8,0:1:0:0:
32,192,88552,6,0,P|48:224|80:240,1,67.5000025749208,0|0,1:0|0:0,0:0:0:0:
160,208,88885,6,0,L|144:80,1,90,4|0,0:0|0:0,0:0:0:0:
272,256,89218,2,0,L|256:128,1,90,0|0,1:0|0:0,0:0:0:0:
384,304,89552,2,0,L|368:176,1,90,8|0,1:0|0:0,0:0:0:0:
288,80,89885,1,0,1:0:0:0:
512,32,90052,2,0,P|480:80|464:128,1,90,0|4,0:0|0:0,0:0:0:0:
480,272,90385,5,0,3:0:0:0:
480,272,90468,1,0,3:0:0:0:
480,272,90551,1,0,1:0:0:0:
368,320,90718,1,0,0:0:0:0:
272,240,90885,2,0,P|176:240|112:272,1,135,0|0,1:2|0:0,0:0:0:0:
112,288,91218,1,0,1:0:0:0:
16,208,91384,1,0,3:0:0:0:
192,144,91551,6,0,P|320:160|384:160,1,180,8|0,1:0|0:0,0:0:0:0:
496,112,92051,1,0,3:0:0:0:
416,288,92218,2,0,P|304:288|224:304,1,180,8|0,1:0|1:0,0:0:0:0:
112,384,92718,1,0,0:0:0:0:
32,256,92885,6,0,P|80:256|144:224,1,90,4|0,1:2|3:0,0:0:0:0:
144,224,93134,1,0,0:0:0:0:
160,208,93219,2,0,L|144:80,1,90,0|0,1:0|0:0,0:0:0:0:
48,64,93551,1,12,1:0:0:0:
176,304,93718,1,0,0:0:0:0:
240,128,93885,2,0,L|228:38,1,90,4|0,1:0|1:0,0:0:0:0:
256,224,94219,6,0,P|320:256|416:256,1,135,4|0,1:2|0:0,0:0:0:0:
432,240,94551,1,0,1:0:0:0:
496,128,94718,1,0,0:0:0:0:
400,32,94885,2,0,B|304:48|304:48|224:32,1,135,8|0,1:0|0:0,0:0:0:0:
224,32,95218,1,0,1:0:0:0:
160,192,95384,1,0,0:0:0:0:
64,96,95552,6,0,P|112:96|176:112,1,90,0|0,1:0|0:0,0:0:0:0:
384,256,95885,2,0,P|341:269|297:269,1,90,0|0,1:0|0:0,0:0:0:0:
144,368,96219,2,0,P|128:288|144:224,1,135,8|0,1:0|0:0,0:0:0:0:
160,192,96551,1,4,0:0:0:0:
240,336,96718,1,0,0:0:0:0:
32,256,96884,5,4,1:2:0:0:
16,224,97384,1,0,0:0:0:0:
272,192,97551,1,4,0:2:0:0:
272,192,97885,2,0,P|240:224|304:224,1,135,0|0,1:0|0:0,0:0:0:0:
320,128,98218,6,0,P|256:112|224:128,1,90,4|0,0:0|3:0,0:0:0:0:
236,119,98468,1,0,3:0:0:0:
236,119,98551,1,0,3:0:0:0:
112,176,98718,1,0,0:0:0:0:
16,48,98885,2,0,P|96:64|192:16,1,180,4|0,0:0|0:0,0:0:0:0:
256,192,99302,12,0,102219,0:0:0:0:
