osu file format v14

[General]
AudioFilename: op.mp3
AudioLeadIn: 0
PreviewTime: 64052
Countdown: 0
SampleSet: Soft
StackLeniency: 0.7
Mode: 0
LetterboxInBreaks: 0
WidescreenStoryboard: 0

[Editor]
Bookmarks: 28885,39552,42219,52885,64552,64885,88885,98885
DistanceSpacing: 0.5
BeatDivisor: 4
GridSize: 4
TimelineZoom: 2.4

[Metadata]
Title:Hanagoyomi short version
TitleUnicode:華暦 short version
Artist:Ayumi.
ArtistUnicode:Ayumi.
Creator:Fushimi Rio
Version:iMage's Insane
Source:花の野に咲くうたかたの
Tags:galgame eroge opening applique PinkHeart Syameimaru-Aya iMage-- Meg chenwu
BeatmapID:730803
BeatmapSetID:324828

[Difficulty]
HPDrainRate:6
CircleSize:4
OverallDifficulty:7
ApproachRate:9
SliderMultiplier:1.6
SliderTickRate:1

[Events]
//Background and Video events
0,0,"bg.jpg",0,0
Video,0,"Hananono.flv"
//Break Periods
//Storyboard Layer 0 (Background)
//Storyboard Layer 1 (Fail)
//Storyboard Layer 2 (Pass)
//Storyboard Layer 3 (Foreground)
//Storyboard Sound Samples

[TimingPoints]
1553,500,4,2,16,30,1,0
1553,-200,4,2,16,30,0,0
16886,333.333333333333,4,2,15,70,1,0
27552,-111.111111111111,4,2,15,70,0,0
27885,-125,4,2,15,65,0,0
28219,-142.857142857143,4,2,15,60,0,0
28552,-166.666666666667,4,2,15,55,0,0
28885,-200,4,2,15,50,0,0
42219,-100,4,2,15,60,0,0
52885,-200,4,2,15,50,0,0
54219,-166.666666666667,4,2,15,50,0,0
54552,-142.857142857143,4,2,15,55,0,0
54885,-125,4,2,15,60,0,0
55219,-111.111111111111,4,2,15,65,0,0
55552,-100,4,2,15,70,0,0
58219,-100,4,2,15,60,0,0
62219,-200,4,2,15,70,0,0
64135,-200,4,2,15,10,0,0
64219,-133.333333333333,4,2,15,70,0,0
64469,-200,4,2,15,10,0,0
64552,-100,4,2,15,70,0,0
64802,-100,4,2,15,10,0,0
64885,-90.9090909090909,4,2,15,80,0,1
86219,-90.9090909090909,4,2,15,70,0,0
87552,-90.9090909090909,4,2,15,80,0,1
88885,-100,4,2,15,70,0,0
99219,-100,4,2,15,30,0,0

[Colours]
Combo1 : 255,255,175
Combo2 : 235,165,215
Combo3 : 255,215,185
Combo4 : 245,215,245

[HitObjects]
207,232,1553,6,0,B|212:228|216:216|216:216|244:232|280:236|304:220|320:204|332:168|316:144|300:124|276:120|260:132|255:151,1,240,2|0,0:1|0:0,0:0:0:0:
144,160,3553,6,0,B|112:160|92:148|80:116|80:116|72:144|52:160|52:160|48:184|56:204|56:204|40:232|47:260,1,240,2|0,0:0|0:0,0:0:0:0:
164,320,5553,6,0,B|184:312|184:312|204:316|204:316|224:312|224:312|248:332|284:336|318:320,2,160,2|2|2,0:1|0:0|0:0,0:0:0:0:
276,248,8053,2,0,L|284:208,2,40,2|0|2,0:0|0:0|0:0,0:0:0:0:
384,328,9053,2,0,L|376:288,1,40
392,204,9553,6,0,B|408:204|420:212|420:212|448:184|436:140|436:140|407:140|386:123,1,160,2|2,0:1|0:0,0:0:0:0:
320,44,11053,1,2,0:0:0:0:
248,124,11553,2,0,B|208:180|276:220|246:277,1,160,2|2,0:0|0:0,0:0:0:0:
175,356,13053,1,2,0:0:0:0:
144,248,13553,6,0,L|64:251,1,80,2|2,0:1|0:0,0:0:0:0:
220,184,14553,1,2,0:0:0:0:
240,280,15053,2,0,P|352:297|416:203,1,240,2|2,0:0|0:0,0:0:0:0:
292,120,16719,1,2,0:0:0:0:
292,120,16886,6,0,P|296:159|309:197,1,80,14|0,0:0|0:0,0:0:0:0:
352,68,17219,2,0,P|318:46|279:42,1,80,8|0,0:0|0:0,0:0:0:0:
191,168,17552,2,0,P|115:182|48:141,1,160,10|8,0:0|0:0,0:0:0:0:
136,76,18052,1,2,0:0:0:0:
292,120,18219,5,8,0:0:0:0:
280,224,18386,1,2,0:0:0:0:
280,224,18469,1,2,0:0:0:0:
280,224,18552,1,10,0:0:0:0:
212,84,18719,1,2,0:0:0:0:
123,208,18885,2,0,P|84:215|45:213,1,80,10|0,0:0|0:0,0:0:0:0:
188,312,19219,2,0,L|267:315,1,80,10|2,0:0|0:0,0:0:0:0:
70,360,19552,6,0,P|34:291|44:213,1,160,8|10,0:0|0:0,0:0:0:0:
136,128,20052,1,2,0:0:0:0:
228,213,20219,2,0,P|238:291|202:361,1,160,10|10,0:0|0:0,0:0:0:0:
136,128,20885,6,0,P|141:89|135:50,1,80,10|2,0:0|0:0,0:0:0:0:
127,37,21135,1,2,0:0:0:0:
116,28,21219,2,0,P|148:50|187:61,1,80,10|2,0:0|0:0,0:0:0:0:
288,136,21552,2,0,P|248:134|208:142,1,80,10|0,0:0|0:0,0:0:0:0:
340,200,21885,1,10,0:0:0:0:
468,104,22052,1,2,0:0:0:0:
444,204,22219,6,0,L|450:283,1,80,14|0,0:0|0:0,0:0:0:0:
288,244,22552,2,0,L|281:164,1,80,10|0,0:0|0:0,0:0:0:0:
359,323,22885,2,0,P|287:353|216:324,1,160,10|10,0:0|0:0,0:0:0:0:
352,172,23385,1,2,0:0:0:0:
152,160,23552,5,10,0:0:0:0:
288,244,23719,1,0,0:0:0:0:
264,128,23885,1,10,0:0:0:0:
192,248,24052,1,0,0:0:0:0:
184,48,24219,1,10,0:0:0:0:
192,60,24552,1,10,0:0:0:0:
256,140,24719,1,2,0:0:0:0:
116,232,24885,5,2,1:2:0:0:
108,244,25219,2,0,L|94:165,1,80,4|0,0:3|1:0,0:0:0:0:
196,312,25552,1,2,1:2:0:0:
204,324,25885,2,0,L|217:245,1,80,8|0,0:0|0:0,0:0:0:0:
112,332,26219,5,14,1:2:0:0:
136,184,26385,1,2,1:2:0:0:
136,184,26469,1,2,1:2:0:0:
136,184,26552,1,2,1:2:0:0:
204,324,26719,1,0,1:0:0:0:
228,176,26885,1,6,1:2:0:0:
228,176,27552,6,0,P|262:189|298:190,1,71.9999978027344,0|0,3:0|0:0,0:0:0:0:
384,176,27885,6,0,P|372:205|369:237,1,64,0|0,3:0|0:0,0:0:0:0:
383,331,28219,6,0,P|357:321|329:317,1,55.9999982910157,0|0,3:0|0:0,0:0:0:0:
226,330,28552,6,0,P|235:308|239:285,1,47.9999985351563,0|0,3:0|0:0,0:0:0:0:
228,176,28885,6,0,L|108:182,1,120,2|0,0:0|0:0,0:0:0:0:
200,103,29552,2,0,P|258:103|300:144,1,120,2|0,0:0|0:0,0:0:0:0:
232,282,30219,2,0,L|226:321,1,40,2|0,0:0|0:0,0:0:0:0:
312,248,30552,2,0,L|320:287,1,40
375,188,30885,2,0,L|417:255,1,80,2|0,0:0|0:0,0:0:0:0:
340,112,31552,6,0,B|428:100|428:100|399:87,1,120,2|0,0:0|0:0,0:0:0:0:
260,56,32219,2,0,B|172:68|172:68|200:80,1,120,2|0,0:0|0:0,0:0:0:0:
256,168,32885,2,0,P|272:179|291:184,1,40,2|0,0:0|0:0,0:0:0:0:
164,204,33219,2,0,P|172:221|186:235,1,40,2|0,0:0|0:0,0:0:0:0:
71,239,33552,2,0,P|65:277|74:316,1,80,2|0,0:0|0:0,0:0:0:0:
188,128,34219,6,0,P|132:114|93:156,1,120,2|0,0:0|0:0,0:0:0:0:
232,240,34885,2,0,P|287:253|326:211,1,120,2|0,0:0|0:0,0:0:0:0:
340,124,35552,2,0,L|336:84,1,40,2|0,0:0|0:0,0:0:0:0:
432,144,35885,2,0,L|428:183,1,40,2|0,0:0|0:0,0:0:0:0:
420,263,36219,2,0,L|412:342,1,80,2|0,0:0|0:0,0:0:0:0:
279,335,36885,6,0,P|223:318|164:329,1,120,2|0,0:0|0:0,0:0:0:0:
44,352,37552,2,0,P|35:313|41:274,1,80,2|0,0:0|0:0,0:0:0:0:
120,136,38219,1,2,0:0:0:0:
28,176,38385,2,0,L|9:168,2,20,0|0|2,0:0|0:0|0:0,0:0:0:0:
132,224,38719,1,2,0:0:0:0:
224,160,38885,2,0,B|240:120|240:120|232:83,1,80,0|2,0:0|0:0,0:0:0:0:
152,48,39385,1,2,0:0:0:0:
152,48,39552,6,0,L|112:56,1,40,2|0,0:0|0:0,0:0:0:0:
120,136,39885,2,0,L|80:144,2,40,0|2|0,0:0|0:0|0:0,0:0:0:0:
256,192,40552,5,2,0:0:0:0:
304,288,40774,2,0,L|298:299,1,13.3333333333333,2|2,0:0|0:0,0:0:0:0:
316,268,40885,2,0,L|356:276,1,40,2|0,0:0|0:0,0:0:0:0:
348,356,41219,2,0,L|388:364,1,40,2|0,0:0|0:0,0:0:0:0:
440,248,41552,6,0,L|442:221,2,26.6666666666667,2|2|2,0:0|0:0|0:0,0:0:0:0:
372,196,41885,2,0,L|374:169,2,26.6666666666667
303,143,42219,6,0,P|248:98|294:43,1,160,4|8,3:2|0:0,0:0:0:0:
412,60,42719,1,0,0:0:0:0:
453,169,42885,2,0,L|439:247,1,80
312,248,43219,2,0,P|276:230|236:229,1,80,8|0,0:0|0:0,0:0:0:0:
168,336,43552,5,0,3:0:0:0:
296,348,43719,1,0,0:0:0:0:
170,254,43885,2,0,P|167:215|184:180,1,80,8|0,0:0|0:0,0:0:0:0:
240,300,44219,1,0,3:0:0:0:
312,248,44385,1,0,3:0:0:0:
96,292,44552,2,0,L|16:299,1,80,8|0,0:0|0:0,0:0:0:0:
25,165,44885,6,0,L|184:180,1,160,0|8,3:0|0:0,0:0:0:0:
240,300,45385,1,0,0:0:0:0:
272,168,45552,2,0,L|264:88,1,80
400,36,45885,2,0,P|412:73|413:113,1,80,8|0,0:0|0:0,0:0:0:0:
312,248,46219,5,0,3:0:0:0:
408,240,46385,1,0,0:0:0:0:
352,160,46552,1,8,0:0:0:0:
232,260,46719,1,0,0:0:0:0:
100,180,46885,1,0,3:0:0:0:
264,188,47052,1,0,3:0:0:0:
268,196,47135,1,0,3:0:0:0:
272,204,47219,2,0,L|265:283,1,80,8|0,0:0|0:0,0:0:0:0:
152,364,47552,6,0,L|165:204,1,160,4|8,3:2|0:0,0:0:0:0:
196,56,48052,1,0,0:0:0:0:
47,24,48219,2,0,P|40:63|39:103,1,80
172,132,48552,2,0,L|250:119,1,80,8|0,0:0|0:0,0:0:0:0:
412,96,48885,6,0,P|419:56|420:16,1,80,0|0,3:0|0:0,0:0:0:0:
344,188,49219,2,0,P|345:227|352:267,1,80,8|0,0:0|0:0,0:0:0:0:
468,360,49552,1,0,3:0:0:0:
440,220,49719,1,0,3:0:0:0:
359,340,49885,2,0,P|320:334|292:307,1,80,8|0,0:0|0:0,0:0:0:0:
240,136,50219,6,0,L|243:215,1,80,0|0,3:0|0:0,0:0:0:0:
200,232,50469,1,0,0:0:0:0:
200,232,50552,2,0,L|203:311,1,80,8|0,0:0|0:0,0:0:0:0:
160,328,50802,1,0,0:0:0:0:
160,328,50885,1,0,0:0:0:0:
308,248,51052,1,0,0:0:0:0:
164,160,51219,1,8,0:0:0:0:
244,308,51385,1,0,0:0:0:0:
312,171,51552,6,0,P|351:174|389:189,1,80,0|0,3:0|0:0,0:0:0:0:
200,112,51885,2,0,P|160:114|122:129,1,80,8|0,0:0|3:0,0:0:0:0:
312,52,52219,2,0,P|391:56|467:81,1,160,0|8,3:0|0:0,0:0:0:0:
476,232,52719,1,0,3:0:0:0:
476,232,52885,5,2,3:0:0:0:
311,335,53552,2,0,P|295:300|308:263,1,80,0|2,0:0|0:0,0:0:0:0:
244,192,54052,1,2,0:0:0:0:
244,192,54219,6,0,L|196:199,1,47.9999985351563,2|0,0:0|0:0,0:0:0:0:
54,139,54552,6,0,L|109:147,1,55.9999982910157,2|0,0:0|0:0,0:0:0:0:
244,86,54885,6,0,L|180:95,1,64,2|0,0:0|0:0,0:0:0:0:
54,33,55219,6,0,L|125:43,1,71.9999978027344,2|0,0:0|0:0,0:0:0:0:
244,192,55552,5,6,1:2:0:0:
340,140,55719,1,8,1:2:0:0:
340,140,55802,1,0,1:0:0:0:
340,140,55885,1,8,1:2:0:0:
244,86,56052,1,0,1:0:0:0:
335,245,56219,1,0,1:0:0:0:
241,301,56386,1,0,1:0:0:0:
241,301,56469,1,0,1:0:0:0:
241,301,56552,1,8,1:2:0:0:
150,134,56719,1,0,1:0:0:0:
152,245,56885,5,6,1:2:0:0:
244,192,57052,1,8,1:2:0:0:
244,192,57135,1,0,1:0:0:0:
244,192,57219,1,8,1:2:0:0:
335,245,57385,1,0,1:0:0:0:
244,86,57552,1,0,1:0:0:0:
340,140,57719,1,8,1:2:0:0:
350,138,57802,1,8,1:2:0:0:
361,136,57885,1,8,1:2:0:0:
371,135,57969,1,8,1:2:0:0:
382,133,58052,1,8,1:2:0:0:
392,131,58135,1,8,1:2:0:0:
403,130,58219,6,0,P|427:183|406:237,1,120,4|2,3:0|3:0,0:0:0:0:
372,256,58552,2,0,P|334:242|294:243,1,80,2|0,3:0|0:0,0:0:0:0:
108,253,58885,2,0,P|84:200|105:146,1,120,4|2,3:0|3:0,0:0:0:0:
140,128,59218,2,0,P|177:141|217:140,1,80,2|0,3:0|0:0,0:0:0:0:
348,92,59552,6,0,B|340:64|305:53|305:53|282:81|298:109,1,120,4|2,3:0|3:0,0:0:0:0:
316,132,59885,2,0,L|395:124,1,80,2|0,3:0|0:0,0:0:0:0:
164,92,60219,2,0,B|172:64|206:53|206:53|229:81|213:109,1,120,4|2,3:0|3:0,0:0:0:0:
196,132,60552,2,0,L|116:124,1,80,2|0,3:0|0:0,0:0:0:0:
120,224,60885,6,0,L|142:341,1,120,4|2,3:0|3:0,0:0:0:0:
164,351,61219,2,0,P|176:314|206:288,1,80,2|0,3:0|0:0,0:0:0:0:
392,224,61552,2,0,L|369:341,1,120,4|2,3:0|3:0,0:0:0:0:
347,351,61886,2,0,P|335:314|305:288,1,80,2|0,3:0|0:0,0:0:0:0:
195,131,62219,6,0,B|160:96|125:96|90:132|90:167|125:202|160:202|196:167|196:167|220:120|254:97|300:96|300:96|272:144|292:193,1,460,4|0,0:0|0:0,0:0:0:0:
320,224,64219,6,0,L|409:217,1,90.0000034332277
433,143,64552,6,0,L|313:150,1,120
256,191,64885,6,0,L|231:276,1,88.000002685547,6|0,0:0|0:0,0:0:0:0:
216,296,65135,1,0,0:0:0:0:
216,296,65219,2,0,P|173:304|129:297,1,88.000002685547,8|0,0:0|0:0,0:0:0:0:
12,207,65552,2,0,P|93:180|170:216,1,176.000005371094,2|8,0:0|0:0,0:0:0:0:
88,288,66052,1,0,0:0:0:0:
216,296,66219,5,2,0:0:0:0:
256,191,66385,1,0,0:0:0:0:
120,108,66552,1,8,0:0:0:0:
160,212,66718,1,0,0:0:0:0:
288,104,66885,2,0,P|244:97|204:112,1,88.000002685547,2|0,0:0|0:0,0:0:0:0:
328,284,67219,1,8,0:0:0:0:
256,191,67385,1,2,0:0:0:0:
408,247,67552,6,0,P|448:231|473:195,1,88.000002685547,2|0,0:0|0:0,0:0:0:0:
468,172,67802,1,0,0:0:0:0:
468,172,67885,2,0,P|454:130|452:86,1,88.000002685547,8|0,0:0|0:0,0:0:0:0:
288,104,68219,2,0,P|227:120|188:72,1,132.00000402832,2|0,0:0|0:0,0:0:0:0:
184,48,68552,2,0,L|165:133,1,88.000002685547,8|0,0:0|0:0,0:0:0:0:
60,280,68885,5,2,0:0:0:0:
216,228,69052,1,2,0:0:0:0:
217,330,69219,1,8,0:0:0:0:
122,363,69385,1,2,0:0:0:0:
120,197,69552,2,0,P|106:114|29:79,1,176.000005371094,2|8,0:0|0:0,0:0:0:0:
32,172,70052,1,0,0:0:0:0:
146,280,70219,6,0,L|233:273,1,88.000002685547,6|0,0:0|0:0,0:0:0:0:
384,196,70552,2,0,L|296:202,1,88.000002685547,8|0,0:0|0:0,0:0:0:0:
120,197,70885,2,0,L|207:190,1,88.000002685547,2|0,0:0|0:0,0:0:0:0:
410,279,71219,2,0,L|322:285,1,88.000002685547,8|0,0:0|0:0,0:0:0:0:
233,273,71552,6,0,P|230:317|240:360,1,88.000002685547,2|0,0:0|0:0,0:0:0:0:
296,202,71885,2,0,P|298:158|289:115,1,88.000002685547,8|0,0:0|0:0,0:0:0:0:
322,285,72219,2,0,P|350:318|388:341,1,88.000002685547,2|0,0:0|0:0,0:0:0:0:
207,190,72552,2,0,P|178:156|140:133,1,88.000002685547,8|0,0:0|0:0,0:0:0:0:
28,68,72885,6,0,L|113:48,1,88.000002685547,2|0,0:0|0:0,0:0:0:0:
156,64,73135,1,0,0:0:0:0:
156,64,73219,2,0,P|199:67|238:47,1,88.000002685547,8|0,0:0|0:0,0:0:0:0:
364,64,73552,1,2,0:0:0:0:
312,188,73719,1,0,0:0:0:0:
204,144,73885,1,8,0:0:0:0:
256,268,74052,1,0,0:0:0:0:
280,112,74219,5,2,0:0:0:0:
176,228,74385,1,2,0:0:0:0:
332,260,74552,2,0,L|417:237,1,88.000002685547,10|0,0:0|0:0,0:0:0:0:
364,64,74885,1,0,0:0:0:0:
247,141,75052,1,0,1:0:0:0:
225,144,75135,1,0,1:0:0:0:
204,144,75219,6,0,L|160:134,1,44.0000013427735,8|0,1:2|1:0,0:0:0:0:
28,192,75385,2,0,L|71:201,1,44.0000013427735,8|0,1:2|1:0,0:0:0:0:
176,228,75552,6,0,P|239:211|300:233,1,132.00000402832,6|0,0:0|0:0,0:0:0:0:
312,252,75885,2,0,L|304:339,1,88.000002685547,8|0,0:0|0:0,0:0:0:0:
436,368,76219,2,0,L|428:280,1,88.000002685547,2|0,0:0|0:0,0:0:0:0:
424,236,76469,1,0,0:0:0:0:
424,236,76552,2,0,L|416:148,1,88.000002685547,8|0,0:0|0:0,0:0:0:0:
264,108,76885,5,2,0:0:0:0:
396,72,77052,1,0,0:0:0:0:
312,24,77219,1,8,0:0:0:0:
348,156,77386,1,0,0:0:0:0:
223,216,77552,2,0,P|210:257|204:301,1,88.000002685547,2|0,0:0|0:0,0:0:0:0:
324,260,77885,1,8,0:0:0:0:
264,108,78052,1,2,0:0:0:0:
156,172,78219,6,0,P|112:169|72:150,1,88.000002685547,2|0,0:0|0:0,0:0:0:0:
52,112,78469,1,0,0:0:0:0:
52,112,78552,2,0,L|48:24,1,88.000002685547,8|0,0:0|0:0,0:0:0:0:
211,115,78885,2,0,P|236:175|209:233,1,132.00000402832,2|0,0:0|0:0,0:0:0:0:
172,256,79219,2,0,L|259:263,1,88.000002685547,8|0,0:0|0:0,0:0:0:0:
151,352,79552,5,2,0:0:0:0:
108,355,79635,1,2,0:0:0:0:
68,338,79719,1,2,0:0:0:0:
40,304,79802,1,2,0:0:0:0:
30,262,79885,2,0,L|36:218,3,44.0000013427735,10|0|0|0,0:0|0:0|0:0|0:0,0:0:0:0:
40,192,80219,2,0,B|64:152|53:110|53:110|91:84|140:103,1,176.000005371094,2|8,0:0|0:0,0:0:0:0:
204,188,80719,1,0,0:0:0:0:
348,111,80885,6,0,P|391:107|433:119,1,88.000002685547,6|0,0:0|0:0,0:0:0:0:
328,187,81219,2,0,P|332:230|320:272,1,88.000002685547,8|0,0:0|0:0,0:0:0:0:
252,168,81552,2,0,P|208:172|166:160,1,88.000002685547,2|0,0:0|0:0,0:0:0:0:
272,92,81885,2,0,P|267:48|279:6,1,88.000002685547,8|0,0:0|0:0,0:0:0:0:
433,119,82219,6,0,P|391:107|348:111,1,88.000002685547,2|0,0:0|0:0,0:0:0:0:
320,272,82552,2,0,P|332:230|328:187,1,88.000002685547,8|0,0:0|0:0,0:0:0:0:
166,160,82885,2,0,P|208:172|252:168,1,88.000002685547,2|0,0:0|0:0,0:0:0:0:
279,6,83219,2,0,P|267:48|272:92,1,88.000002685547,8|0,0:0|0:0,0:0:0:0:
328,187,83552,6,0,L|415:183,1,88.000002685547,2|2,0:0|0:0,0:0:0:0:
452,208,83802,1,2,0:0:0:0:
452,208,83885,1,10,0:0:0:0:
364,320,84052,1,0,0:0:0:0:
232,260,84219,1,2,0:0:0:0:
368,120,84385,1,2,0:0:0:0:
311,264,84552,1,8,0:0:0:0:
240,168,84719,1,2,0:0:0:0:
396,264,84885,6,0,P|439:265|477:243,1,88.000002685547,2|0,0:0|0:0,0:0:0:0:
408,76,85219,1,8,0:0:0:0:
404,86,85302,1,0,0:0:0:0:
401,96,85385,1,8,0:0:0:0:
397,107,85469,1,0,0:0:0:0:
394,117,85552,1,10,0:0:0:0:
264,144,85719,1,10,0:0:0:0:
368,228,85885,1,10,0:0:0:0:
237,254,86052,1,10,0:0:0:0:
341,338,86219,6,0,L|336:162,1,176.000005371094,4|0,0:0|0:0,0:0:0:0:
171,46,86885,2,0,L|175:221,1,176.000005371094,4|0,0:0|0:0,0:0:0:0:
175,221,87552,6,0,L|122:221,1,44.0000013427735,8|0,1:2|1:0,0:0:0:0:
305,191,87719,2,0,L|347:159,1,44.0000013427735,8|0,1:2|1:0,0:0:0:0:
217,291,87885,2,0,L|200:340,1,44.0000013427735,8|0,1:2|1:0,0:0:0:0:
229,157,88052,2,0,L|212:106,1,44.0000013427735,8|0,1:2|1:0,0:0:0:0:
298,274,88219,1,8,1:2:0:0:
298,274,88552,5,10,0:0:0:0:
292,99,88719,1,10,0:0:0:0:
414,194,88885,6,0,P|453:192|488:174,1,80,14|0,0:0|0:0,0:0:0:0:
371,91,89219,2,0,L|291:98,1,80,10|0,0:0|0:0,0:0:0:0:
112,168,89552,2,0,P|73:102|119:42,1,160,10|10,0:0|0:0,0:0:0:0:
200,152,90052,1,2,0:0:0:0:
144,260,90219,6,0,L|64:256,1,80,10|2,0:0|0:0,0:0:0:0:
48,276,90469,1,2,0:0:0:0:
47,276,90552,2,0,P|35:313|40:353,1,80,10|0,0:0|0:0,0:0:0:0:
212,308,90885,2,0,P|224:270|219:230,1,80,10|0,0:0|0:0,0:0:0:0:
52,176,91219,1,10,0:0:0:0:
144,260,91385,1,2,0:0:0:0:
200,152,91552,6,0,P|239:153|276:139,1,80,10|0,0:0|0:0,0:0:0:0:
384,48,91885,2,0,P|362:81|356:120,1,80,10|0,0:0|0:0,0:0:0:0:
381,258,92219,2,0,P|327:207|258:238,1,160,10|10,0:0|0:0,0:0:0:0:
304,328,92719,1,0,0:0:0:0:
176,284,92885,5,10,0:0:0:0:
200,152,93052,1,2,0:0:0:0:
200,152,93135,1,2,0:0:0:0:
200,152,93219,1,10,0:0:0:0:
74,198,93385,1,2,0:0:0:0:
176,284,93552,2,0,L|255:280,1,80,10|0,0:0|0:0,0:0:0:0:
308,196,93885,1,10,0:0:0:0:
372,312,94052,1,2,0:0:0:0:
504,224,94219,6,0,L|424:227,1,80,14|0,0:0|0:0,0:0:0:0:
307,119,94552,2,0,P|309:80|326:44,1,80,10|0,0:0|0:0,0:0:0:0:
458,71,94885,2,0,L|423:227,1,160,10|10,0:0|0:0,0:0:0:0:
372,312,95385,1,2,0:0:0:0:
214,248,95552,5,10,0:0:0:0:
289,234,95719,1,2,0:0:0:0:
164,189,95885,1,10,0:0:0:0:
263,306,96052,1,2,0:0:0:0:
315,161,96219,2,0,L|309:82,1,80,10|0,0:0|0:0,0:0:0:0:
164,189,96552,1,10,0:0:0:0:
289,234,96719,1,2,0:0:0:0:
184,80,96885,5,2,1:2:0:0:
176,88,97219,2,0,L|96:91,1,80,4|0,0:3|1:0,0:0:0:0:
8,220,97552,1,2,1:2:0:0:
16,228,97886,2,0,L|95:231,1,80,8|0,0:0|0:0,0:0:0:0:
95,319,98219,5,14,1:2:0:0:
180,347,98385,1,2,1:2:0:0:
180,347,98469,1,2,1:2:0:0:
180,347,98552,1,2,1:2:0:0:
231,275,98719,1,0,1:0:0:0:
179,204,98885,2,0,P|110:245|95:319,1,160,6|0,1:2|0:0,0:0:0:0:
