osu file format v14

[General]
AudioFilename: op.mp3
AudioLeadIn: 0
PreviewTime: 64052
Countdown: 0
SampleSet: Soft
StackLeniency: 0.4
Mode: 0
LetterboxInBreaks: 0
WidescreenStoryboard: 0

[Editor]
DistanceSpacing: 1
BeatDivisor: 4
GridSize: 16
TimelineZoom: 0.7000002

[Metadata]
Title:Hanagoyomi short version
TitleUnicode:華暦 short version
Artist:Ayumi.
ArtistUnicode:Ayumi.
Creator:Fushimi Rio
Version:Hard
Source:花の野に咲くうたかたの
Tags:galgame eroge opening applique PinkHeart Syameimaru-Aya iMage-- Meg chenwu
BeatmapID:722215
BeatmapSetID:324828

[Difficulty]
HPDrainRate:5
CircleSize:3.5
OverallDifficulty:6.5
ApproachRate:8
SliderMultiplier:1.4
SliderTickRate:1

[Events]
//Background and Video events
0,0,"bg2.jpg",0,0
Video,0,"Hananono.flv"
//Break Periods
2,39751,41469
2,53085,54802
//Storyboard Layer 0 (Background)
//Storyboard Layer 1 (Fail)
//Storyboard Layer 2 (Pass)
//Storyboard Layer 3 (Foreground)
//Storyboard Sound Samples

[TimingPoints]
1553,500,4,2,1,30,1,0
1553,-133.333333333333,4,2,1,30,0,0
3053,-100,4,2,1,30,0,0
3553,-133.333333333333,4,2,1,30,0,0
4803,-100,4,2,1,30,0,0
5553,-133.333333333333,4,2,1,30,0,0
9053,-100,4,2,1,30,0,0
9553,-133.333333333333,4,2,1,30,0,0
16219,-100,4,2,1,15,0,0
16553,-100,4,2,1,40,0,0
16886,333.333333333333,4,2,1,70,1,0
27219,-100,4,2,1,30,0,0
27552,-133.333333333333,4,2,1,40,0,0
42219,-100,4,2,1,60,0,0
52219,-100,4,2,1,70,0,0
53219,-100,4,2,1,40,0,0
55552,-100,4,2,1,70,0,0
58219,-100,4,2,1,60,0,0
63552,-200,4,2,1,15,0,0
64219,-200,4,2,1,30,0,0
64552,-200,4,2,1,15,0,0
64885,-100,4,2,1,80,0,1
74885,-100,4,2,1,80,0,0
75552,-100,4,2,1,80,0,1
86219,-133.333333333333,4,2,1,80,0,0
87552,-76.9230769230769,4,2,1,80,0,1
88885,-100,4,2,1,70,0,0
94219,-100,4,2,1,70,0,0
99219,-100,4,2,1,15,0,0

[Colours]
Combo1 : 255,159,64
Combo2 : 255,128,192
Combo3 : 255,213,170
Combo4 : 0,128,255

[HitObjects]
127,135,1053,6,0,P|119:176|130:211,1,70
197,236,1553,2,0,B|212:206|199:169|199:169|217:118|183:76,1,157.500006008148,8|0,0:1|0:0,0:0:0:0:
114,59,2553,1,2,0:0:0:0:
131,279,3053,6,0,P|162:307|201:315,1,70
321,281,3553,2,0,B|289:281|268:299|268:299|251:244|197:236,1,157.500006008148,2|0,0:0|0:0,0:0:0:0:
188,314,4553,1,2,0:0:0:0:
388,327,5053,6,0,P|402:286|396:251,1,70
359,188,5553,2,0,B|334:215|289:211|289:211|319:240|321:282,1,157.500006008148,8|0,0:1|0:0,0:0:0:0:
399,260,6553,2,0,P|434:222|410:123,1,157.500006008148,2|0,0:0|0:0,0:0:0:0:
359,188,7553,2,0,P|320:164|302:110,1,105.000004005432
384,113,8303,1,0,0:0:0:0:
384,113,8553,1,2,0:0:0:0:
221,246,9053,6,0,P|229:205|218:170,1,70
151,145,9553,2,0,B|136:175|149:212|149:212|131:263|165:305,1,157.500006008148,8|0,0:1|0:0,0:0:0:0:
181,373,10553,2,0,P|236:321|222:246,1,157.500006008148,2|0,0:0|0:0,0:0:0:0:
103,356,11553,2,0,L|-9:356,2,105.000004005432,0|0|2,0:0|0:0|0:0,0:0:0:0:
213,236,13053,1,0,0:0:0:0:
158,296,13553,5,8,0:1:0:0:
98,241,14053,1,0,0:0:0:0:
103,356,14553,1,2,0:0:0:0:
218,351,15053,1,0,0:0:0:0:
256,192,15303,12,0,16553,0:0:0:0:
236,131,16886,6,0,P|196:148|164:184,1,70,4|0,0:0|0:0,0:0:0:0:
244,215,17219,2,0,P|278:241|325:250,1,70,0|0,1:0|0:0,0:0:0:0:
313,166,17552,2,0,P|318:122|249:48,1,140,0|0,1:0|1:0,0:0:0:0:
236,131,18052,5,0,0:0:0:0:
236,131,18219,2,0,P|199:159|165:166,1,70,8|0,1:0|0:0,0:0:0:0:
141,169,18469,1,0,0:0:0:0:
141,169,18552,1,0,1:0:0:0:
111,90,18719,1,0,0:0:0:0:
85,232,18885,1,0,1:0:0:0:
29,73,19219,6,0,L|5:6,2,70,4|0|0,0:2|0:0|1:0,0:0:0:0:
85,232,19885,2,0,L|108:298,2,70,0|0|0,1:0|0:0|1:0,0:0:0:0:
29,73,20552,1,0,1:0:0:0:
141,169,20885,6,0,P|178:141|212:134,1,70,8|0,1:0|0:0,0:0:0:0:
236,131,21135,1,0,0:0:0:0:
236,131,21219,1,0,0:0:0:0:
207,217,21385,1,0,1:0:0:0:
296,199,21552,2,0,P|352:213|409:273,1,140,0|0,1:0|1:0,0:0:0:0:
448,198,22052,5,0,0:0:0:0:
448,198,22219,2,0,P|414:188|380:194,1,70,4|0,0:0|0:0,0:0:0:0:
296,199,22552,2,0,P|304:232|325:259,1,70,0|0,1:0|0:0,0:0:0:0:
371,328,22885,2,0,P|395:303|408:270,1,70,0|0,1:0|0:0,0:0:0:0:
448,198,23219,1,0,1:0:0:0:
372,162,23385,1,0,0:0:0:0:
296,199,23552,6,0,P|262:208|228:202,1,70,8|0,1:0|0:0,0:0:0:0:
97,151,23885,2,0,P|130:141|164:147,1,70,0|0,1:0|0:0,0:0:0:0:
228,202,24219,2,0,P|237:257|165:335,1,140,4|0,0:0|1:0,0:0:0:0:
108,327,24719,1,0,0:0:0:0:
249,384,24885,1,4,0:0:0:0:
192,324,25385,5,0,0:0:0:0:
249,384,25552,2,0,P|272:338|247:263,1,105,4|0,0:0|0:0,0:0:0:0:
237,253,25885,2,0,L|312:253,1,70,0|0,1:0|0:0,0:0:0:0:
398,253,26219,5,4,1:2:0:0:
352,175,26385,2,0,L|311:175,2,35,0|0|0,0:0|0:0|1:0,0:0:0:0:
307,253,26719,1,0,0:0:0:0:
444,175,26885,2,0,P|425:116|356:82,1,140,4|0,0:0|0:0,0:0:0:0:
220,90,27552,6,0,L|189:132,3,52.5000020027161,2|0|2|0,0:0|0:0|0:0|0:0,0:0:0:0:
157,175,28219,2,0,L|188:218,3,52.5000020027161,2|0|2|0,0:0|0:0|0:0|0:0,0:0:0:0:
219,261,28885,6,0,P|283:208|363:217,1,157.500006008148
353,348,29552,2,0,P|286:350|310:287,1,157.500006008148
407,281,30219,2,0,L|463:279,2,52.5000020027161
310,287,30719,1,0,0:0:0:0:
354,212,30885,2,0,P|367:153|321:74,1,157.500006008148
272,160,31552,6,0,P|244:199|141:225,1,157.500006008148
119,75,32219,2,0,P|188:74|172:141,1,157.500006008148
87,154,32885,2,0,P|57:166|39:188,1,52.5000020027161
109,236,33219,2,0,P|90:261|85:290,1,52.5000020027161
171,295,33552,2,0,P|209:286|311:336,1,157.500006008148
439,257,34219,6,0,B|459:228|459:228|401:208|341:240,1,157.500006008148
262,207,34885,2,0,P|227:160|300:136,1,157.500006008148
380,104,35552,2,0,P|367:79|345:59,2,52.5000020027161
363,191,36052,1,0,0:0:0:0:
297,134,36219,2,0,P|253:114|155:151,1,157.500006008148
267,238,36885,6,0,P|249:192|154:149,1,157.500006008148
181,278,37552,2,0,P|206:313|279:333,1,105.000004005432
376,198,38219,1,0,0:0:0:0:
291,229,38385,2,0,L|267:238,2,26.2500010013581
376,198,38719,1,0,0:0:0:0:
430,122,38885,2,0,B|468:153|468:200|468:200|489:189,2,105.000004005432,0|0|2,0:0|0:0|0:0,0:0:0:0:
430,122,42219,6,0,P|372:100|297:122,1,140,4|0,0:0|1:0,0:0:0:0:
239,189,42719,1,0,0:0:0:0:
365,193,42885,2,0,P|387:245|331:300,1,140,0|0,0:0|1:0,0:0:0:0:
245,281,43385,1,0,0:0:0:0:
151,284,43552,6,0,L|108:366,2,70,2|0|0,0:0|0:0|1:0,0:0:0:0:
195,204,44052,1,0,0:0:0:0:
103,204,44219,2,0,B|103:169|126:142|126:142|114:104|128:71,1,140,0|0,0:0|1:0,0:0:0:0:
151,284,44885,6,0,P|205:307|285:275,1,140,0|0,0:0|1:0,0:0:0:0:
214,216,45385,1,0,0:0:0:0:
278,281,45552,2,0,P|332:304|412:272,1,140,0|0,0:0|1:0,0:0:0:0:
341,213,46052,1,0,0:0:0:0:
278,281,46219,5,2,0:0:0:0:
214,216,46385,1,0,0:0:0:0:
277,148,46552,2,0,P|292:115|296:82,2,70,0|0|0,1:0|0:0|0:0,0:0:0:0:
214,216,47052,1,2,0:0:0:0:
128,246,47219,2,0,B|126:217|126:217|137:181|112:144,1,105,2|0,1:0|0:0,0:0:0:0:
96,122,47552,6,0,P|152:136|223:94,1,140,4|0,0:0|1:0,0:0:0:0:
251,19,48052,1,0,0:0:0:0:
289,154,48219,2,0,L|326:288,1,140,0|0,0:0|1:0,0:0:0:0:
249,323,48719,1,0,0:0:0:0:
269,226,48885,6,0,P|299:207|337:204,1,70
415,222,49219,2,0,P|446:238|468:269,1,70,0|0,1:0|0:0,0:0:0:0:
434,350,49552,2,0,P|402:289|415:221,1,140,0|0,0:0|1:0,0:0:0:0:
512,67,50219,5,0,0:0:0:0:
444,116,50385,2,0,L|394:151,2,35,0|0|0,0:0|0:0|1:0,0:0:0:0:
363,72,50719,2,0,L|307:47,2,35
441,23,51052,1,0,0:0:0:0:
444,116,51219,2,0,L|444:214,1,70,0|0,1:0|0:0,0:0:0:0:
443,270,51552,5,2,0:0:0:0:
364,296,51719,1,0,0:0:0:0:
315,228,51885,1,0,1:0:0:0:
363,161,52052,1,0,0:0:0:0:
444,186,52219,2,0,P|463:135|442:47,2,140,0|0|0,0:0|1:0|0:0,0:0:0:0:
54,295,55552,5,4,0:0:0:0:
134,185,55719,1,0,0:0:0:0:
134,321,55885,1,0,1:0:0:0:
54,211,56052,1,0,1:0:0:0:
183,253,56219,2,0,P|268:240|315:188,1,140,8|0,1:0|0:0,0:0:0:0:
370,258,56719,6,0,P|423:214|492:209,1,140,4|0,1:0|0:0,0:0:0:0:
434,313,57219,1,0,1:0:0:0:
370,258,57385,1,0,0:0:0:0:
349,176,57552,1,0,1:0:0:0:
361,92,57719,1,0,0:0:0:0:
361,92,57885,2,0,L|381:54,3,35,0|0|0|0,1:0|0:0|1:0|0:0,0:0:0:0:
394,30,58219,6,0,P|342:52|296:44,1,105
264,26,58552,2,0,L|277:117,1,70,0|0,3:0|3:0,0:0:0:0:
213,163,58885,2,0,P|265:185|311:177,1,105
343,159,59218,2,0,L|330:250,1,70,0|0,3:0|3:0,0:0:0:0:
320,319,59552,6,0,P|268:297|222:305,1,105
190,323,59885,2,0,L|203:232,1,70,0|0,3:0|3:0,0:0:0:0:
139,185,60219,2,0,P|191:163|237:171,1,105
269,189,60552,2,0,L|256:98,1,70,0|0,3:0|3:0,0:0:0:0:
338,30,60885,6,0,L|352:133,1,105
383,151,61219,2,0,L|392:220,1,70,0|0,3:0|3:0,0:0:0:0:
373,333,61552,2,0,L|359:230,1,105
329,212,61886,2,0,L|319:142,1,70,0|0,3:0|3:0,0:0:0:0:
256,192,62219,12,0,63552,0:0:0:0:
137,77,64219,6,0,P|102:78|71:93,1,70,2|0,0:0|0:0,0:0:0:0:
218,97,64885,6,0,P|264:134|281:200,1,105,4|0,0:0|0:0,0:0:0:0:
253,238,65219,2,0,P|260:203|280:175,1,70,0|0,1:0|0:0,0:0:0:0:
382,162,65552,2,0,P|408:184|422:216,1,70
381,289,65885,2,0,P|354:266|340:234,1,70,0|0,1:0|0:0,0:0:0:0:
382,162,66219,6,0,P|409:139|423:107,2,70,8|0|0,0:1|0:0|1:0,0:0:0:0:
297,160,66719,1,0,0:0:0:0:
213,146,66885,2,0,P|157:217|175:287,1,140,2|0,0:0|1:2,0:0:0:0:
167,346,67385,1,0,0:0:0:0:
86,323,67552,6,0,P|113:280|162:262,1,105
203,271,67885,2,0,P|237:275|270:264,1,70,0|0,1:0|0:0,0:0:0:0:
333,208,68219,2,0,P|319:276|340:328,1,105
378,354,68552,2,0,P|359:325|329:309,1,70,0|0,1:0|0:0,0:0:0:0:
247,351,68885,5,4,0:0:0:0:
203,271,69052,1,0,0:0:0:0:
222,181,69219,1,0,1:0:0:0:
178,261,69386,1,0,0:0:0:0:
95,299,69552,2,0,B|50:304|20:268|20:268|25:298|13:331,1,140,0|0,0:0|1:0,0:0:0:0:
88,220,70052,1,0,0:0:0:0:
88,220,70219,6,0,L|149:187,1,70,4|0,0:0|0:0,0:0:0:0:
120,235,70552,2,0,L|192:197,1,70,0|0,1:0|0:0,0:0:0:0:
263,73,70885,6,0,L|248:141,1,70
291,59,71219,2,0,L|276:127,1,70,0|0,1:0|0:0,0:0:0:0:
266,290,71552,6,0,L|280:221,1,70,4|0,0:0|0:0,0:0:0:0:
364,258,71885,2,0,L|297:279,1,70,0|0,1:0|0:0,0:0:0:0:
288,190,72219,2,0,L|339:236,1,70
431,313,72552,1,0,1:0:0:0:
469,132,72885,6,0,P|387:153|337:140,1,105
317,106,73219,2,0,P|348:122|368:150,1,70,0|0,1:0|0:0,0:0:0:0:
226,223,73552,2,0,L|288:190,2,70,2|0|0,0:0|0:0|1:0,0:0:0:0:
226,222,74052,1,0,0:0:0:0:
137,151,74219,5,8,0:1:0:0:
138,232,74385,1,0,0:0:0:0:
165,145,74552,1,0,1:0:0:0:
110,238,74718,1,0,0:0:0:0:
62,315,74885,6,0,P|98:287|170:292,1,105
188,299,75219,2,0,P|239:299|283:268,1,105,4|0,1:0|0:0,0:0:0:0:
303,241,75552,6,0,P|276:285|296:366,1,140,4|0,0:2|1:0,0:0:0:0:
368,304,76052,1,0,0:0:0:0:
385,222,76219,2,0,P|367:187|302:157,1,105
310,157,76552,2,0,P|259:164|234:154,1,70,0|0,1:0|0:0,0:0:0:0:
240,22,76885,6,0,P|264:48|275:81,1,70,8|0,0:1|0:0,0:0:0:0:
159,151,77219,2,0,P|179:103|200:86,1,70,0|0,1:0|0:0,0:0:0:0:
242,158,77552,2,0,P|215:219|136:231,1,140,2|0,0:0|1:0,0:0:0:0:
84,180,78052,1,0,0:0:0:0:
68,261,78219,6,0,P|99:303|149:319,1,105
209,293,78552,2,0,P|175:298|147:318,1,70,0|0,1:0|0:0,0:0:0:0:
265,360,78885,2,0,P|297:299|275:234,1,140,0|0,0:0|1:0,0:0:0:0:
194,214,79385,1,0,0:0:0:0:
275,235,79552,5,2,0:0:0:0:
321,165,79719,1,0,0:0:0:0:
268,100,79886,1,0,1:0:0:0:
190,130,80053,1,0,0:0:0:0:
194,214,80219,2,0,L|202:366,1,140,0|0,0:0|1:0,0:0:0:0:
190,130,80885,6,0,L|129:95,1,70,4|0,0:0|0:0,0:0:0:0:
192,170,81219,2,0,L|132:136,1,70,0|0,1:0|0:0,0:0:0:0:
15,65,81552,6,0,L|17:147,1,70
45,89,81886,2,0,L|47:171,1,70,0|0,1:0|0:0,0:0:0:0:
50,339,82219,6,0,L|48:269,1,70,4|0,0:0|0:0,0:0:0:0:
140,284,82552,2,0,L|80:320,1,70,0|0,1:0|0:0,0:0:0:0:
48,233,82885,2,0,L|109:266,1,70
215,322,83219,1,0,1:0:0:0:
159,162,83552,6,0,P|156:110|180:65,1,105
235,102,83885,2,0,P|203:91|180:65,1,70,0|0,1:0|0:0,0:0:0:0:
251,18,84219,1,2,0:0:0:0:
313,73,84385,1,0,0:0:0:0:
301,156,84552,2,0,L|301:235,1,70,0|0,1:0|0:0,0:0:0:0:
301,352,84885,5,0,0:0:0:0:
327,250,85052,1,0,0:0:0:0:
271,330,85219,1,0,1:0:0:0:
348,282,85385,1,0,0:0:0:0:
265,297,85552,6,0,P|219:241|323:212,1,210,4|0,0:1|0:0,0:0:0:0:
348,282,86219,6,0,P|377:335|434:357,1,105.000004005432,4|0,1:2|0:0,0:0:0:0:
443,187,86885,2,0,P|414:134|357:112,1,105.000004005432,4|0,1:0|0:0,0:0:0:0:
265,297,87552,5,4,0:0:0:0:
359,198,87719,1,0,3:0:0:0:
225,222,87886,1,0,1:0:0:0:
348,282,88052,1,0,1:0:0:0:
283,160,88219,2,0,B|243:89|286:26|286:26|313:77,1,181.999991668702,4|0,0:0|1:0,0:0:0:0:
275,244,88885,6,0,P|235:227|203:191,1,70,4|0,0:0|0:0,0:0:0:0:
283,160,89218,2,0,P|317:134|364:125,1,70,0|0,1:0|0:0,0:0:0:0:
352,209,89551,2,0,P|357:253|288:327,1,140,0|0,1:0|1:0,0:0:0:0:
275,244,90051,1,0,0:0:0:0:
275,244,90218,6,0,P|238:216|204:209,1,70,8|0,1:0|0:0,0:0:0:0:
180,206,90468,1,0,0:0:0:0:
180,206,90551,1,0,1:0:0:0:
150,285,90718,1,0,0:0:0:0:
124,143,90884,1,0,1:0:0:0:
68,302,91218,6,0,L|44:369,2,70,0|0|0,1:0|0:0|1:0,0:0:0:0:
124,143,91885,2,0,L|147:77,2,70,0|0|0,1:0|0:0|1:0,0:0:0:0:
68,302,92551,1,0,1:0:0:0:
180,206,92885,6,0,P|217:234|251:241,1,70,8|0,1:0|0:0,0:0:0:0:
275,244,93134,1,0,0:0:0:0:
275,244,93218,1,0,0:0:0:0:
246,158,93384,1,0,1:0:0:0:
335,176,93552,2,0,P|391:162|448:102,1,140,0|0,1:0|1:0,0:0:0:0:
333,108,94051,1,0,0:0:0:0:
333,108,94219,6,0,P|325:141|334:175,1,70,4|0,0:0|0:0,0:0:0:0:
275,244,94552,2,0,P|303:263|338:266,1,70,0|0,1:0|0:0,0:0:0:0:
385,344,94885,2,0,P|412:322|425:290,1,70,0|0,1:0|0:0,0:0:0:0:
424,198,95219,1,0,1:0:0:0:
424,198,95385,1,0,0:0:0:0:
275,244,95552,6,0,P|252:216|243:183,1,70,8|0,1:0|0:0,0:0:0:0:
233,41,95885,2,0,P|256:66|264:100,1,70,0|0,1:0|0:0,0:0:0:0:
243,183,96219,2,0,P|196:214|95:182,1,140,0|0,1:0|1:0,0:0:0:0:
79,128,96719,1,0,0:0:0:0:
86,279,96885,1,4,0:0:0:0:
116,201,97385,5,0,1:0:0:0:
86,279,97552,2,0,P|137:280|194:226,1,105,4|0,0:0|0:0,0:0:0:0:
200,214,97885,2,0,L|231:281,1,70,0|0,1:0|0:0,0:0:0:0:
269,359,98219,5,4,1:0:0:0:
320,285,98385,2,0,L|307:246,2,35,0|0|0,0:0|0:0|1:0,0:0:0:0:
358,368,98719,1,0,0:0:0:0:
229,277,98885,2,0,P|234:211|292:169,1,140,4|0,1:2|0:0,0:0:0:0:
