osu file format v14

[General]
AudioFilename: op.mp3
AudioLeadIn: 0
PreviewTime: 64052
Countdown: 0
SampleSet: Soft
StackLeniency: 0.4
Mode: 0
LetterboxInBreaks: 0
WidescreenStoryboard: 1

[Editor]
Bookmarks: 63535,64535
DistanceSpacing: 0.5
BeatDivisor: 4
GridSize: 32
TimelineZoom: 1.9

[Metadata]
Title:Hanagoyomi short version
TitleUnicode:華暦 short version
Artist:Ayumi.
ArtistUnicode:Ayumi.
Creator:Fushimi Rio
Version:Ayaya's Extra
Source:花の野に咲くうたかたの
Tags:galgame eroge opening applique PinkHeart Syameimaru-Aya iMage-- Meg chenwu
BeatmapID:723297
BeatmapSetID:324828

[Difficulty]
HPDrainRate:7.2
CircleSize:4.2
OverallDifficulty:8
ApproachRate:9
SliderMultiplier:1.6
SliderTickRate:1

[Events]
//Background and Video events
0,0,"bg.jpg",0,0
Video,0,"Hananono.flv"
//Break Periods
//Storyboard Layer 0 (Background)
//Storyboard Layer 1 (Fail)
//Storyboard Layer 2 (Pass)
//Storyboard Layer 3 (Foreground)
//Storyboard Sound Samples

[TimingPoints]
1553,500,4,2,8,30,1,0
1553,-200,4,2,8,30,0,0
11553,-166.666666666667,4,2,8,30,0,0
15053,-138.888888888889,4,2,8,30,0,0
16428,-138.888888888889,4,2,8,70,0,0
16678,-138.888888888889,4,2,8,50,0,0
16886,333.333333333333,4,2,8,70,1,0
16886,-83.3333333333333,4,2,8,70,0,0
17302,-83.3333333333333,4,2,8,70,0,0
17802,-83.3333333333333,4,2,8,70,0,0
17969,-83.3333333333333,4,2,8,70,0,0
18552,-83.3333333333333,4,2,8,70,0,0
18885,-83.3333333333333,4,2,8,70,0,0
18969,-83.3333333333333,4,2,8,70,0,0
19552,-83.3333333333333,4,2,8,70,0,0
19635,-83.3333333333333,4,2,8,70,0,0
20219,-83.3333333333333,4,2,8,70,0,0
20302,-83.3333333333333,4,2,8,70,0,0
20552,-80,4,2,8,70,0,0
20885,-83.3333333333333,4,2,8,70,0,0
20969,-83.3333333333333,4,2,8,70,0,0
21219,-83.3333333333333,4,2,8,70,0,0
21302,-83.3333333333333,4,2,8,70,0,0
21469,-83.3333333333333,4,2,8,70,0,0
21635,-83.3333333333333,4,2,8,70,0,0
22219,-83.3333333333333,4,2,8,70,0,0
22302,-83.3333333333333,4,2,8,70,0,0
22885,-83.3333333333333,4,2,8,70,0,0
22969,-83.3333333333333,4,2,8,70,0,0
23052,-83.3333333333333,4,2,8,70,0,0
23219,-83.3333333333333,4,2,8,70,0,0
23469,-83.3333333333333,4,2,8,70,0,0
23635,-83.3333333333333,4,2,8,70,0,0
23802,-83.3333333333333,4,2,8,70,0,0
23969,-83.3333333333333,4,2,8,70,0,0
24219,-76.9230769230769,4,2,8,70,0,0
24302,-76.9230769230769,4,2,8,70,0,0
25552,-83.3333333333333,4,2,8,70,0,0
25885,-71.4285714285714,4,2,8,70,0,0
26219,-71.4285714285714,4,2,8,70,0,0
26385,-83.3333333333333,4,2,8,70,0,0
26552,-83.3333333333333,4,2,8,70,0,0
26635,-83.3333333333333,4,2,8,70,0,0
26885,-100,4,2,8,70,0,0
26969,-100,4,2,8,70,0,0
28885,-181.818181818182,4,2,8,50,0,0
40774,-181.818181818182,4,2,8,50,0,0
40885,-181.818181818182,4,2,8,60,0,0
41552,-111.111111111111,4,2,8,70,0,0
41885,-90.9090909090909,4,2,8,70,0,0
42219,-76.9230769230769,4,1,1,50,0,0
50219,-105.263157894737,4,2,8,80,0,0
50385,-105.263157894737,4,1,1,50,0,0
50885,-86.9565217391304,4,1,1,50,0,0
51219,-76.9230769230769,4,2,8,70,0,0
51552,-76.9230769230769,4,1,1,50,0,0
52219,-76.9230769230769,4,2,8,50,0,0
53219,-166.666666666667,4,2,8,70,0,0
55469,-166.666666666667,4,1,1,50,0,0
56719,-100,4,2,8,70,0,0
58469,-90.9090909090909,4,3,0,70,0,0
59219,-86.9565217391304,4,3,0,70,0,0
59885,-83.3333333333333,4,3,0,70,0,0
60885,-80,4,3,0,70,0,0
61552,-76.9230769230769,4,3,0,70,0,0
62219,-125,4,3,0,70,0,0
62274,-125,4,2,8,70,0,0
64219,-100,4,3,0,70,0,0
64469,-100,4,3,0,5,0,0
64552,-100,4,3,0,70,0,0
64802,-100,4,3,0,5,0,0
64885,-66.6666666666667,4,2,8,80,0,1
69552,-66.6666666666667,4,2,2,80,0,1
69802,-66.6666666666667,4,1,1,60,0,1
69969,-66.6666666666667,4,1,1,70,0,1
70219,-66.6666666666667,4,2,8,80,0,1
72469,-66.6666666666667,4,1,1,60,0,1
72719,-66.6666666666667,4,1,2,70,0,1
72885,-66.6666666666667,4,2,8,80,0,1
74052,-66.6666666666667,4,2,2,80,0,1
74885,-81.3008130081301,4,1,0,75,0,1
75552,-66.6666666666667,4,2,8,80,0,1
80219,-66.6666666666667,4,2,2,80,0,1
80469,-66.6666666666667,4,1,1,60,0,1
80719,-66.6666666666667,4,2,2,70,0,1
80885,-66.6666666666667,4,2,8,80,0,1
83135,-66.6666666666667,4,1,1,60,0,1
83385,-66.6666666666667,4,1,1,70,0,1
83552,-66.6666666666667,4,2,8,80,0,1
84219,-66.6666666666667,4,2,2,80,0,1
84552,-66.6666666666667,4,2,8,80,0,1
84719,-66.6666666666667,4,2,2,80,0,1
86219,-90.9090909090909,4,2,0,70,0,0
87552,-66.6666666666667,4,2,0,70,0,1
88469,-66.6666666666667,4,1,0,70,0,1
88635,-66.6666666666667,4,2,0,70,0,1
88885,-83.3333333333333,4,2,8,70,0,0
89802,-83.3333333333333,4,2,8,70,0,0
89885,-83.3333333333333,4,2,8,70,0,0
90469,-83.3333333333333,4,2,8,70,0,0
90552,-83.3333333333333,4,2,8,70,0,0
91885,-83.3333333333333,4,2,8,70,0,0
91969,-83.3333333333333,4,2,8,70,0,0
92052,-83.3333333333333,4,2,8,70,0,0
92135,-83.3333333333333,4,2,8,70,0,0
92552,-83.3333333333333,4,2,8,70,0,0
92802,-83.3333333333333,4,2,8,70,0,0
93135,-83.3333333333333,4,2,8,70,0,0
93219,-83.3333333333333,4,2,8,70,0,0
93885,-83.3333333333333,4,2,8,70,0,0
93969,-83.3333333333333,4,2,8,70,0,0
95135,-83.3333333333333,4,2,8,70,0,0
95219,-83.3333333333333,4,2,8,70,0,0
95552,-83.3333333333333,4,2,8,70,0,0
95635,-83.3333333333333,4,2,8,70,0,0
95969,-83.3333333333333,4,2,8,70,0,0
96135,-83.3333333333333,4,2,8,70,0,0
96219,-76.9230769230769,4,2,8,70,0,0
96552,-84.0336134453781,4,2,8,70,0,0
97885,-71.4285714285714,4,2,8,70,0,0
98385,-83.3333333333333,4,2,8,70,0,0
98552,-83.3333333333333,4,2,8,70,0,0
98885,-100,4,2,8,70,0,0
99385,-100,4,2,0,30,0,0
99552,-100,4,2,0,20,0,0
99885,-100,4,2,0,15,0,0
100219,-100,4,2,0,13,0,0
100552,-100,4,2,0,11,0,0
100885,-100,4,2,0,9,0,0
101219,-100,4,2,0,8,0,0
101552,-100,4,2,0,7,0,0
101885,-100,4,2,0,6,0,0
102219,-100,4,2,0,5,0,0

[Colours]
Combo1 : 255,255,175
Combo2 : 235,165,215
Combo3 : 255,215,185
Combo4 : 245,215,245

[HitObjects]
478,320,1053,5,0,0:0:0:0:
430,382,1303,1,0,0:0:0:0:
400,308,1553,2,0,P|397:291|399:268,1,40,2|0,0:0|0:0,0:0:0:0:
303,251,2053,5,2,0:0:0:0:
354,233,2303,1,0,0:0:0:0:
342,287,2553,1,2,0:0:0:0:
342,287,3053,5,0,0:0:0:0:
297,351,3303,1,0,0:0:0:0:
263,279,3553,2,0,P|259:262|259:239,1,40,2|0,0:0|0:0,0:0:0:0:
163,227,4053,5,2,0:0:0:0:
204,261,4303,1,0,0:0:0:0:
213,206,4553,1,2,0:0:0:0:
204,261,5053,5,0,0:0:0:0:
162,327,5303,1,0,0:0:0:0:
124,257,5553,2,0,P|52:236|-12:298,2,160,2|0|2,0:0|0:0|0:0,0:0:0:0:
162,327,7803,1,0,0:0:0:0:
194,343,8053,1,2,0:0:0:0:
278,273,8303,1,0,0:0:0:0:
414,252,8553,1,2,0:0:0:0:
414,252,9053,6,0,P|421:217|429:204,1,40
444,173,9553,2,0,P|457:136|477:93,1,80,2|0,0:0|0:0,0:0:0:0:
473,98,10553,2,0,P|441:70|362:67,1,120
306,129,11553,6,0,P|260:137|212:118,1,95.9999970703126,2|0,0:0|0:0,0:0:0:0:
221,16,12553,2,0,P|267:8|315:27,1,95.9999970703126,2|0,0:0|0:0,0:0:0:0:
157,68,13553,5,2,0:0:0:0:
83,32,14053,1,0,0:0:0:0:
25,91,14553,1,2,0:0:0:0:
144,150,15053,2,0,B|163:219|145:269|77:310|77:310|36:263|37:211|68:156,1,345.6000084375,0|0,0:0|1:0,0:0:0:0:
89,88,16719,1,0,2:0:0:0:
281,31,16886,6,0,L|441:14,1,143.999995605469,14|0,0:0|0:0,0:0:0:0:
454,29,17219,2,0,B|436:75|436:75|457:142,1,95.9999970703126,8|0,0:0|0:0,0:0:0:0:
480,199,17552,1,12,0:0:0:0:
347,179,17719,1,0,0:0:0:0:
366,182,17803,1,2,0:0:0:0:
386,185,17886,1,8,0:0:0:0:
416,264,18052,1,0,0:0:0:0:
440,352,18219,5,12,0:0:0:0:
297,329,18386,2,0,L|250:320,1,47.9999985351563,0|2,0:0|0:0,0:0:0:0:
108,298,18552,1,10,0:0:0:0:
179,286,18719,1,8,0:0:0:0:
153,353,18885,2,0,B|83:375|86:325|12:351,1,143.999995605469,14|0,0:0|0:0,0:0:0:0:
12,350,19219,2,0,P|-9:310|3:262,1,95.9999970703126,6|8,0:0|0:0,0:0:0:0:
121,202,19552,6,0,P|140:132|112:58,1,143.999995605469,12|0,0:0|0:0,0:0:0:0:
91,39,19885,2,0,P|155:37|190:11,1,95.9999970703126,8|2,0:0|0:0,0:0:0:0:
0,101,20219,2,0,P|61:73|160:97,1,143.999995605469,14|0,0:0|0:0,0:0:0:0:
180,20,20552,2,0,L|295:24,1,100,10|2,0:0|0:0,0:0:0:0:
452,30,20885,5,12,0:0:0:0:
387,78,21052,1,0,0:0:0:0:
385,121,21135,1,2,0:0:0:0:
412,154,21219,1,10,0:0:0:0:
492,153,21385,1,8,0:0:0:0:
385,121,21552,6,0,L|229:113,1,143.999995605469,14|0,0:0|0:0,0:0:0:0:
257,191,21885,5,2,0:0:0:0:
312,39,22052,1,8,0:0:0:0:
185,168,22219,6,6,P|193:238|263:267,1,143.999995605469,14|0,0:0|0:0,0:0:0:0:
287,261,22552,2,0,B|332:242|332:242|391:264,1,95.9999970703126,8|0,0:0|0:0,0:0:0:0:
447,283,22885,1,12,0:0:0:0:
433,166,23052,1,0,0:0:0:0:
435,184,23135,1,2,0:0:0:0:
437,203,23219,1,8,0:0:0:0:
508,228,23385,1,0,0:0:0:0:
455,361,23552,5,14,0:0:0:0:
447,283,23719,1,8,0:0:0:0:
294,181,23885,5,10,0:0:0:0:
278,337,24052,1,6,0:0:0:0:
185,339,24219,6,0,B|154:319|154:319|134:332|134:332|101:317|68:328|39:360,1,155.999992858887,6|0,0:0|0:0,0:0:0:0:
36,370,24552,6,0,L|23:262,1,103.999995239258,6|2,0:0|0:0,0:0:0:0:
86,137,24885,1,8,1:2:0:0:
15,176,25219,5,2,0:0:0:0:
24,275,25385,1,6,0:0:0:0:
86,137,25552,2,0,P|137:112|227:116,1,143.999995605469,8|0,0:0|0:0,0:0:0:0:
225,71,25885,6,0,P|150:64|57:103,1,167.999994873047,8|0,1:2|0:0,0:0:0:0:
51,109,26219,5,6,0:0:0:0:
242,81,26385,2,0,P|260:94|285:127,1,47.9999985351563,0|2,0:0|0:0,0:0:0:0:
160,191,26552,1,10,0:0:0:0:
51,109,26719,1,2,0:0:0:0:
132,9,26885,6,0,B|156:48|65:78|73:170,1,160,14|0,0:0|0:0,0:0:0:0:
299,30,27552,5,2,0:0:0:0:
453,5,27719,1,0,0:0:0:0:
321,41,27885,5,2,0:0:0:0:
424,46,28052,1,0,0:0:0:0:
478,123,28219,5,2,0:0:0:0:
443,187,28385,1,0,0:0:0:0:
472,269,28552,5,2,0:0:0:0:
478,301,28719,1,0,0:0:0:0:
404,327,28885,6,0,P|344:342|284:382,1,132.00000402832
228,331,29552,2,0,P|156:333|84:309,1,132.00000402832,2|0,0:0|0:0,0:0:0:0:
26,290,30219,2,0,P|28:332|26:339,1,44.0000013427735
2,255,30552,2,0,P|0:213|2:206,1,44.0000013427735
42,152,30885,1,2,0:0:0:0:
23,56,31552,6,0,P|72:62|150:32,1,132.00000402832
224,18,32219,2,0,P|289:13|349:40,1,132.00000402832,2|2,0:0|0:0,0:0:0:0:
419,68,32885,2,0,P|426:37|420:6,1,44.0000013427735,2|0,0:0|0:0,0:0:0:0:
391,94,33219,2,0,P|384:125|390:156,1,44.0000013427735,2|0,0:0|0:0,0:0:0:0:
470,124,33552,1,0,0:0:0:0:
469,209,34219,6,0,P|428:204|339:222,1,132.00000402832
273,179,34885,2,0,P|207:183|143:166,1,132.00000402832,2|0,0:0|0:0,0:0:0:0:
78,205,35552,2,0,P|83:228|85:257,1,44.0000013427735
51,174,35885,2,0,P|46:151|44:122,1,44.0000013427735
0,224,36219,1,2,0:0:0:0:
78,205,36885,6,0,P|133:210|218:241,1,132.00000402832
279,176,37552,6,0,P|278:136|268:88,2,88.000002685547,2|0|2,0:0|0:0|0:0,0:0:0:0:
366,235,38385,1,0,0:0:0:0:
404,239,38469,1,0,0:0:0:0:
436,216,38552,2,0,L|443:160,1,44.0000013427735,2|0,0:0|0:0,0:0:0:0:
494,283,38885,2,0,L|503:386,2,88.000002685547,2|2|0,0:0|0:0|0:0,0:0:0:0:
498,255,39719,5,0,0:0:0:0:
429,199,39885,1,0,0:0:0:0:
414,151,40052,1,0,0:0:0:0:
466,59,40219,1,2,0:0:0:0:
466,59,40552,1,2,0:0:0:0:
481,36,40774,6,0,L|486:9,2,14.6666671142578
342,145,41052,1,0,0:0:0:0:
225,136,41219,1,2,0:0:0:0:
159,39,41385,1,0,0:0:0:0:
17,10,41552,2,0,P|27:41|25:67,2,47.9999985351563,2|0|0,0:0|0:0|0:0,0:0:0:0:
134,171,41885,2,0,P|121:197|117:226,2,58.6666684570313
297,233,42219,6,0,B|368:247|368:247|428:219|428:219|496:230,1,207.999990478516,4|8,0:0|0:0,0:0:0:0:
439,312,42719,1,0,0:0:0:0:
404,38,42885,2,0,L|419:166,1,103.999995239258,4|0,0:0|0:0,0:0:0:0:
381,180,43135,1,0,0:0:0:0:
330,166,43219,1,8,0:0:0:0:
498,82,43385,1,0,0:0:0:0:
301,52,43552,6,0,L|419:35,1,103.999995239258,4|0,0:0|0:0,0:0:0:0:
483,194,43885,2,0,L|364:177,1,103.999995239258,8|0,0:0|0:0,0:0:0:0:
336,326,44219,2,0,L|454:309,1,103.999995239258
481,335,44469,1,0,0:0:0:0:
512,373,44552,1,8,0:0:0:0:
380,179,44719,1,0,0:0:0:0:
215,233,44885,6,0,B|144:247|144:247|84:219|84:219|15:230,1,207.999990478516,4|8,0:0|0:0,0:0:0:0:
73,312,45385,1,0,0:0:0:0:
108,38,45552,2,0,L|93:166,1,103.999995239258,4|0,0:0|0:0,0:0:0:0:
131,180,45801,1,0,0:0:0:0:
182,166,45885,1,8,0:0:0:0:
14,82,46051,1,0,0:0:0:0:
211,52,46218,6,0,L|92:35,1,103.999995239258,4|0,0:0|0:0,0:0:0:0:
29,194,46552,2,0,L|131:179,1,103.999995239258,8|0,0:0|0:0,0:0:0:0:
176,326,46885,2,0,L|57:309,1,103.999995239258
31,335,47135,1,0,0:0:0:0:
0,373,47219,2,0,P|59:352|114:359,1,103.999995239258,8|8,0:0|0:0,0:0:0:0:
307,383,47552,6,0,P|393:329|494:347,1,207.999990478516,4|8,0:0|0:0,0:0:0:0:
458,254,48052,1,0,0:0:0:0:
348,181,48219,2,0,L|466:164,1,103.999995239258,4|0,0:0|0:0,0:0:0:0:
482,124,48469,1,0,0:0:0:0:
455,79,48552,1,8,0:0:0:0:
338,261,48719,1,0,0:0:0:0:
293,110,48885,5,4,0:0:0:0:
310,284,49052,1,0,0:0:0:0:
369,66,49219,1,8,0:0:0:0:
420,305,49385,1,0,0:0:0:0:
437,11,49552,6,0,B|468:21|483:40|483:40|478:65|424:100,1,103.999995239258
410,84,49802,1,0,0:0:0:0:
369,66,49885,1,8,0:0:0:0:
257,20,50052,5,8,0:0:0:0:
76,69,50219,6,0,L|172:80,1,75.9999979705811,4|0,0:0|0:0,0:0:0:0:
108,143,50469,1,8,0:0:0:0:
114,161,50552,6,0,L|208:171,1,75.9999979705811,4|0,0:0|0:0,0:0:0:0:
145,234,50802,1,0,0:0:0:0:
151,252,50885,6,0,P|166:301|159:353,1,92.0000017547608,8|0,0:0|0:0,0:0:0:0:
6,364,51219,2,0,P|-11:315|6:258,1,103.999995239258,2|0,0:0|0:0,0:0:0:0:
79,313,51552,1,4,0:0:0:0:
239,290,51719,1,0,0:0:0:0:
216,130,51885,1,8,0:0:0:0:
56,153,52052,1,0,0:0:0:0:
147,221,52219,1,0,0:0:0:0:
151,246,52385,5,2,0:0:0:0:
122,225,52552,1,2,0:0:0:0:
143,196,52718,1,2,0:0:0:0:
172,217,52885,1,2,0:0:0:0:
388,181,53219,6,0,L|486:172,2,95.9999970703126
306,167,54219,2,0,P|270:157|197:165,1,95.9999970703126,2|0,0:0|0:0,0:0:0:0:
36,183,54885,2,0,P|82:194|130:189,1,95.9999970703126,2|0,0:0|0:0,0:0:0:0:
211,160,55552,5,4,0:0:0:0:
319,180,55719,1,8,0:0:0:0:
297,4,55885,1,0,0:0:0:0:
198,51,56052,1,4,0:0:0:0:
372,84,56219,1,0,0:0:0:0:
462,123,56385,2,0,L|485:119,3,23.9999992675781
441,168,56719,6,0,B|390:204|346:138|273:178,1,160,4|0,1:0|0:0,0:0:0:0:
232,219,57219,5,8,1:2:0:0:
204,290,57385,1,4,3:1:0:0:
266,334,57552,5,0,3:0:0:0:
279,255,57719,1,0,1:0:0:0:
271,216,57803,1,0,3:0:0:0:
258,178,57886,1,0,3:0:0:0:
244,141,57969,1,0,3:0:0:0:
238,101,58053,1,0,3:0:0:0:
243,61,58136,1,0,3:0:0:0:
255,23,58219,1,0,0:0:0:0:
467,74,58469,5,0,0:0:0:0:
467,74,58552,2,0,L|367:89,1,88.000002685547
104,112,58885,2,0,B|16:125|16:125|92:154,1,132.00000402832
101,150,59219,2,0,L|205:168,1,92.0000017547608
418,191,59552,2,0,B|506:204|506:204|428:232,1,138.000002632141
414,229,59885,2,0,L|306:245,1,95.9999970703126
97,264,60219,2,0,B|9:277|9:277|89:304,1,143.999995605469
95,301,60552,2,0,L|203:317,1,95.9999970703126
463,339,60885,5,0,0:0:0:0:
256,194,61135,1,0,0:0:0:0:
265,271,61219,1,0,0:0:0:0:
247,117,61385,1,0,0:0:0:0:
49,45,61552,5,0,0:0:0:0:
256,190,61801,1,0,0:0:0:0:
247,267,61885,1,0,0:0:0:0:
265,113,62051,1,0,0:0:0:0:
15,191,62219,6,0,B|268:60|239:329|505:188,1,512,4|0,3:2|0:0,0:0:0:0:
329,92,64219,6,0,P|383:23|423:1,1,120
358,205,64552,6,0,P|271:192|232:169,1,120
442,124,64885,6,0,B|474:222|407:200|451:334,1,180.000006866455,14|2,0:0|0:0,0:0:0:0:
425,349,65219,2,0,P|480:330|483:263,1,120.000004577637,10|2,3:2|0:0,0:0:0:0:
357,28,65552,2,0,B|325:126|392:104|348:238,1,180.000006866455,12|2,0:0|0:0,0:0:0:0:
373,255,65885,2,0,P|318:236|315:169,1,120.000004577637,10|2,3:2|0:0,0:0:0:0:
481,146,66219,2,0,P|492:203|435:239,1,120.000004577637,6|2,0:2|0:0,0:0:0:0:
303,104,66552,1,6,3:2:0:0:
469,70,66719,1,6,0:2:0:0:
410,235,66885,6,0,L|199:229,1,180.000006866455,14|2,0:2|0:0,0:0:0:0:
168,266,67219,1,6,3:2:0:0:
155,29,67385,1,8,0:0:0:0:
0,123,67552,6,0,B|37:81|100:60|100:60|126:73|176:94,1,180.000006866455,6|2,0:0|0:0,0:0:0:0:
200,117,67885,2,0,P|202:57|153:29,1,120.000004577637,10|2,3:2|0:0,0:0:0:0:
124,214,68219,2,0,B|161:256|224:277|224:277|250:264|300:243,1,180.000006866455,6|2,0:0|0:0,0:0:0:0:
324,220,68552,2,0,P|326:280|277:308,1,120.000004577637,10|2,3:2|0:0,0:0:0:0:
177,159,68885,2,0,P|227:127|277:158,1,120.000004577637,12|2,0:0|0:0,0:0:0:0:
146,294,69219,1,6,3:2:0:0:
319,64,69385,1,6,0:0:0:0:
431,328,69552,6,0,B|356:337|294:364|294:364|326:300,1,180.000006866455,6|0,0:2|0:0,0:0:0:0:
350,307,69885,1,8,0:0:0:0:
435,199,70052,1,0,0:2:0:0:
415,29,70219,6,0,P|419:108|494:215,1,180.000006866455,12|0,1:2|0:0,0:0:0:0:
327,91,70552,6,0,P|403:111|528:73,1,180.000006866455,2|0,0:0|0:0,0:0:0:0:
361,193,70885,6,0,P|404:126|406:-3,1,180.000006866455,12|0,0:0|0:0,0:0:0:0:
467,193,71219,6,0,P|417:131|293:88,1,180.000006866455,2|0,0:0|0:0,0:0:0:0:
500,90,71553,6,0,P|426:118|347:222,1,180.000006866455,12|0,0:0|0:0,0:0:0:0:
258,360,71885,6,0,P|270:281|219:161,1,180.000006866455,2|0,0:0|0:0,0:0:0:0:
144,14,72219,6,0,P|205:63|335:79,1,180.000006866455,14|0,0:0|0:0,0:0:0:0:
297,137,72552,1,8,0:0:0:0:
130,141,72719,1,0,0:0:0:0:
300,154,72885,6,0,L|111:130,1,180.000006866455,6|2,0:0|0:0,0:0:0:0:
92,180,73219,2,0,P|64:132|93:79,1,120.000004577637,10|0,0:0|0:0,0:0:0:0:
10,327,73552,6,0,L|176:305,1,120.000004577637,6|0,0:0|0:0,0:0:0:0:
263,251,73885,1,10,0:0:0:0:
247,360,74052,1,12,0:0:0:0:
422,328,74219,6,0,B|374:338|320:305|320:305|289:333|252:328,1,180.000006866455,6|0,0:0|0:0,0:0:0:0:
263,251,74552,2,0,L|268:116,1,120.000004577637,10|2,0:0|0:0,0:0:0:0:
432,26,74885,6,0,P|467:97|446:201,1,147.600002252197
271,311,75219,6,0,P|314:245|415:211,1,147.600002252197,8|0,0:0|0:0,0:0:0:0:
437,260,75552,6,0,B|343:290|354:209|243:259,1,180.000006866455,14|2,0:0|0:0,0:0:0:0:
206,221,75885,2,0,P|242:192|310:210,1,120.000004577637,10|2,3:2|0:0,0:0:0:0:
36,351,76219,2,0,B|130:381|119:300|230:350,1,180.000006866455,6|2,0:0|0:0,0:0:0:0:
266,311,76552,2,0,P|230:282|162:300,1,120.000004577637,10|2,3:2|0:0,0:0:0:0:
468,287,76885,2,0,P|411:273|362:305,1,120.000004577637,6|2,0:0|0:0,0:0:0:0:
207,362,77219,1,6,3:2:0:0:
424,353,77385,1,6,0:0:0:0:
322,157,77552,6,0,B|299:78|305:20|305:20|317:41|352:77,1,180.000006866455,14|2,0:0|0:0,0:0:0:0:
365,70,77885,1,6,3:2:0:0:
183,184,78052,1,8,0:0:0:0:
28,50,78219,6,0,B|41:123|98:152|98:152|129:61,1,180.000006866455,14|2,0:0|0:0,0:0:0:0:
138,62,78552,2,0,P|97:60|69:133,1,120.000004577637,10|2,3:2|0:0,0:0:0:0:
263,221,78885,2,0,B|250:294|193:323|193:323|162:232,1,180.000006866455,14|2,0:0|0:0,0:0:0:0:
151,233,79218,2,0,P|192:231|220:304,1,120.000004577637,10|2,3:2|0:0,0:0:0:0:
0,295,79552,2,0,P|16:240|72:233,1,120.000004577637,12|2,0:0|0:0,0:0:0:0:
172,284,79885,1,12,3:2:0:0:
458,221,80052,1,12,0:0:0:0:
261,7,80219,6,0,B|242:68|276:111|276:111|267:186,1,180.000006866455,14|0,0:0|0:0,0:0:0:0:
263,221,80552,1,8,0:0:0:0:
189,141,80719,1,8,0:0:0:0:
36,127,80885,6,0,P|134:114|207:69,1,180.000006866455,12|0,0:0|0:0,0:0:0:0:
99,39,81219,6,0,P|136:121|202:181,1,180.000006866455,2|0,0:0|0:0,0:0:0:0:
202,72,81552,6,0,P|135:132|98:213,1,180.000006866455,12|0,0:0|0:0,0:0:0:0:
201,180,81886,6,0,P|123:135|34:125,1,180.000006866455,2|0,0:0|0:0,0:0:0:0:
98,212,82218,6,0,P|116:124|98:37,1,180.000006866455,14|0,0:0|0:0,0:0:0:0:
311,256,82552,6,0,P|226:284|159:344,1,180.000006866455,2|0,0:0|0:0,0:0:0:0:
241,50,82886,6,0,P|307:109|394:135,1,180.000006866455,14|0,0:0|0:0,0:0:0:0:
216,173,83219,5,8,0:0:0:0:
386,53,83385,1,0,0:0:0:0:
216,173,83552,6,0,B|272:136|336:128|336:128|345:104|388:46,1,180.000006866455,12|2,0:0|0:0,0:0:0:0:
408,51,83885,2,0,P|410:108|355:143,1,120.000004577637,10|0,3:2|0:0,0:0:0:0:
474,375,84219,2,0,P|415:348|354:348,1,120.000004577637,6|0,0:0|0:0,0:0:0:0:
234,253,84552,1,10,3:2:0:0:
241,371,84719,1,8,0:0:0:0:
55,317,84885,6,0,B|131:268|173:306|173:306|150:377,1,180.000006866455,6|0,0:0|0:0,0:0:0:0:
234,253,85219,2,0,L|232:118,1,120.000004577637,10|2,0:0|0:0,0:0:0:0:
352,2,85552,5,14,2:0:0:0:
500,80,85719,1,0,2:2:0:0:
422,228,85886,1,12,2:2:0:0:
274,150,86052,1,4,0:0:0:0:
386,114,86219,5,4,1:0:0:0:
372,201,86552,1,2,0:0:0:0:
264,376,86885,5,4,1:0:0:0:
249,289,87218,1,2,0:0:0:0:
141,114,87552,5,4,1:2:0:0:
44,46,87719,2,0,P|68:19|90:8,1,60.0000022888184,4|2,0:0|0:0,0:0:0:0:
141,114,87885,1,4,1:2:0:0:
258,94,88052,1,4,0:0:0:0:
99,225,88219,1,4,0:0:0:0:
65,22,88552,5,0,0:0:0:0:
256,171,88719,1,0,0:0:0:0:
447,22,88885,6,0,L|435:169,1,143.999995605469,6|0,0:0|0:0,0:0:0:0:
402,191,89219,2,0,B|420:237|420:237|400:281,1,95.9999970703126,8|0,0:0|0:0,0:0:0:0:
355,349,89552,1,6,0:0:0:0:
486,357,89719,1,0,0:0:0:0:
466,357,89802,1,2,0:0:0:0:
446,357,89885,1,8,0:0:0:0:
309,271,90052,1,0,0:0:0:0:
186,323,90219,5,6,0:0:0:0:
200,229,90385,2,0,L|213:160,1,47.9999985351563,0|2,0:0|0:0,0:0:0:0:
232,41,90552,1,10,0:0:0:0:
243,111,90719,1,8,0:0:0:0:
176,85,90885,6,0,B|134:73|92:101|92:101|61:164,1,143.999995605469,14|0,0:0|0:0,0:0:0:0:
67,150,91219,2,0,P|80:215|70:251,1,95.9999970703126,4|8,0:0|0:0,0:0:0:0:
0,351,91552,6,0,P|53:332|146:383,1,143.999995605469,6|0,0:0|0:0,0:0:0:0:
162,384,91885,2,0,P|225:380|272:351,1,95.9999970703126,8|2,0:0|0:0,0:0:0:0:
185,172,92219,2,0,P|170:232|200:317,1,143.999995605469,6|0,0:0|0:0,0:0:0:0:
253,365,92552,2,0,L|365:363,1,95.9999970703126,10|2,0:0|0:0,0:0:0:0:
494,297,92885,5,6,0:0:0:0:
450,229,93052,1,0,0:0:0:0:
406,222,93135,1,2,0:0:0:0:
371,249,93219,1,10,0:0:0:0:
365,330,93385,1,8,0:0:0:0:
406,222,93552,6,0,L|409:58,1,143.999995605469,14|0,0:0|0:0,0:0:0:0:
332,109,93885,5,2,0:0:0:0:
507,19,94052,1,8,0:0:0:0:
341,30,94219,6,0,P|276:54|256:121,1,143.999995605469,6|0,0:0|0:0,0:0:0:0:
268,152,94552,2,0,B|285:197|285:197|268:244,1,95.9999970703126,8|0,0:0|0:0,0:0:0:0:
239,315,94885,1,6,0:0:0:0:
360,307,95052,1,0,0:0:0:0:
340,308,95135,1,2,0:0:0:0:
320,309,95219,1,8,0:0:0:0:
290,382,95385,1,0,0:0:0:0:
158,321,95552,5,14,0:0:0:0:
239,315,95719,1,8,0:0:0:0:
349,157,95885,5,6,0:0:0:0:
187,145,96052,1,6,0:0:0:0:
277,252,96219,6,0,B|290:214|290:214|288:179|257:152|257:152|236:228,1,155.999992858887,12|0,0:0|0:0,0:0:0:0:
240,230,96552,6,0,L|341:223,1,95.1999981115723,6|2,0:0|0:0,0:0:0:0:
394,97,96885,1,8,0:0:0:0:
351,26,97219,5,2,0:0:0:0:
249,45,97385,1,6,0:0:0:0:
394,97,97552,2,0,P|418:164|380:250,1,142.799997167358,8|0,0:0|0:0,0:0:0:0:
439,237,97885,6,0,P|464:152|424:78,1,167.999994873047,8|0,0:0|0:0,0:0:0:0:
405,69,98219,5,6,0:0:0:0:
414,259,98385,2,0,P|385:275|363:279,1,47.9999985351563,0|2,0:0|0:0,0:0:0:0:
307,163,98552,1,10,0:0:0:0:
405,69,98719,1,8,0:0:0:0:
512,165,98885,6,0,B|479:144|457:251|374:248,1,160,14|0,0:0|0:0,0:0:0:0:
256,192,99302,12,0,102219,0:0:0:0:
