osu file format v14

[General]
AudioFilename: op.mp3
AudioLeadIn: 0
PreviewTime: 64052
Countdown: 0
SampleSet: Soft
StackLeniency: 0.4
Mode: 0
LetterboxInBreaks: 0
WidescreenStoryboard: 0

[Editor]
DistanceSpacing: 0.5
BeatDivisor: 4
GridSize: 32
TimelineZoom: 1.6

[Metadata]
Title:Hanagoyomi short version
TitleUnicode:華暦 short version
Artist:Ayumi.
ArtistUnicode:Ayumi.
Creator:Fushimi Rio
Version:Hana
Source:花の野に咲くうたかたの
Tags:galgame eroge opening applique PinkHeart Syameimaru-Aya iMage-- Meg chenwu
BeatmapID:721613
BeatmapSetID:324828

[Difficulty]
HPDrainRate:9
CircleSize:4.2
OverallDifficulty:9
ApproachRate:9.3
SliderMultiplier:2.4
SliderTickRate:1

[Events]
//Background and Video events
0,0,"bg.jpg",0,0
Video,0,"Hananono.flv"
//Break Periods
//Storyboard Layer 0 (Background)
//Storyboard Layer 1 (Fail)
//Storyboard Layer 2 (Pass)
//Storyboard Layer 3 (Foreground)
//Storyboard Sound Samples

[TimingPoints]
1553,500,4,2,1,15,1,0
1553,-200,4,2,1,15,0,0
9553,-200,4,2,1,30,0,0
10303,-200,4,2,1,5,0,0
10553,-200,4,2,1,20,0,0
11303,-200,4,2,1,5,0,0
11553,-200,4,2,1,35,0,0
12553,-200,4,2,1,40,0,0
13553,-200,4,2,1,45,0,0
14553,-200,4,2,1,50,0,0
16219,-100,4,2,1,15,0,0
16553,-100,4,2,1,40,0,0
16886,333.333333333333,4,2,1,70,1,0
25802,-100,4,2,1,5,0,0
25885,-100,4,2,1,70,0,0
27552,-200,4,2,1,40,0,0
42219,-133.333333333333,4,2,1,60,0,0
47052,-76.9230769230769,4,2,1,70,0,0
47552,-133.333333333333,4,2,1,60,0,0
52219,-100,4,2,1,70,0,0
53219,-100,4,2,1,40,0,0
55552,-100,4,2,1,70,0,0
58219,-100,4,2,1,60,0,0
63552,-200,4,2,1,15,0,0
64219,-200,4,2,1,30,0,0
64552,-200,4,2,1,15,0,0
64885,-100,4,2,1,80,0,1
65885,-83.3333333333333,4,2,1,80,0,1
66052,-100,4,2,1,80,0,1
70219,-58.8235294117647,4,2,1,80,0,1
72885,-100,4,2,1,80,0,1
74885,-76.9230769230769,4,2,1,80,0,0
75552,-100,4,2,1,80,0,1
77885,-83.3333333333333,4,2,1,80,0,1
78219,-100,4,2,1,80,0,1
79219,-83.3333333333333,4,2,1,80,0,1
79552,-100,4,2,1,80,0,1
80552,-76.9230769230769,4,2,1,80,0,1
80885,-58.8235294117647,4,2,1,80,0,1
83552,-100,4,2,1,80,0,1
85719,-76.9230769230769,4,2,1,80,0,1
86219,-76.9230769230769,4,2,1,80,0,0
87552,-76.9230769230769,4,2,1,80,0,1
88885,-100,4,2,1,70,0,0
94219,-100,4,2,1,70,0,0
95552,-83.3333333333333,4,2,1,70,0,0
97552,-100,4,2,1,70,0,0
97802,-100,4,2,1,5,0,0
97885,-100,4,2,1,70,0,0
98885,-125,4,2,1,70,0,0
99219,-83.3333333333333,4,2,1,15,0,0

[Colours]
Combo1 : 255,255,175
Combo2 : 235,165,215
Combo3 : 255,215,185
Combo4 : 245,215,245

[HitObjects]
136,168,1053,5,0,0:0:0:0:
192,224,1303,1,0,0:0:0:0:
272,240,1553,2,0,P|319:151|219:147,1,240,8|2,0:1|0:0,0:0:0:0:
213,300,3053,1,0,0:0:0:0:
265,239,3303,1,0,0:0:0:0:
344,220,3553,2,0,P|390:309|289:313,1,240,2|2,0:0|0:0,0:0:0:0:
332,140,5053,1,0,0:0:0:0:
344,220,5303,1,0,0:0:0:0:
256,167,5553,6,0,B|239:107|288:71|288:71|257:46|216:65,1,180,8|0,0:1|0:0,0:0:0:0:
332,140,6553,2,0,P|397:146|488:64,1,180,2|0,0:0|0:0,0:0:0:0:
512,0,7553,1,2,0:0:0:0:
429,12,7803,1,0,0:0:0:0:
399,90,8053,1,0,0:0:0:0:
451,155,8303,1,0,0:0:0:0:
482,77,8553,1,2,0:0:0:0:
463,98,9053,2,0,P|447:123|422:139,1,60
353,121,9553,6,0,B|315:83|314:42|314:42|359:40|396:73,1,180,8|0,0:1|0:0,0:0:0:0:
416,134,10553,2,0,B|402:184|367:207|367:207|343:167|353:121,1,180,2|0,0:0|0:0,0:0:0:0:
396,73,11553,2,0,B|443:50|481:69|481:69|454:117,1,120
339,162,12553,2,0,B|291:184|253:165|253:165|280:117,1,120,2|0,0:0|0:0,0:0:0:0:
412,146,13553,2,0,B|434:193|415:231|415:231|367:204,1,120,8|0,0:1|0:0,0:0:0:0:
323,89,14553,2,0,B|300:41|319:3|319:3|367:30,1,120,2|0,0:0|0:0,0:0:0:0:
256,192,15178,12,0,16303,0:0:0:0:
180,140,16553,5,2,0:0:0:0:
213,248,16719,1,0,0:0:0:0:
290,164,16886,2,0,P|239:135|180:140,1,120,4|0,1:2|0:0,0:0:0:0:
334,226,17219,6,0,P|318:168|273:130,1,120,0|0,1:0|0:0,0:0:0:0:
321,300,17552,6,0,P|350:247|345:188,1,120,8|0,1:0|0:0,0:0:0:0:
167,24,17886,1,0,1:0:0:0:
273,130,18052,1,0,0:0:0:0:
409,80,18219,5,8,1:0:0:0:
257,228,18386,1,0,0:0:0:0:
257,228,18469,1,0,0:0:0:0:
257,228,18552,1,0,1:0:0:0:
290,33,18719,1,0,0:0:0:0:
355,280,18885,2,0,P|317:325|260:341,1,120,0|0,1:0|0:0,0:0:0:0:
61,158,19219,5,0,1:0:0:0:
99,363,19385,1,0,0:0:0:0:
257,228,19552,2,0,P|282:174|272:116,1,120,4|0,1:2|0:0,0:0:0:0:
162,278,19885,5,0,1:0:0:0:
359,291,20052,1,0,0:0:0:0:
272,116,20219,2,0,P|262:57|287:4,1,120,8|0,1:0|0:0,0:0:0:0:
350,170,20552,6,0,P|301:136|280:80,1,120,0|0,1:2|0:0,0:0:0:0:
443,153,20885,6,0,P|384:163|331:138,1,120,4|0,1:2|0:0,0:0:0:0:
287,4,21135,1,0,0:0:0:0:
287,4,21219,1,0,1:0:0:0:
361,260,21385,1,0,0:0:0:0:
103,196,21552,5,8,1:0:0:0:
327,134,21719,1,0,0:0:0:0:
73,204,21885,5,0,1:0:0:0:
356,125,22052,1,0,1:0:0:0:
43,215,22219,6,0,P|14:266|19:325,1,120,4|0,1:2|0:0,0:0:0:0:
105,171,22552,6,0,P|47:187|9:232,1,120,0|0,1:0|0:0,0:0:0:0:
179,184,22885,6,0,P|126:155|67:160,1,120,8|0,1:0|0:0,0:0:0:0:
101,283,23219,1,0,1:0:0:0:
40,47,23385,1,0,0:0:0:0:
254,197,23552,6,0,P|310:181|348:136,1,120,0|0,1:2|0:0,0:0:0:0:
179,184,23885,6,0,P|231:213|290:208,1,120,0|0,1:2|0:0,0:0:0:0:
135,122,24218,6,0,P|151:179|197:218,1,120,8|0,1:0|0:0,0:0:0:0:
371,45,24552,5,4,0:2:0:0:
184,315,24719,1,0,0:0:0:0:
512,342,24885,1,4,0:0:0:0:
512,342,25385,1,0,1:0:0:0:
277,180,25552,6,0,B|255:118|284:53|284:53|305:86|298:113,1,180,4|0,0:2|0:0,0:0:0:0:
257,263,25885,1,0,1:0:0:0:
359,156,26052,1,0,0:0:0:0:
72,87,26219,5,4,1:2:0:0:
243,149,26385,5,0,3:0:0:0:
169,132,26469,1,0,3:0:0:0:
220,76,26552,1,0,3:0:0:0:
257,263,26719,1,0,0:0:0:0:
313,13,26885,6,0,B|348:-1|348:-1|351:21|337:46|337:46|357:53|377:51|377:51|402:115|359:155,1,240,4|0,1:2|0:0,0:0:0:0:
359,155,27552,2,2,L|343:216,1,60,2|0,0:0|0:0,0:0:0:0:
195,113,27885,2,0,L|211:174,1,60,2|0,0:0|0:0,0:0:0:0:
332,248,28219,2,0,L|316:309,1,60,2|0,0:0|0:0,0:0:0:0:
221,205,28552,2,0,L|237:266,1,60,2|0,0:0|0:0,0:0:0:0:
258,342,28885,6,0,B|243:298|243:298|209:333|155:341|117:317,1,180,8|0,0:1|0:0,0:0:0:0:
170,233,29552,2,0,B|196:162|144:112|144:112|156:76|137:50,1,180,2|0,0:0|0:0,0:0:0:0:
79,190,30219,2,0,P|51:220|19:230,1,60
170,233,30552,2,0,P|209:244|241:237,1,60
317,187,30885,2,0,B|328:142|361:113|361:113|386:149|379:202,1,180,2|0,0:0|0:0,0:0:0:0:
358,291,31552,6,0,B|426:302|460:244|460:244|477:266|508:278,1,180
492,155,32219,2,0,B|513:89|463:43|463:43|490:28|503:0,1,180,2|0,0:0|0:0,0:0:0:0:
404,117,32885,2,0,P|364:128|332:121,1,60
252,102,33219,2,0,P|215:82|197:54,1,60
108,51,33552,2,0,P|57:91|133:134,1,180,2|0,0:0|0:0,0:0:0:0:
186,213,34219,6,0,P|247:182|351:213,1,180
263,285,34885,2,0,B|230:315|230:315|187:302|139:329|139:329|104:308,1,180,2|0,0:0|0:0,0:0:0:0:
319,373,35552,2,0,P|358:384|390:377,1,60
512,340,35885,2,0,P|472:328|440:335,1,60
363,296,36219,2,0,B|339:235|381:173|381:173|397:200|399:230,1,180,2|0,0:0|0:0,0:0:0:0:
264,244,36885,6,0,P|222:170|291:155,1,180
121,189,37552,2,0,P|84:136|86:82,2,120,0|2|0,0:0|0:0|0:0,0:0:0:0:
204,236,38385,1,0,0:0:0:0:
226,244,38469,1,0,0:0:0:0:
249,245,38552,1,2,0:0:0:0:
243,148,38719,1,0,0:0:0:0:
244,334,38885,6,0,P|302:320|336:263,1,120,2|0,0:0|0:0,0:0:0:0:
317,189,39385,1,0,0:0:0:0:
243,148,39552,5,0,0:0:0:0:
259,64,39719,1,0,0:0:0:0:
342,53,39885,1,0,0:0:0:0:
379,131,40052,1,0,0:0:0:0:
317,189,40219,1,2,0:0:0:0:
316,189,40552,2,0,P|280:222|269:268,1,80
354,267,40885,5,0,0:0:0:0:
437,256,41051,1,0,0:0:0:0:
454,173,41219,1,2,0:0:0:0:
379,131,41385,1,0,0:0:0:0:
318,191,41552,5,2,0:0:0:0:
283,155,41663,1,0,0:0:0:0:
329,143,41774,1,0,0:0:0:0:
318,191,41885,5,0,0:0:0:0:
270,203,41996,1,0,0:0:0:0:
282,156,42107,1,0,0:0:0:0:
303,236,42219,6,0,B|276:277|225:279|225:279|203:317,1,135.000005149841,4|0,0:0|0:0,0:0:0:0:
203,315,42552,1,0,1:0:0:0:
227,187,42719,1,0,0:0:0:0:
385,292,42885,2,0,P|400:238|371:164,1,135.000005149841
218,101,43219,2,0,P|211:146|227:188,1,90.0000034332277,0|0,1:0|0:0,0:0:0:0:
295,40,43552,5,2,0:0:0:0:
313,244,43719,1,0,0:0:0:0:
127,158,43885,1,0,1:0:0:0:
304,138,44052,1,0,0:0:0:0:
238,322,44219,2,0,P|299:354|368:338,1,135.000005149841,2|0,0:0|0:0,0:0:0:0:
224,228,44552,2,0,P|182:243|154:279,1,90.0000034332277,0|0,1:0|0:0,0:0:0:0:
313,244,44885,6,0,B|318:196|286:166|286:166|294:141|285:117,1,135.000005149841,0|0,3:0|0:0,3:0:0:0:
195,54,45219,2,0,B|197:75|189:95|189:95|203:116|203:139,1,90.0000034332277,0|0,1:0|0:0,0:0:0:0:
98,256,45552,2,0,B|82:196|120:151|120:151|124:168|120:179,1,135.000005149841
272,254,45885,2,0,P|233:232|188:234,1,90.0000034332277,0|0,1:0|0:0,0:0:0:0:
304,341,46219,5,2,0:0:0:0:
418,273,46385,1,0,0:0:0:0:
214,323,46552,1,0,1:0:0:0:
335,185,46719,1,0,0:0:0:0:
128,352,46885,1,2,0:0:0:0:
195,138,47052,2,0,P|218:164|255:181,1,77.9999964294435,0|0,3:0|0:0,0:0:0:0:
335,185,47219,2,2,B|399:178|435:111|402:43|402:43|383:62|384:86,1,233.999989288331,2|0,1:0|0:0,1:0:0:0:
396,261,47552,6,0,P|437:308|502:286,1,135.000005149841,4|0,0:0|0:0,0:0:0:0:
335,185,47885,2,0,P|302:226|298:275,1,90.0000034332277,0|0,1:0|0:0,0:0:0:0:
200,375,48219,2,0,P|196:280|162:244,1,135.000005149841
26,337,48552,2,0,B|41:326|41:326|74:344|111:333,1,90.0000034332277,0|0,1:0|0:0,0:0:0:0:
201,43,48885,5,2,0:0:0:0:
86,250,49052,1,0,0:0:0:0:
247,204,49219,1,0,1:0:0:0:
40,89,49385,1,0,0:0:0:0:
285,129,49552,2,0,B|341:137|364:180|364:180|351:192|330:194,1,135.000005149841,2|0,0:0|0:0,0:0:0:0:
191,269,49885,2,0,P|210:229|246:204,1,90.0000034332277,0|0,1:0|0:0,0:0:0:0:
281,367,50219,6,0,P|265:325|274:282,1,90.0000034332277,2|0,0:0|0:0,0:0:0:0:
413,374,50469,5,2,0:0:0:0:
413,374,50552,2,0,P|373:355|348:319,1,90.0000034332277,0|0,1:0|0:0,0:0:0:0:
511,283,50802,5,2,0:0:0:0:
511,283,50885,2,0,B|469:299|430:293|430:293|431:267|456:247,1,135.000005149841
508,182,51219,1,0,1:0:0:0:
350,249,51385,1,0,0:0:0:0:
370,78,51552,5,2,0:0:0:0:
335,349,51719,1,0,0:0:0:0:
412,168,51885,1,0,1:0:0:0:
256,287,52052,1,0,0:0:0:0:
350,249,52219,2,0,B|330:173|257:162|257:162|259:187|281:200,1,180
429,312,52552,2,0,B|463:266|441:206|441:206|474:281|539:289,1,240,0|0,1:0|0:0,0:0:0:0:
423,89,53219,5,8,0:1:0:0:
344,81,53552,1,0,0:0:0:0:
270,110,53885,1,0,0:0:0:0:
218,170,54219,1,2,0:0:0:0:
198,246,54552,1,0,0:0:0:0:
216,324,54885,1,0,0:0:0:0:
267,384,55219,1,2,0:0:0:0:
423,89,55552,5,4,0:0:0:0:
454,180,55719,1,0,1:0:0:0:
457,191,55802,1,0,1:0:0:0:
461,202,55885,2,0,L|486:279,1,60,0|0,1:0|0:0,1:0:0:0:
378,243,56052,2,0,L|341:315,1,60,0|0,1:0|0:0,0:0:0:0:
290,213,56219,2,0,L|212:238,1,60,0|0,1:0|0:0,3:0:0:0:
89,171,56385,5,0,1:0:0:0:
89,123,56468,1,0,1:0:0:0:
135,108,56551,1,0,1:0:0:0:
163,147,56635,1,0,1:0:0:0:
135,186,56719,2,0,L|93:240,3,60,8|0|0|0,1:0|3:0|3:0|3:0,3:0:0:0:
46,301,57052,5,0,1:0:0:0:
57,305,57135,1,0,1:0:0:0:
68,308,57219,2,0,L|129:332,1,60,0|0,1:0|0:0,0:0:0:0:
182,269,57385,2,0,L|222:216,1,60,0|0,1:0|0:0,0:0:0:0:
315,56,57552,2,0,L|352:9,1,60,0|0,1:0|0:0,0:0:0:0:
274,129,57719,5,0,1:0:0:0:
267,139,57802,1,0,1:0:0:0:
260,148,57885,1,0,1:0:0:0:
287,161,57969,1,0,1:0:0:0:
322,166,58052,1,0,1:0:0:0:
363,166,58135,1,0,1:0:0:0:
411,154,58219,6,0,B|474:118|468:42|468:42|443:62|435:89,1,180,0|0,1:0|3:0,0:0:0:0:
411,154,58552,1,0,3:0:0:0:
343,49,58719,1,0,3:0:0:0:
287,161,58885,6,0,B|286:233|355:266|355:266|350:234|331:214,1,180,2|0,0:0|3:0,0:0:0:0:
343,49,59219,1,0,3:0:0:0:
287,161,59385,1,0,3:0:0:0:
212,270,59552,6,0,B|176:333|100:326|100:326|119:301|147:294,1,180,2|0,0:0|3:0,3:0:0:0:
212,270,59885,1,0,3:0:0:0:
155,158,60052,1,0,3:0:0:0:
355,266,60219,6,0,B|417:302|480:259|480:259|450:247|423:254,1,180,2|0,0:0|3:0,0:0:0:0:
298,377,60552,1,0,3:0:0:0:
212,270,60719,1,0,3:0:0:0:
123,176,60885,6,0,L|312:188,1,180,8|0,0:1|3:0,0:0:0:0:
302,187,61219,1,0,3:0:0:0:
180,288,61385,1,0,3:0:0:0:
437,80,61552,6,0,L|248:92,1,180,2|0,0:0|3:0,0:0:0:0:
257,91,61885,1,0,3:0:0:0:
380,192,62051,1,0,3:0:0:0:
256,0,62219,5,4,0:0:0:0:
256,192,62302,12,0,63552,0:0:0:0:
96,265,64219,6,0,P|142:224|150:161,1,120,0|0,0:0|3:0,0:0:0:0:
149,152,64885,6,0,B|164:208|220:216|220:216|228:256,1,120,4|0,0:0|0:0,0:0:0:0:
223,233,65135,1,0,0:0:0:0:
228,136,65219,2,0,P|208:98|125:75,1,120,0|0,1:0|0:0,0:0:0:0:
164,291,65552,6,0,P|200:313|306:246,1,180,2|0,0:0|0:0,0:0:0:0:
349,104,65885,2,0,P|280:91|227:136,1,143.999995605469,0|0,1:0|0:0,0:0:0:0:
309,378,66219,5,8,0:1:0:0:
301,171,66385,1,0,0:0:0:0:
388,316,66552,1,0,1:2:0:0:
223,233,66719,1,0,0:0:0:0:
457,47,66885,6,0,P|495:112|497:170,1,120
368,224,67219,1,0,1:2:0:0:
457,47,67385,1,0,0:0:0:0:
483,246,67552,6,0,P|405:243|355:213,1,120,2|0,0:0|0:0,0:0:0:0:
301,171,67802,1,0,0:0:0:0:
268,94,67885,1,0,1:0:0:0:
248,323,68052,1,0,0:0:0:0:
373,126,68219,6,0,P|326:90|268:93,1,120,8|0,0:1|0:0,0:0:0:0:
249,236,68469,1,0,0:0:0:0:
325,279,68553,2,0,P|332:220|301:171,1,120,0|0,1:0|0:0,0:0:0:0:
73,92,68885,5,4,0:0:0:0:
249,236,69052,1,0,0:0:0:0:
213,0,69219,1,0,1:0:0:0:
137,235,69385,1,0,0:0:0:0:
413,188,69552,5,0,0:0:0:0:
122,75,69719,1,0,0:0:0:0:
292,262,69885,2,0,P|325:204|319:146,1,120,0|0,1:0|0:0,0:0:0:0:
208,281,70219,6,0,B|217:325|262:360|262:360|302:311|293:263,1,204.000003890991,4|0,0:0|0:0,0:0:0:0:
137,235,70552,6,0,B|109:272|118:329|118:329|181:322|208:280,1,204.000003890991,0|0,1:0|0:0,0:0:0:0:
120,152,70885,6,0,B|74:159|40:205|40:205|89:245|137:235,1,204.000003890991,2|0,0:0|0:0,0:0:0:0:
168,83,71219,6,0,B|130:54|73:63|73:63|80:126|120:152,1,204.000003890991,0|0,1:0|0:0,0:0:0:0:
249,105,71552,6,0,B|263:61|238:9|238:9|180:35|168:83,1,204.000003890991,4|0,0:0|0:0,0:0:0:0:
254,191,71885,6,0,B|299:191|341:149|341:149|298:103|249:105,1,204.000003890991,0|0,1:0|0:0,0:0:0:0:
176,223,72219,6,0,B|189:266|240:293|240:293|271:238|254:191,1,204.000003890991,2|0,0:0|0:0,0:0:0:0:
124,159,72552,1,0,1:0:0:0:
398,76,72719,1,0,0:0:0:0:
248,75,72885,6,0,P|284:134|344:140,1,120
398,76,73135,1,0,0:0:0:0:
404,1,73219,2,0,P|339:27|323:85,1,120,0|0,1:0|0:0,0:0:0:0:
416,274,73552,5,0,0:0:0:0:
236,186,73719,1,0,0:0:0:0:
398,76,73885,1,0,1:0:0:0:
268,296,74052,1,0,0:0:0:0:
150,121,74219,5,2,0:0:0:0:
233,195,74385,5,0,0:0:0:0:
189,297,74552,5,0,1:0:0:0:
78,285,74719,5,0,0:0:0:0:
54,177,74885,5,0,0:0:0:0:
54,177,75052,2,0,P|71:212|100:239,1,77.9999964294435,0|0,1:0|0:0,1:0:0:0:
239,356,75219,2,0,P|227:318|230:280,1,77.9999964294435,0|0,1:0|0:0,1:0:0:0:
341,130,75385,1,0,1:0:0:0:
378,116,75468,1,0,1:0:0:0:
416,128,75552,6,0,P|373:198|283:180,1,180,4|0,0:0|0:0,0:0:0:0:
338,52,75885,2,0,P|392:74|416:128,1,120,0|0,1:0|0:0,0:0:0:0:
398,283,76219,6,0,P|344:319|283:306,1,120,2|0,0:0|0:0,0:0:0:0:
248,243,76469,1,0,0:0:0:0:
251,162,76552,2,0,P|305:186|329:240,1,120,0|0,1:0|0:0,0:0:0:0:
213,320,76885,5,8,0:1:0:0:
212,92,77052,1,0,0:0:0:0:
400,202,77219,1,0,1:0:0:0:
138,266,77385,5,0,0:0:0:0:
289,176,77552,1,0,0:0:0:0:
289,361,77719,1,0,0:0:0:0:
185,180,77885,2,0,P|112:174|52:220,1,143.999995605469,0|0,1:0|0:0,0:0:0:0:
262,206,78219,6,0,B|277:150|232:115|232:115|245:76,1,120,2|0,0:0|0:0,0:0:0:0:
237,98,78469,1,0,0:0:0:0:
185,180,78553,2,0,P|183:222|243:284,1,120,0|0,1:0|0:0,0:0:0:0:
318,78,78886,6,0,P|297:40|172:45,1,180,8|0,0:1|0:0,0:0:0:0:
59,152,79219,2,0,P|116:193|185:179,1,143.999995605469,0|0,1:0|0:0,0:0:0:0:
306,5,79552,5,2,0:0:0:0:
318,78,79635,1,2,0:0:0:0:
331,152,79718,1,2,0:0:0:0:
343,226,79801,1,2,0:0:0:0:
356,300,79885,2,0,L|368:369,1,60,0|0,1:0|0:0,0:0:0:0:
401,177,80052,2,0,L|454:132,1,60
284,274,80219,6,0,P|212:291|120:238,1,180
78,102,80552,2,0,P|123:169|116:256,1,155.999992858887,0|0,1:0|0:0,0:0:0:0:
258,118,80885,6,0,B|281:66|264:20|264:20|211:35|189:85,1,204.000003890991,4|0,0:0|0:0,0:0:0:0:
193,258,81219,6,0,B|244:281|290:264|290:264|275:211|225:189,1,204.000003890991,0|0,1:0|0:0,0:0:0:0:
55,193,81552,6,0,B|31:244|48:290|48:290|101:275|123:225,1,204.000003890991
120,53,81885,6,0,B|68:28|23:45|23:45|37:99|88:122,1,204.000003890991,0|0,1:0|0:0,0:0:0:0:
263,95,82219,6,0,B|268:38|239:0|239:0|193:30|187:85,1,204.000003890991,4|0,0:0|0:0,0:0:0:0:
271,246,82552,6,0,B|326:232|353:192|353:192|310:158|256:169,1,204.000003890991,0|0,1:0|0:0,0:0:0:0:
128,297,82885,6,0,B|155:343|202:359|202:359|221:306|194:257,1,204.000003890991
35,180,83219,1,0,1:0:0:0:
300,190,83385,1,0,0:0:0:0:
165,103,83552,6,0,P|164:172|228:218,1,120
300,190,83802,1,0,0:0:0:0:
348,125,83885,2,0,P|291:111|239:138,1,120,0|0,1:0|0:0,0:0:0:0:
414,340,84219,5,2,0:0:0:0:
221,224,84385,1,0,0:0:0:0:
387,196,84552,1,0,1:0:0:0:
249,332,84719,1,0,0:0:0:0:
156,172,84885,5,0,0:0:0:0:
130,314,85052,1,0,0:0:0:0:
271,126,85219,2,0,L|293:208,1,60,0|0,1:0|0:0,0:0:0:0:
249,332,85385,2,0,L|283:271,1,60,0|0,3:0|0:0,0:0:0:0:
386,80,85552,1,0,3:0:0:0:
386,80,85635,1,0,3:0:0:0:
386,80,85719,2,0,L|408:162,1,77.9999964294435,0|0,1:0|0:0,1:0:0:0:
449,343,85885,5,0,3:0:0:0:
376,311,85969,1,0,3:0:0:0:
383,233,86052,1,0,3:0:0:0:
460,216,86135,1,0,3:0:0:0:
499,282,86219,1,4,1:0:0:0:
376,311,86552,5,0,0:0:0:0:
251,300,86885,5,4,1:0:0:0:
140,241,87219,5,0,0:0:0:0:
65,118,87552,5,0,1:2:0:0:
127,164,87635,1,0,3:0:0:0:
190,118,87719,1,0,3:0:0:0:
167,43,87802,1,0,3:0:0:0:
88,43,87885,2,0,L|64:118,1,77.9999964294435,0|0,1:0|0:0,0:0:0:0:
45,267,88052,2,0,L|129:254,1,77.9999964294435,0|0,3:0|0:0,0:0:0:0:
266,162,88219,2,0,B|294:100|282:49|282:49|231:57|190:118,1,233.999989288331,8|0,0:1|0:0,0:0:0:0:
181,206,88552,5,0,1:0:0:0:
103,68,88719,1,0,0:0:0:0:
260,259,88885,6,0,P|265:317|236:369,1,120,4|0,0:0|0:0,0:0:0:0:
223,226,89219,6,0,L|344:251,1,120,0|0,1:0|0:0,0:0:0:0:
181,206,89552,6,0,B|229:144|229:144|253:235,1,120,8|0,1:0|0:0,0:0:0:0:
124,275,89885,1,0,1:0:0:0:
337,157,90052,1,0,0:0:0:0:
132,124,90219,5,4,0:0:0:0:
345,6,90385,1,0,3:0:0:0:
345,6,90469,1,0,3:0:0:0:
345,6,90552,1,0,1:0:0:0:
340,250,90719,1,0,0:0:0:0:
264,167,90885,2,0,P|315:137|374:141,1,120,0|0,1:2|0:0,0:0:0:0:
288,340,91219,5,0,1:0:0:0:
154,203,91385,1,0,3:0:0:0:
339,155,91552,2,0,P|395:170|433:216,1,120,8|0,1:0|0:0,0:0:0:0:
233,294,91885,5,0,0:0:0:0:
235,103,92051,1,0,3:0:0:0:
400,199,92218,2,0,P|429:250|423:309,1,120,8|0,1:0|0:0,0:0:0:0:
295,170,92552,6,0,P|325:119|378:94,1,120,0|0,1:0|0:0,0:0:0:0:
323,275,92885,6,0,P|263:274|215:240,1,120,4|0,1:2|3:0,3:0:0:0:
186,166,93135,1,0,0:0:0:0:
235,103,93219,1,0,1:0:0:0:
137,229,93385,1,0,0:0:0:0:
284,40,93552,5,12,1:0:0:0:
88,292,93719,1,0,0:0:0:0:
235,103,93885,5,4,1:0:0:0:
39,355,94052,1,0,1:0:0:0:
186,166,94219,6,0,P|242:144|300:159,1,120,4|0,1:2|0:0,0:0:0:0:
162,209,94552,6,0,L|152:60,1,120,0|0,1:0|0:0,0:0:0:0:
154,254,94885,6,0,B|79:222|79:222|162:174,1,120,8|0,1:0|0:0,0:0:0:0:
236,284,95219,1,0,1:0:0:0:
155,89,95385,1,0,0:0:0:0:
364,116,95552,6,0,P|418:160|437:228,1,143.999995605469,0|0,1:0|0:0,0:0:0:0:
314,116,95886,6,0,L|437:34,1,143.999995605469,0|0,1:0|0:0,0:0:0:0:
270,131,96219,6,0,B|267:37|267:37|358:108,1,143.999995605469,8|0,1:0|0:0,0:0:0:0:
270,297,96552,5,4,0:0:0:0:
128,49,96719,1,0,0:0:0:0:
414,50,96885,1,4,1:2:0:0:
414,50,97386,1,0,1:0:0:0:
270,297,97552,6,0,B|232:349|162:363|162:363|176:327|190:324,1,180,4|0,0:2|0:0,0:0:0:0:
349,246,97885,1,0,1:0:0:0:
205,238,98052,1,0,0:0:0:0:
484,354,98219,5,4,0:0:0:0:
358,170,98385,5,0,3:0:0:0:
349,246,98469,1,0,3:0:0:0:
418,217,98552,1,0,3:0:0:0:
205,238,98719,1,0,0:0:0:0:
444,53,98885,6,0,B|443:22|405:0|405:0|371:34|390:106|426:124,1,192,4|0,0:0|0:0,0:0:0:0:
