osu file format v14

[General]
AudioFilename: op.mp3
AudioLeadIn: 0
PreviewTime: 64052
Countdown: 0
SampleSet: Soft
StackLeniency: 0.4
Mode: 0
LetterboxInBreaks: 0
WidescreenStoryboard: 0

[Editor]
Bookmarks: 59202
DistanceSpacing: 1
BeatDivisor: 2
GridSize: 16
TimelineZoom: 1.5

[Metadata]
Title:Hanagoyomi short version
TitleUnicode:華暦 short version
Artist:Ayumi.
ArtistUnicode:Ayumi.
Creator:Fushimi Rio
Version:Easy
Source:花の野に咲くうたかたの
Tags:galgame eroge opening applique PinkHeart Syameimaru-Aya iMage-- Meg chenwu
BeatmapID:734183
BeatmapSetID:324828

[Difficulty]
HPDrainRate:2
CircleSize:2
OverallDifficulty:2.5
ApproachRate:3.5
SliderMultiplier:0.9
SliderTickRate:1

[Events]
//Background and Video events
0,0,"bg2.jpg",0,0
Video,0,"Hananono.flv"
//Break Periods
2,39752,40839
2,53085,54172
//Storyboard Layer 0 (Background)
//Storyboard Layer 1 (Fail)
//Storyboard Layer 2 (Pass)
//Storyboard Layer 3 (Foreground)
//Storyboard Sound Samples

[TimingPoints]
1553,500,4,2,1,30,1,0
16886,333.333333333333,4,1,1,70,1,0
28885,-100,4,2,1,50,0,0
42219,-100,4,2,1,70,0,0
55552,-100,4,1,1,70,0,0
58219,-100,4,2,1,70,0,0
64885,-100,4,2,1,80,0,1
74885,-100,4,2,1,80,0,0
75552,-100,4,2,1,80,0,1
86219,-100,4,2,1,80,0,0
87552,-100,4,2,1,80,0,1
88885,-100,4,1,1,70,0,0
99219,-100,4,2,1,15,0,0

[Colours]
Combo1 : 255,159,64
Combo2 : 255,128,192
Combo3 : 255,213,170
Combo4 : 0,128,255

[HitObjects]
34,84,1553,6,0,B|79:69|79:69|96:99|80:129|80:129|103:163|92:201,1,180,8|2,0:1|0:0,0:0:0:0:
172,33,3553,6,0,P|235:10|336:54,1,180,0|2,0:0|0:0,0:0:0:0:
233,201,5553,6,0,B|196:225|196:225|241:271|214:352,2,180,8|0|2,0:1|0:0|0:0,0:0:0:0:
459,53,9053,1,0,0:0:0:0:
372,26,9553,6,0,B|327:11|327:11|310:41|325:71|325:71|303:105|314:143,1,180,8|2,0:1|0:0,0:0:0:0:
356,312,11553,6,0,P|304:283|190:309,1,180,0|2,0:0|0:0,0:0:0:0:
14,276,13553,6,0,B|58:305|104:303|104:303|107:261|146:233,1,180,8|2,0:1|0:0,0:0:0:0:
415,79,16886,6,0,L|485:19,2,90,4|0|0,0:2|1:0|1:0,0:0:0:0:
342,132,17886,1,0,1:0:0:0:
265,85,18219,2,0,L|78:85,1,180,4|0,0:2|1:0,0:0:0:0:
51,168,19219,5,0,0:0:0:0:
112,233,19552,2,0,L|292:233,1,180
341,157,20552,1,0,0:0:0:0:
416,208,20885,2,0,B|462:238|462:238|422:298|451:361,1,180,4|0,0:2|0:0,0:0:0:0:
309,240,22219,6,0,L|270:326,2,90,4|0|0,0:2|0:0|0:0,0:0:0:0:
341,157,23219,1,0,0:0:0:0:
373,73,23552,2,0,B|299:56|262:116|262:116|214:95,1,180
169,173,24552,2,0,L|252:209,1,90,0|4,0:0|0:2,0:0:0:0:
88,132,25552,5,4,0:2:0:0:
251,208,26219,2,0,L|334:244,2,90,4|0|4,2:0|0:0|0:2,0:0:0:0:
100,78,28885,5,0,0:0:0:0:
47,250,29552,1,0,0:0:0:0:
196,148,30219,2,0,B|237:110|237:110|279:161|366:139,1,180,2|0,0:0|0:0,0:0:0:0:
442,297,31552,5,0,0:0:0:0:
272,357,32219,1,0,0:0:0:0:
113,271,32885,2,0,B|151:294|151:294|194:236|156:167,1,180,2|0,0:0|0:0,0:0:0:0:
29,38,34219,5,0,0:0:0:0:
205,72,34885,1,0,0:0:0:0:
376,17,35552,2,0,B|426:0|426:0|394:73|446:131,1,180,2|0,0:0|0:0,0:0:0:0:
512,283,36885,5,0,0:0:0:0:
363,181,37552,1,0,0:0:0:0:
261,331,38219,2,0,B|228:375|228:375|159:336|104:346,1,180,2|0,0:0|0:0,0:0:0:0:
25,378,39219,1,0,0:0:0:0:
38,289,39552,1,2,0:0:0:0:
74,158,42219,6,0,B|128:168|128:168|79:232|123:294,1,180,4|0,0:0|0:0,0:0:0:0:
194,237,43219,1,0,1:0:0:0:
257,300,43552,2,0,L|328:373,2,90,2|0|0,0:0|1:0|0:0,0:0:0:0:
194,237,44552,1,0,1:0:0:0:
280,212,44885,6,0,P|306:143|246:66,1,180
216,151,45885,1,0,1:0:0:0:
194,237,46219,2,0,L|168:333,1,90,2|0,0:0|1:0,0:0:0:0:
258,343,46885,2,0,P|305:317|356:333,1,90,0|2,0:0|1:0,0:0:0:0:
419,362,47552,6,0,B|461:381|461:381|494:315|450:255,1,180,4|0,0:0|0:0,0:0:0:0:
369,214,48552,1,0,1:0:0:0:
330,132,48885,2,0,L|364:43,2,90,2|0|0,0:0|1:0|0:0,0:0:0:0:
282,208,49885,1,0,1:0:0:0:
241,127,50219,6,0,L|152:90,1,90,2|0,0:0|1:0,0:0:0:0:
108,167,50885,2,0,L|191:201,1,90,2|0,0:0|1:0,0:0:0:0:
282,208,51552,1,0,0:0:0:0:
233,283,51885,1,0,1:0:0:0:
322,289,52219,2,0,B|370:302|370:302|414:362|493:340,1,180
512,205,55552,5,4,0:0:0:0:
428,237,55885,1,0,0:0:0:0:
439,147,56219,1,0,0:0:0:0:
304,151,56719,6,0,P|281:103|312:24,1,135,4|0,0:2|0:0,0:0:0:0:
369,91,57552,2,0,P|390:131|387:182,2,90,0|0|0,0:0|0:0|2:0,0:0:0:0:
304,151,58552,6,0,L|208:151,2,90,0|0|2,0:0|0:0|0:0,0:0:0:0:
289,239,59552,2,0,L|199:239,1,90
184,327,60219,2,0,L|274:327,1,90,0|2,0:0|0:0,0:0:0:0:
256,192,60885,12,4,62219,0:0:0:0:
125,90,64219,6,0,P|115:149|129:184,1,90
203,132,64885,6,0,P|255:84|355:111,1,180,4|0,0:0|0:0,0:0:0:0:
375,195,65885,1,0,1:0:0:0:
305,256,66219,2,0,P|284:217|286:173,2,90,2|0|0,0:0|1:0|0:0,0:0:0:0:
391,284,67219,1,0,1:0:0:0:
477,309,67552,6,0,P|479:264|461:224,1,90,2|0,0:0|1:0,0:0:0:0:
375,196,68219,2,0,L|398:105,1,90,0|0,0:0|1:0,0:0:0:0:
418,21,68885,1,4,0:0:0:0:
332,48,69219,1,0,1:0:0:0:
248,15,69552,2,0,P|178:26|141:122,1,180,0|4,0:0|0:0,0:0:0:0:
228,100,70552,5,0,1:0:0:0:
305,145,70885,2,0,L|388:193,1,90,0|0,0:0|1:0,0:0:0:0:
361,277,71552,2,0,P|323:312|286:319,1,90,4|0,0:0|1:0,0:0:0:0:
197,304,72219,2,0,L|214:201,1,90,0|0,0:0|1:0,0:0:0:0:
224,126,72885,6,0,B|164:120|131:174|131:174|65:128,1,180,2|0,0:0|0:0,0:0:0:0:
121,57,73885,1,0,1:0:0:0:
208,35,74219,2,0,P|274:45|312:157,1,180,0|4,0:0|0:1,0:0:0:0:
299,229,75219,1,0,1:0:0:0:
224,176,75552,6,0,B|169:209|169:209|161:266|214:309,1,180,4|0,0:0|0:0,0:0:0:0:
304,320,76552,1,0,1:0:0:0:
393,315,76885,2,0,L|444:241,1,90,2|0,0:0|1:0,0:0:0:0:
494,164,77552,2,0,L|389:102,1,90,0|0,0:0|1:0,0:0:0:0:
333,78,78219,6,0,P|270:126|175:88,1,180,2|0,0:0|0:0,0:0:0:0:
99,57,79219,1,0,1:0:0:0:
26,110,79552,2,0,B|54:145|98:147|98:147|132:186|115:237,1,180,4|0,0:0|0:0,0:0:0:0:
25,223,80552,1,0,1:0:0:0:
58,306,80885,6,0,P|90:324|169:306,1,90,4|0,0:0|1:0,0:0:0:0:
204,257,81552,2,0,P|248:253|288:273,1,90,0|0,0:0|1:0,1:0:0:0:
335,349,82219,1,4,0:0:0:0:
379,270,82552,1,0,1:0:0:0:
333,192,82885,2,0,P|322:149|334:107,1,90,0|0,0:0|1:0,0:0:0:0:
406,51,83552,6,0,B|436:98|413:149|413:149|459:212,1,180,2|0,0:0|0:0,0:0:0:0:
512,285,84552,1,0,1:0:0:0:
422,297,84885,2,0,B|376:306|351:347|351:347|308:320|263:330,1,180
237,244,85885,1,0,1:0:0:0:
328,241,86219,5,4,0:1:0:0:
232,89,86885,1,4,1:0:0:0:
148,248,87552,5,4,1:2:0:0:
237,244,87885,1,0,1:0:0:0:
328,241,88219,1,4,0:0:0:0:
441,101,88885,6,0,B|383:169|327:93|281:160,1,180,4|0,0:2|0:0,0:0:0:0:
237,244,89885,1,0,1:0:0:0:
328,241,90219,2,0,L|419:240,2,90
287,321,91219,1,0,0:0:0:0:
237,244,91552,6,0,B|174:297|210:370|210:370|141:349,1,180
92,316,92552,1,0,0:0:0:0:
128,233,92885,2,0,P|134:164|51:104,1,180,4|0,0:2|0:0,0:0:0:0:
46,194,93885,1,0,0:0:0:0:
128,233,94219,6,0,L|219:233,1,90,4|0,0:2|0:0,0:0:0:0:
291,180,94885,2,0,L|382:180,1,90
421,260,95552,2,0,L|511:260,2,90
348,313,96552,2,0,L|258:313,1,90,4|4,0:0|0:2,0:0:0:0:
438,313,97552,5,4,2:0:0:0:
258,313,98219,2,0,L|168:313,2,90,4|0|4,0:0|0:0|0:2,0:0:0:0:
