osu file format v12

[General]
AudioFilename: Digimon Adventure - Brave Heart [single].mp3
AudioLeadIn: 0
PreviewTime: 60400
Countdown: 0
SampleSet: Soft
StackLeniency: 0.7
Mode: 0
LetterboxInBreaks: 1

[Editor]
Bookmarks: 3663,12113,21408,25633,32396,45917,61128,89860,103580,110141,123662,139719,169296,186197,200563,218309
DistanceSpacing: 1
BeatDivisor: 4
GridSize: 4

[Metadata]
Title:Brave Heart
TitleUnicode:デジモンアドベンチャー挿入歌
Artist:Ayumi Miyazaki
ArtistUnicode:宮崎歩
Creator:ChivaCookie
Version:Mega
Source:Digimon Adventure
Tags:Love Digivolve デジモン Zeroarg
BeatmapID:243333
BeatmapSetID:89172

[Difficulty]
HPDrainRate:6
CircleSize:4
OverallDifficulty:7
ApproachRate:9
SliderMultiplier:2
SliderTickRate:1

[Events]
//Background and Video events
0,0,"digimon_01__greymon_and_taichi_by_midorigi-d4o4gnp.png",0,0
//Break Periods
2,25851,31811
2,103165,107435
2,168227,184115
//Storyboard Layer 0 (Background)
//Storyboard Layer 1 (Fail)
//Storyboard Layer 2 (Pass)
//Storyboard Layer 3 (Foreground)
//Storyboard Sound Samples
//Background Colour Transformations
3,100,163,162,255

[TimingPoints]
3260,422.481170662905,4,2,1,70,1,0
8329,-133.333333333333,4,2,1,70,0,0
11709,-100,4,2,1,70,0,0
31988,-100,4,2,1,85,0,0
45508,-100,4,2,1,85,0,0
60717,-100,4,2,1,85,0,1
61562,-100,4,3,1,85,0,1
89446,-100,4,2,1,85,0,0
135074,-100,4,3,1,85,0,0
139298,-100,4,2,1,85,0,1
168027,-100,4,2,1,85,0,0
186616,-200,4,2,1,85,0,0
199291,-100,4,2,1,85,0,0
200136,-100,4,2,1,85,0,1
213655,-100,4,2,1,85,0,0

[Colours]
Combo1 : 255,165,74
Combo2 : 255,255,0
Combo3 : 255,128,64
Combo4 : 255,255,128

[HitObjects]
84,172,3259,2,0,P|132:136|208:136,1,100,2|0,0:0|0:0,0:0:0:0:
292,216,3682,2,0,P|262:244|206:256,1,100,2|0,0:0|0:0,0:0:0:0:
84,172,4104,1,2,0:0:0:0:
96,72,4316,1,0,0:0:0:0:
184,28,4527,2,0,B|212:48|244:56|284:52,1,100,2|0,0:0|0:0,0:0:0:0:
380,52,4949,2,0,P|409:56|461:100,1,100,2|0,0:0|0:0,0:0:0:0:
376,152,5372,1,2,0:0:0:0:
462,100,5583,1,0,0:0:0:0:
456,200,5794,6,0,P|436:256|408:312,2,100,2|0|2,0:0|0:0|0:0,0:0:0:0:
376,152,6428,1,0,0:0:0:0:
349,56,6639,2,0,B|294:57|238:149|291:211,2,200,2|2|2,0:0|0:0|0:0,0:0:0:0:
376,152,7696,1,0,0:0:0:0:
291,212,7907,1,2,0:0:0:0:
193,160,8118,1,0,0:0:0:0:
272,136,8329,6,0,B|293:171|285:240|221:284|132:297|46:209|82:123|116:78|178:62|218:81,1,450.000017166138
256,192,9808,12,0,11709,0:0:0:0:
92,102,11920,6,0,P|138:73|178:65,2,50
60,196,12343,1,0,0:3:0:0:
99,291,12554,1,6,0:3:0:0:
192,325,12765,2,0,P|246:319|282:301,2,50,0|0|4,0:0|0:0|1:3,0:0:0:0:
152,232,13188,5,0,0:0:0:0:
164,132,13399,1,4,0:3:0:0:
215,56,13610,2,0,P|251:34|282:31,2,50,0|0|4,0:0|0:0|0:3,0:0:0:0:
236,156,14033,1,0,0:0:0:0:
288,240,14244,1,6,0:3:0:0:
368,296,14455,2,0,P|416:317|444:315,2,50,0|0|4,0:0|0:0|1:3,0:0:0:0:
352,196,14878,5,0,0:0:0:0:
316,104,15089,1,4,0:3:0:0:
232,48,15300,2,0,P|184:29|154:27,2,50,0|0|4,0:0|0:0|0:3,0:0:0:0:
252,148,15723,1,0,0:0:0:0:
216,240,15934,1,4,0:3:0:0:
136,300,16145,6,0,P|55:313|9:309,2,100,0|4|0,0:0|1:3|0:0,0:0:0:0:
216,240,16779,1,4,0:3:0:0:
252,148,16990,2,0,P|304:112|308:102,2,50,0|0|4,0:0|0:0|0:3,0:0:0:0:
156,124,17413,1,0,0:0:0:0:
180,220,17624,1,4,0:3:0:0:
88,184,17835,2,0,P|57:144|54:125,2,50,0|0|4,0:0|0:0|1:3,0:0:0:0:
180,220,18258,5,0,0:0:0:0:
280,240,18469,2,0,P|337:223|378:195,1,100,4|0,0:3|0:0,0:0:0:0:
280,240,18891,2,0,P|244:276|220:340,1,100,4|0,0:3|0:0,0:0:0:0:
324,324,19314,1,6,0:3:0:0:
488,72,19736,1,0,1:0:0:0:
190,278,20159,6,0,P|125:266|74:242,1,100,4|0,0:3|0:0,0:0:0:0:
0,136,20581,2,0,P|69:129|121:89,1,100,4|0,0:3|0:0,0:0:0:0:
232,48,21004,1,6,0:3:0:0:
448,256,21426,1,0,1:0:0:0:
232,48,21849,6,0,P|274:88|295:135,1,100,4|0,0:3|0:0,0:0:0:0:
380,172,22271,2,0,P|327:206|263:215,1,100,4|0,0:3|0:0,0:0:0:0:
244,224,22588,1,0,0:0:0:0:
196,220,22694,1,4,0:3:0:0:
84,336,22905,6,0,P|28:296|16:252,1,100,8|4,0:3|1:3,0:0:0:0:
16,120,23327,2,0,P|40:68|80:44,1,100,8|0,0:3|0:3,0:0:0:0:
184,152,23750,6,0,P|240:156|307:179,1,100,0|4,0:0|0:3,0:0:0:0:
372,208,24172,1,0,0:0:0:0:
420,192,24278,1,0,0:0:0:0:
464,168,24384,2,0,P|502:91|493:54,1,100,4|0,0:3|0:0,0:0:0:0:
417,2,24806,5,0,1:3:0:0:
340,68,25017,1,0,1:0:0:0:
292,88,25123,1,0,1:0:0:0:
241,88,25229,1,4,0:3:0:0:
152,132,25440,1,0,0:0:0:0:
116,224,25651,1,0,1:0:0:0:
67,128,32411,6,0,P|101:45|126:12,1,100,0|0,1:0|0:0,0:0:0:0:
123,185,32833,2,0,P|205:180|242:168,1,100,4|4,0:3|0:3,0:0:0:0:
67,256,33256,2,0,P|101:339|126:372,1,100,0|0,1:0|0:0,0:0:0:0:
404,320,33889,5,4,0:3:0:0:
459,200,34101,2,0,P|454:145|428:101,1,100,0|0,1:0|0:0,0:0:0:0:
301,33,34523,1,0,0:0:0:0:
197,141,34734,1,4,0:3:0:0:
218,289,34946,2,0,P|278:324|313:326,1,100,0|0,1:0|0:0,0:0:0:0:
440,257,35368,5,4,0:3:0:0:
300,201,35579,1,4,0:3:0:0:
440,146,35791,1,0,1:0:0:0:
300,92,36002,1,0,0:0:0:0:
197,141,36213,2,0,P|134:150|72:114,1,100,4|4,0:3|0:3,0:0:0:0:
7,20,36636,2,0,P|36:87|70:113,1,100,0|4,1:0|0:3,0:0:0:0:
259,323,37269,6,0,L|259:217,1,100,4|0,0:3|1:0,0:0:0:0:
114,180,37692,1,0,0:0:0:0:
124,132,37797,1,0,1:0:0:0:
148,88,37903,2,0,B|182:66|224:40|264:32,1,100,4|4,0:3|0:3,0:0:0:0:
370,243,38325,2,0,L|303:151,1,100,0|0,1:0|1:0,0:0:0:0:
308,112,38642,2,0,L|247:81,1,50,0|4,1:0|0:3,0:0:0:0:
2,207,39170,6,0,P|38:261|80:297,1,100,0|0,1:0|0:0,0:0:0:0:
205,334,39593,2,0,P|179:310|143:256,1,100,4|4,0:3|0:3,0:0:0:0:
151,114,40015,2,0,P|176:137|212:191,1,100,0|0,1:0|0:0,0:0:0:0:
467,338,40649,6,0,P|511:250|501:207,1,100,4|0,0:3|1:0,0:0:0:0:
451,114,41072,1,0,0:0:0:0:
313,54,41283,2,0,P|217:53|183:67,1,100,4|4,0:3|0:3,0:0:0:0:
116,167,41705,2,0,P|118:225|143:267,1,100,0|0,1:0|0:0,0:0:0:0:
323,206,42128,6,0,P|323:221|284:295,1,100,4|4,0:3|0:3,0:0:0:0:
250,97,42550,1,0,1:0:0:0:
413,160,42761,2,0,P|464:190|511:228,2,100,0|4|4,0:0|0:3|0:3,0:0:0:0:
262,160,43395,1,0,1:0:0:0:
154,264,43606,5,4,0:3:0:0:
480,32,44029,1,4,0:3:0:0:
412,160,44240,1,0,1:0:0:0:
250,97,44451,1,4,0:3:0:0:
52,156,44663,1,0,1:0:0:0:
100,332,44874,1,4,0:3:0:0:
364,322,45085,1,0,1:0:0:0:
314,313,45191,1,0,1:0:0:0:
267,296,45296,1,0,1:0:0:0:
148,200,45508,6,0,P|208:176|272:116,1,150,4|0,0:3|0:0,0:0:0:0:
324,68,45930,2,0,P|344:104|332:160,1,100,0|4,1:0|0:3,0:0:0:0:
212,252,46353,1,4,0:3:0:0:
112,140,46564,2,0,P|56:104|20:100,1,100,0|0,0:0|1:0,0:0:0:0:
8,176,46986,6,0,P|40:248|81:290,2,100,0|4|4,0:0|0:3|0:3,0:0:0:0:
68,36,47620,2,0,P|143:35|166:47,1,100,0|0,1:0|0:0,0:0:0:0:
204,76,47937,1,0,0:0:0:0:
232,116,48043,2,0,P|283:174|318:196,1,100,4|4,0:3|0:3,0:0:0:0:
400,212,48465,1,0,1:0:0:0:
472,280,48676,1,0,0:0:0:0:
376,308,48887,6,0,P|360:313|279:328,1,100,4|4,0:3|0:3,0:0:0:0:
228,324,49204,1,0,0:0:0:0:
184,304,49310,2,0,P|139:250|120:212,1,100,0|0,1:0|0:0,0:0:0:0:
156,124,49732,6,0,P|91:123|56:140,1,100,4|4,0:3|0:3,0:0:0:0:
124,224,50155,2,0,P|100:274|107:325,1,100,0|0,1:0|0:0,0:0:0:0:
136,356,50472,1,0,0:0:0:0:
184,368,50577,2,0,P|244:352|276:312,1,100,4|0,0:3|0:0,0:0:0:0:
296,284,50894,1,0,0:0:0:0:
312,236,51000,2,0,P|303:193|262:151,1,100,0|0,1:0|0:0,0:0:0:0:
220,128,51317,5,0,0:0:0:0:
172,124,51422,2,4,P|120:112|52:152,1,100
29,229,51845,2,0,P|80:240|124:224,1,100,0|4,1:0|0:3,0:0:0:0:
76,127,52267,1,4,0:3:0:0:
164,44,52479,1,4,0:3:0:0:
300,76,52690,1,0,1:0:0:0:
424,160,52901,6,0,L|480:212,1,50
428,264,53112,2,0,L|332:236,1,100,4|4,0:3|0:3,0:0:0:0:
208,120,53535,2,0,L|291:204,1,100,0|0,1:0|0:0,0:0:0:0:
297,315,53957,2,0,L|223:242,1,100,4|4,0:3|0:3,0:0:0:0:
83,200,54380,2,0,L|166:284,1,100,0|0,1:0|0:0,0:0:0:0:
296,224,54802,5,4,0:3:0:0:
400,120,55013,1,4,0:3:0:0:
272,40,55225,2,0,P|191:37|154:59,1,100,0|0,1:0|0:0,0:0:0:0:
40,112,55647,5,4,0:3:0:0:
14,266,55858,2,0,P|66:234|86:183,1,100,0|0,0:0|1:0,0:0:0:0:
174,56,56281,2,0,P|234:44|290:40,1,100,4|4,0:3|0:3,0:0:0:0:
228,220,56703,1,4,0:3:0:0:
376,288,56915,1,0,1:0:0:0:
508,200,57126,1,0,0:0:0:0:
496,40,57337,5,4,0:3:0:0:
175,56,57760,1,0,1:0:0:0:
348,338,58182,1,4,0:3:0:0:
51,68,58605,1,0,1:0:0:0:
148,184,58816,1,0,1:0:0:0:
148,184,58921,1,0,1:0:0:0:
256,192,59027,12,0,60294,0:0:0:0:
324,272,60506,5,0,0:0:0:0:
284,300,60611,1,0,0:0:0:0:
236,312,60717,1,4,0:3:0:0:
68,284,60928,2,0,P|28:231|28:180,1,100,4|0,0:3|1:0,0:0:0:0:
64,56,61351,1,4,0:3:0:0:
136,180,61562,1,4,0:3:0:0:
300,24,61879,2,0,P|352:32|380:48,1,50,4|0,0:3|1:0,0:0:0:0:
136,180,62196,1,0,0:0:0:0:
64,56,62407,6,0,P|25:123|65:152,1,100,4|4,0:3|0:3,0:0:0:0:
180,156,62829,2,0,P|169:232|120:231,1,100,0|4,1:1|0:3,0:0:0:0:
28,308,63252,2,0,P|68:356|108:372,1,100,4|4,0:3|0:3,0:0:0:0:
296,344,63674,1,0,1:0:0:0:
440,296,63886,5,0,0:0:0:0:
408,260,63991,1,0,0:0:0:0:
364,236,64097,2,0,P|340:205|316:149,1,100,4|4,0:3|0:3,0:0:0:0:
148,40,64519,2,0,P|108:24|32:52,1,100,0|4,1:0|0:3,0:0:0:0:
96,128,64942,2,0,P|164:124|244:96,1,150,4|4,0:3|0:3,0:0:0:0:
276,64,65364,1,0,1:0:0:0:
192,332,65575,5,4,0:3:0:0:
204,284,65681,1,0,0:0:0:0:
212,236,65787,2,0,P|164:220|100:188,1,100,4|4,0:3|0:3,0:0:0:0:
140,52,66209,2,0,P|140:140|132:172,1,100,0|4,1:0|0:3,0:0:0:0:
120,200,66526,1,0,0:0:0:0:
92,240,66632,2,0,P|52:280|4:288,2,100,4|4|0,0:3|0:3|1:0,0:0:0:0:
104,128,67265,5,0,0:0:0:0:
256,128,67477,1,4,0:3:0:0:
368,264,67688,1,4,0:3:0:0:
488,128,67899,1,0,1:0:0:0:
344,16,68110,6,0,P|304:8|288:8,2,50,0|0|4,0:0|0:0|0:3,0:0:0:0:
488,128,68533,1,4,0:3:0:0:
368,264,68744,1,0,1:0:0:0:
192,184,68955,1,4,0:3:0:0:
48,64,69167,1,0,0:0:0:0:
424,24,69589,5,0,1:0:0:0:
304,176,69800,1,4,0:3:0:0:
264,144,69906,1,0,0:0:0:0:
220,120,70012,1,4,0:3:0:0:
16,104,70223,1,4,0:3:0:0:
32,296,70434,1,0,1:0:0:0:
368,248,70856,5,4,0:3:0:0:
488,96,71068,1,4,0:3:0:0:
308,108,71279,1,0,1:0:0:0:
188,212,71490,1,4,0:3:0:0:
200,164,71596,1,0,1:0:0:0:
184,116,71701,6,0,P|112:108|80:124,1,100,4|4,0:3|0:3,0:0:0:0:
24,248,72124,1,0,1:0:0:0:
256,192,72335,12,4,73814,0:3:0:0:
88,256,74025,5,0,0:0:0:0:
120,216,74131,1,0,0:0:0:0:
164,192,74236,1,4,0:2:0:0:
252,380,74448,6,0,P|284:348|288:292,1,100,4|0,0:3|1:0,0:0:0:0:
256,148,74870,1,4,0:3:0:0:
300,120,74976,1,0,0:0:0:0:
348,124,75081,2,0,P|381:185|374:222,1,100,4|4,0:3|0:3,0:0:0:0:
304,340,75504,2,0,P|358:323|368:280,1,100,0|4,1:0|0:3,0:0:0:0:
344,244,75821,5,0,0:0:0:0:
296,232,75926,2,0,P|228:252|184:244,1,100,4|4,0:3|0:3,0:0:0:0:
20,124,76349,1,0,1:0:0:0:
152,36,76560,1,4,0:3:0:0:
200,28,76666,1,0,0:0:0:0:
248,36,76771,2,0,P|308:52|352:92,1,100,4|4,0:3|0:3,0:0:0:0:
484,196,77194,1,0,1:0:0:0:
400,332,77405,5,0,0:0:0:0:
348,336,77511,1,0,0:0:0:0:
300,336,77616,2,0,P|200:344|88:320,1,200,4|0,0:2|1:0,0:0:0:0:
28,160,78250,5,4,0:3:0:0:
36,112,78356,1,0,0:0:0:0:
68,72,78461,2,0,P|128:84|164:108,1,100,4|4,0:3|0:3,0:0:0:0:
248,212,78884,1,0,1:0:0:0:
400,160,79095,5,0,0:0:0:0:
376,116,79200,1,4,0:3:0:0:
340,84,79306,2,0,P|284:72|236:76,2,100,4|4|0,0:3|0:3|1:0,0:0:0:0:
344,196,79940,1,4,0:3:0:0:
316,240,80045,1,0,0:0:0:0:
280,276,80151,2,0,P|240:284|180:228,1,100,4|4,0:3|0:3,0:0:0:0:
60,104,80574,1,0,1:0:0:0:
200,28,80785,5,0,0:0:0:0:
248,192,80996,1,4,0:3:0:0:
288,28,81207,1,4,0:3:0:0:
172,152,81419,1,0,1:0:0:0:
336,104,81630,1,4,0:3:0:0:
336,104,81735,1,0,0:0:0:0:
336,104,81841,1,4,0:3:0:0:
156,84,82052,1,4,0:3:0:0:
308,152,82263,1,0,1:0:0:0:
32,344,82686,5,4,0:3:0:0:
116,88,83003,1,0,1:0:0:0:
116,88,83108,1,0,0:0:0:0:
252,200,83320,1,4,0:3:0:0:
252,200,83425,1,0,0:0:0:0:
252,200,83531,1,0,0:0:0:0:
392,148,83742,1,4,0:3:0:0:
456,12,83953,1,0,1:0:0:0:
460,164,84165,6,0,P|496:116|512:60,1,100,4|4,0:3|0:3,0:0:0:0:
360,52,84587,1,0,0:0:0:0:
212,44,84798,1,0,1:0:0:0:
204,176,85010,5,0,0:0:0:0:
236,132,85115,1,0,0:0:0:0:
284,112,85221,2,0,P|320:172|316:220,1,100,4|4,0:3|0:3,0:0:0:0:
368,316,85643,1,0,1:0:0:0:
188,296,85855,1,0,0:0:0:0:
188,296,85960,1,0,1:0:0:0:
256,192,86066,12,4,87756,0:3:0:0:
56,192,87967,5,0,0:0:0:0:
172,40,88178,1,0,1:0:0:0:
360,40,88389,1,4,0:3:0:0:
476,192,88601,1,4,0:3:0:0:
360,340,88812,1,0,0:0:0:0:
172,336,89023,1,0,1:0:0:0:
128,316,89129,1,0,0:0:0:0:
92,284,89234,1,0,1:0:0:0:
352,136,89446,5,4,0:3:0:0:
80,40,89868,1,4,0:3:0:0:
88,188,90079,1,0,0:0:0:0:
132,208,90185,1,0,0:0:0:0:
180,224,90291,1,4,0:3:0:0:
184,100,90502,2,0,P|252:60|280:48,2,100,0|0|0,0:0|1:0|0:0,0:0:0:0:
144,132,91030,1,0,0:0:0:0:
188,152,91136,5,4,0:3:0:0:
140,348,91347,1,0,0:0:0:0:
288,344,91558,1,4,0:3:0:0:
408,252,91769,1,0,0:0:0:0:
408,200,91875,1,0,0:0:0:0:
384,156,91981,2,0,P|328:96|280:48,1,150,4|4,0:3|0:3,0:0:0:0:
232,36,92403,1,0,1:0:0:0:
68,112,92614,5,0,0:0:0:0:
48,156,92720,1,0,0:0:0:0:
60,204,92826,2,0,P|84:215|156:223,1,100,4|0,0:3|0:0,0:0:0:0:
176,84,93248,6,0,P|280:128|288:152,1,100,4|0,0:3|0:0,0:0:0:0:
300,256,93670,2,0,P|368:224|392:196,1,100,4|0,0:3|0:0,0:0:0:0:
368,56,94093,1,0,1:0:0:0:
224,24,94304,2,0,P|160:16|108:24,1,100,0|4,0:0|0:3,0:0:0:0:
60,156,94727,1,0,0:0:0:0:
60,304,94938,5,4,0:3:0:0:
208,280,95149,1,0,0:0:0:0:
252,300,95255,1,0,0:0:0:0:
288,268,95360,1,4,0:3:0:0:
36,32,95783,1,0,1:0:0:0:
236,56,96205,6,0,L|448:56,1,200,4|4,0:3|0:3,0:0:0:0:
408,96,96733,1,0,0:0:0:0:
368,128,96839,1,0,0:0:0:0:
332,160,96945,1,0,0:0:0:0:
288,192,97050,2,0,L|76:192,1,200,4|0,0:3|1:0,0:0:0:0:
228,348,97895,2,0,L|440:348,1,200,4|4,0:3|0:3,0:0:0:0:
456,304,98423,5,0,0:0:0:0:
472,256,98529,1,0,0:0:0:0:
452,208,98635,1,0,0:0:0:0:
436,160,98740,2,4,L|236:160,2,200,4|0|4,0:3|1:0|0:3,0:0:0:0:
236,160,100008,1,4,0:3:0:0:
188,24,100219,1,0,0:0:0:0:
240,24,100325,1,0,0:0:0:0:
288,32,100430,1,4,0:3:0:0:
448,136,100641,2,0,P|460:192|448:244,1,100,0|0,0:0|1:0,0:0:0:0:
336,328,101064,1,0,0:0:0:0:
188,332,101275,5,4,0:3:0:0:
72,56,101698,1,4,0:3:0:0:
220,44,101909,1,0,0:0:0:0:
268,48,102014,1,0,0:0:0:0:
316,64,102120,1,4,0:3:0:0:
104,208,102543,5,0,1:0:0:0:
252,208,102754,1,0,1:0:0:0:
252,208,102859,1,0,1:0:0:0:
252,208,102965,1,4,0:3:0:0:
256,192,108035,12,0,109725,0:0:0:0:
76,140,110147,6,0,P|116:88|156:72,1,100,0|0,1:0|0:0,0:0:0:0:
206,212,110570,2,0,P|278:216|334:208,1,100,4|4,0:3|0:3,0:0:0:0:
368,349,110992,2,0,P|432:313|452:277,1,100,0|4,1:0|0:3,0:0:0:0:
88,44,111626,5,4,0:3:0:0:
236,44,111837,2,0,L|124:44,1,100,0|0,1:0|0:0,0:0:0:0:
24,148,112260,2,0,L|144:148,1,100,4|4,0:3|0:3,0:0:0:0:
272,148,112682,1,0,1:0:0:0:
420,148,112893,1,0,0:0:0:0:
512,232,113105,2,0,P|524:304|484:324,1,100,4|4,0:3|0:3,0:0:0:0:
364,348,113527,1,0,1:0:0:0:
224,300,113738,1,0,0:0:0:0:
72,300,113950,6,0,P|92:224|132:236,1,100,4|4,0:3|0:3,0:0:0:0:
244,216,114372,1,0,1:0:0:0:
392,184,114583,2,0,P|440:132|368:44,1,200,4|0,0:3|0:0,0:0:0:0:
320,48,115111,5,0,0:0:0:0:
272,60,115217,1,0,0:0:0:0:
228,84,115323,1,0,0:0:0:0:
192,116,115428,1,0,0:0:0:0:
164,156,115534,1,0,0:0:0:0:
148,204,115639,2,0,P|148:256|168:312,1,100
284,316,116062,1,0,1:0:0:0:
380,260,116273,1,0,1:0:0:0:
408,220,116379,1,0,1:0:0:0:
432,176,116484,6,0,P|448:96|432:52,1,100,4|4,0:3|0:3,0:0:0:0:
300,20,116907,2,0,P|280:88|244:120,1,100,0|4,1:0|0:3,0:0:0:0:
164,220,117329,2,0,P|256:216|288:204,1,100,4|4,0:3|0:3,0:0:0:0:
384,128,117752,1,0,1:0:0:0:
304,256,117963,2,0,P|224:296|192:300,1,100,4|0,0:3|0:0,0:0:0:0:
64,280,118386,2,0,P|16:216|8:176,1,100,4|0,0:3|1:0,0:0:0:0:
104,80,118808,6,0,P|144:56|200:56,2,100,0|4|4,0:0|0:3|0:3,0:0:0:0:
32,212,119442,1,0,1:0:0:0:
92,352,119653,1,0,0:0:0:0:
240,356,119864,6,0,L|264:248,1,100,4|4,0:3|0:3,0:0:0:0:
284,108,120287,1,0,1:0:0:0:
48,292,120709,6,0,P|116:284|152:268,1,100,4|4,0:3|0:3,0:0:0:0:
272,192,121132,1,0,1:0:0:0:
320,48,121343,2,0,P|416:44|436:140,1,200,4|4,0:3|0:3,0:0:0:0:
384,272,121977,5,0,1:0:0:0:
440,132,122188,1,4,0:3:0:0:
292,156,122399,5,0,1:0:0:0:
260,116,122505,1,0,0:0:0:0:
212,104,122610,1,0,0:0:0:0:
164,120,122716,1,0,0:0:0:0:
136,164,122822,1,0,1:0:0:0:
140,212,122927,1,0,1:0:0:0:
172,248,123033,1,0,0:0:0:0:
308,312,123244,6,0,P|372:272|404:220,1,100,4|4,0:3|0:3,0:0:0:0:
420,108,123667,1,0,1:0:0:0:
296,20,123878,1,0,0:0:0:0:
340,164,124089,2,0,P|344:88|324:52,1,100,4|4,0:3|0:3,0:0:0:0:
244,188,124512,1,0,1:0:0:0:
96,184,124723,6,0,P|40:164|16:132,1,100,0|4,0:0|0:3,0:0:0:0:
100,8,125145,2,0,P|36:28|4:72,1,100,4|0,0:3|1:0,0:0:0:0:
24,200,125568,1,0,0:0:0:0:
48,244,125673,1,0,0:0:0:0:
84,280,125779,2,0,P|164:300|192:296,1,100,4|4,0:3|0:3,0:0:0:0:
368,292,126202,1,0,1:0:0:0:
436,160,126413,5,0,0:0:0:0:
428,112,126518,1,0,0:0:0:0:
396,76,126624,2,0,P|356:136|352:176,1,100,4|4,0:3|0:3,0:0:0:0:
288,264,127046,1,0,1:0:0:0:
152,200,127258,1,0,0:0:0:0:
84,68,127469,6,0,P|80:148|96:180,1,100,4|4,0:3|0:3,0:0:0:0:
164,292,127891,1,0,1:0:0:0:
188,144,128103,2,0,P|200:204|228:248,1,100,0|4,0:0|0:3,0:0:0:0:
312,356,128525,1,4,0:3:0:0:
332,208,128736,2,0,P|352:264|392:320,2,100,0|0|4,1:0|0:0|0:3,0:0:0:0:
316,60,129370,6,0,P|276:24|224:8,1,100,4|0,0:3|1:0,0:0:0:0:
84,40,129793,2,0,P|124:84|172:104,1,100,0|4,0:0|0:0,0:0:0:0:
308,128,130215,1,4,0:3:0:0:
456,108,130426,1,0,1:0:0:0:
268,340,130849,6,0,P|216:288|172:224,1,150,4|0,0:3|0:0,0:0:0:0:
164,176,131271,1,0,1:0:0:0:
240,28,131483,2,0,P|256:116|252:144,1,100,0|4,0:0|0:3,0:0:0:0:
219,252,131905,1,4,0:3:0:0:
320,148,132116,1,0,1:0:0:0:
436,52,132327,6,0,L|468:164,1,100,4|4,0:3|0:3,0:0:0:0:
428,296,132750,1,4,0:3:0:0:
388,152,132961,2,0,L|468:244,1,100,0|0,1:0|0:0,0:0:0:0:
496,372,133384,1,4,0:3:0:0:
352,332,133595,6,0,P|328:272|288:220,1,100,4|0,0:3|1:0,0:0:0:0:
192,148,134017,1,0,0:0:0:0:
80,48,134229,2,0,P|80:108|104:152,1,100,4|4,0:3|0:3,0:0:0:0:
192,260,134651,1,0,1:0:0:0:
340,288,134862,1,0,0:0:0:0:
440,176,135074,5,8,0:0:0:0:
156,16,135496,1,8,0:0:0:0:
92,308,135919,1,8,0:0:0:0:
292,84,136341,1,8,0:0:0:0:
256,192,136764,12,4,139298,0:3:0:0:
64,72,139510,6,0,P|85:112|125:148,1,100,4|0,0:3|1:0,0:0:0:0:
244,56,139932,2,0,P|288:100|308:140,1,100,0|4,0:0|0:3,0:0:0:0:
248,272,140355,1,4,0:3:0:0:
100,292,140566,2,0,P|36:228|24:180,1,100,0|0,1:0|0:0,0:0:0:0:
136,112,140988,6,0,B|144:168|192:200|192:200|256:284,1,200,4|0,0:3|1:0,0:0:0:0:
216,124,141622,1,0,0:0:0:0:
348,192,141833,1,4,0:3:0:0:
392,48,142045,1,4,0:3:0:0:
496,156,142256,1,0,1:0:0:0:
348,192,142467,6,0,P|312:168|304:152,1,50
284,120,142678,1,4,0:3:0:0:
156,44,142890,2,0,P|232:52|284:84,1,100,4|0,0:3|1:0,0:0:0:0:
308,196,143312,2,0,P|384:208|396:204,1,50
404,208,143523,1,4,0:3:0:0:
508,108,143734,1,4,0:3:0:0:
384,24,143946,1,0,1:0:0:0:
264,112,144157,5,0,0:0:0:0:
216,124,144263,1,0,0:0:0:0:
184,160,144368,2,0,P|208:204|264:232,1,100,4|4,0:3|0:3,0:0:0:0:
360,212,144791,2,0,P|316:252|312:328,1,100,0|0,1:0|0:0,0:0:0:0:
304,340,145108,1,0,0:0:0:0:
348,316,145213,2,0,P|308:256|248:232,1,100,4|4,0:3|0:3,0:0:0:0:
128,268,145636,1,0,1:0:0:0:
108,120,145847,1,0,0:0:0:0:
232,40,146058,6,0,L|176:128,1,100,4|4,0:3|0:3,0:0:0:0:
312,56,146481,1,0,1:0:0:0:
460,48,146692,1,0,0:0:0:0:
456,96,146797,1,0,0:0:0:0:
424,136,146903,2,0,L|300:168,1,100,4|4,0:3|0:3,0:0:0:0:
448,252,147326,2,0,L|332:232,1,100,0|0,1:0|0:0,0:0:0:0:
184,204,147748,6,0,P|184:144|104:32,1,200,4|0,0:3|1:0,0:0:0:0:
32,164,148382,2,0,P|132:156|232:120,1,200,4|4,0:3|0:3,0:0:0:0:
360,56,149016,2,0,P|424:48|460:52,1,100,0|0,1:0|0:0,0:0:0:0:
332,132,149438,5,4,0:3:0:0:
224,236,149649,2,0,P|188:280|176:336,1,100,4|0,0:3|1:0,0:0:0:0:
324,340,150072,1,0,0:0:0:0:
372,324,150177,1,0,0:0:0:0:
412,296,150283,2,0,P|444:244|452:200,2,100,4|4|0,0:3|0:3|1:0,0:0:0:0:
256,192,150917,12,0,152395,1:0:0:0:
204,188,152607,5,0,0:0:0:0:
192,140,152712,1,0,0:0:0:0:
236,116,152818,1,4,0:3:0:0:
420,352,153240,6,0,P|464:284|456:252,1,100,0|4,1:0|0:3,0:0:0:0:
452,220,153557,1,0,0:3:0:0:
416,188,153663,2,0,P|364:164|316:124,1,100,4|4,0:3|0:3,0:0:0:0:
172,16,154085,1,0,1:0:0:0:
24,36,154297,1,0,0:0:0:0:
28,184,154508,2,0,P|68:248|112:296,2,100,4|4|0,0:3|0:3|1:0,0:0:0:0:
24,36,155141,5,0,0:0:0:0:
68,64,155247,1,0,0:0:0:0:
116,80,155353,1,8,0:3:0:0:
332,68,155564,1,0,0:0:0:0:
468,108,155775,1,0,1:0:0:0:
492,264,155986,6,0,P|464:312|400:328,1,100,4|0,0:3|0:0,0:0:0:0:
268,296,156409,1,4,0:3:0:0:
148,188,156620,1,0,1:0:0:0:
228,48,156831,1,0,0:0:0:0:
180,60,156937,1,0,0:0:0:0:
184,108,157043,6,0,P|216:156|260:180,1,100,4|4,0:3|0:3,0:0:0:0:
396,216,157465,1,0,1:0:0:0:
448,76,157676,1,0,0:0:0:0:
284,24,157888,2,0,B|232:108|224:188|240:248,1,200,4|0,0:3|1:0,0:0:0:0:
316,352,158521,1,4,0:3:0:0:
368,356,158627,1,0,0:0:0:0:
412,336,158733,2,0,P|440:272|440:220,2,100,4|4|0,0:3|0:3|1:0,0:0:0:0:
440,152,159366,5,0,0:0:0:0:
316,64,159578,2,0,P|184:40|148:52,1,150,4|0,0:3|0:0,0:0:0:0:
136,48,160000,1,0,1:0:0:0:
28,176,160211,1,0,0:0:0:0:
160,272,160422,1,4,0:3:0:0:
312,268,160634,1,4,0:3:0:0:
268,124,160845,1,0,1:0:0:0:
136,48,161056,1,0,0:0:0:0:
84,240,161267,6,0,P|192:240|236:216,1,150,4|0,0:3|0:0,0:0:0:0:
268,192,161690,1,0,1:0:0:0:
212,52,161901,1,0,0:0:0:0:
44,72,162112,1,4,0:3:0:0:
32,264,162324,1,4,0:3:0:0:
208,332,162535,1,0,1:0:0:0:
356,196,162746,1,0,0:0:0:0:
268,16,162957,6,0,P|128:32|116:40,1,150,4|0,0:3|0:0,0:0:0:0:
88,72,163380,1,0,1:0:0:0:
36,244,163591,1,0,0:0:0:0:
88,244,163697,1,0,0:0:0:0:
128,212,163802,1,4,0:3:0:0:
312,116,164014,1,4,0:3:0:0:
460,104,164225,2,0,P|456:48|424:24,1,100,0|0,1:0|1:0,0:0:0:0:
372,16,164542,1,0,1:0:0:0:
256,192,164647,12,4,166337,0:3:0:0:
104,188,166760,6,0,L|192:132,1,100,4|0,0:3|1:0,0:0:0:0:
284,20,167182,2,0,P|352:24|380:60,1,100,4|0,0:3|0:0,0:0:0:0:
468,180,167605,1,0,1:0:0:0:
420,104,167816,1,0,0:0:0:0:
416,252,168027,1,4,0:0:0:0:
256,192,184715,12,0,186616,0:0:0:0:
116,188,187250,6,0,L|96:120,1,50
168,104,187673,2,0,L|192:196,1,87.5
236,272,188306,2,0,P|280:296|344:288,1,100
388,248,188940,2,0,P|364:276|336:292,1,50
312,156,189574,5,0,0:0:0:0:
236,156,189785,2,0,L|192:160,2,25,0|0|2,0:0|0:0|0:0,0:0:0:0:
96,108,190419,1,0,0:0:0:0:
60,172,190630,2,0,P|56:216|64:240,1,50
116,316,191158,1,0,0:0:0:0:
172,220,191475,1,0,0:0:0:0:
248,220,191686,6,0,P|300:192|336:152,2,100
256,192,192637,12,0,193376,0:0:0:0:
116,192,193799,6,0,P|100:156|100:132,1,50
316,92,194432,2,0,P|360:108|384:120,1,50
424,168,194855,1,0,0:0:0:0:
412,252,195065,2,0,P|412:284|348:320,1,100
248,304,195700,2,0,P|212:288|184:268,2,50
324,304,196333,1,0,0:0:0:0:
380,256,196545,1,0,0:0:0:0:
396,224,196650,1,0,0:0:0:0:
404,188,196756,2,0,P|392:132|360:88,1,100
324,36,197389,5,0,0:0:0:0:
252,60,197600,1,0,0:0:0:0:
184,96,197811,1,0,0:0:0:0:
128,144,198022,1,0,0:0:0:0:
80,200,198234,1,0,0:0:0:0:
220,244,198657,5,4,0:3:0:0:
368,144,198974,1,4,0:3:0:0:
168,36,199291,1,4,0:3:0:0:
40,240,199608,1,12,0:3:0:0:
272,348,199924,1,2,0:0:0:0:
316,324,200030,1,2,0:0:0:0:
348,284,200136,1,2,0:0:0:0:
81,288,200347,6,0,P|41:235|37:203,1,100,4|0,0:3|1:0,0:0:0:0:
178,151,200770,2,0,P|241:187|266:185,1,100,0|4,0:0|0:3,0:0:0:0:
320,325,201192,2,0,P|247:312|226:298,1,100,4|0,0:3|1:0,0:0:0:0:
114,197,201615,1,0,0:0:0:0:
65,55,201826,6,0,P|48:68|24:144,1,100,4|4,0:3|0:3,0:0:0:0:
178,151,202248,2,0,P|179:230|165:253,1,100,0|4,1:1|0:3,0:0:0:0:
126,271,202565,1,0,0:0:0:0:
83,297,202671,2,0,P|123:345|156:359,2,100,4|4|0,0:3|0:3|1:0,0:0:0:0:
376,288,203305,5,0,0:0:0:0:
352,244,203410,1,0,0:0:0:0:
400,216,203516,2,0,P|376:160|352:129,1,100,4|4,0:3|0:3,0:0:0:0:
216,64,203938,2,0,P|128:72|117:75,1,100,0|4,1:0|0:3,0:0:0:0:
76,104,204255,1,0,0:0:0:0:
64,152,204361,2,0,P|144:144|184:144,1,100,4|4,0:3|0:3,0:0:0:0:
248,168,204783,1,0,1:0:0:0:
184,304,204994,5,4,0:3:0:0:
228,280,205100,1,0,0:0:0:0:
216,240,205206,2,0,P|168:224|123:203,1,100,4|4,0:3|0:3,0:0:0:0:
144,56,205628,2,0,P|144:144|141:155,1,100,0|4,1:0|0:3,0:0:0:0:
124,204,205945,1,0,0:0:0:0:
100,248,206051,2,0,P|60:288|19:296,2,100,4|4|0,0:3|0:3|1:0,0:0:0:0:
136,144,206684,5,0,0:0:0:0:
248,48,206895,2,4,P|320:64|376:96,1,100,4|4,0:0|0:3,0:3:0:0:
440,192,207318,1,0,1:0:0:0:
424,344,207529,1,0,0:0:0:0:
280,304,207740,6,4,P|224:256|208:216,1,100,4|4,0:0|0:3,0:3:0:0:
192,88,208163,2,0,P|184:144|192:192,1,100,0|0,1:0|0:0,0:0:0:0:
102,304,208585,6,4,P|158:256|174:216,1,100
192,88,209008,2,0,P|200:144|192:192,1,100,0|0,1:0|0:0,0:0:0:0:
164,228,209325,1,0,0:0:0:0:
116,228,209430,2,4,P|68:187|53:135,1,100
110,6,209853,1,0,1:0:0:0:
275,42,210064,1,0,0:0:0:0:
256,192,210275,12,0,211965,0:0:0:0:
258,189,212176,5,0,0:0:0:0:
258,189,212388,1,0,0:0:0:0:
108,188,212599,5,0,0:0:0:0:
226,96,212810,2,0,P|258:176|254:228,1,100
270,313,213233,2,0,P|344:278|384:240,1,100
380,220,213550,1,4,0:3:0:0:
360,176,213655,5,0,0:0:0:0:
92,102,213866,2,0,P|138:73|178:65,2,50,0|0|4,0:3|0:0|0:3,0:0:0:0:
63,198,214289,1,0,0:3:0:0:
99,291,214500,1,4,0:3:0:0:
192,325,214711,2,0,P|246:319|282:301,2,50,0|0|4,0:0|0:0|1:3,0:0:0:0:
143,237,215134,5,0,0:0:0:0:
157,138,215345,1,4,0:3:0:0:
215,56,215556,2,0,P|251:34|282:31,2,50,0|0|4,0:0|0:0|0:3,0:0:0:0:
228,155,215979,1,0,0:0:0:0:
245,202,216084,1,0,0:0:0:0:
277,240,216190,1,4,0:3:0:0:
364,287,216401,2,0,P|412:308|440:306,2,50,0|0|4,0:0|0:0|1:3,0:0:0:0:
335,190,216824,5,0,0:0:0:0:
308,93,217035,1,4,0:3:0:0:
232,27,217246,2,0,P|184:8|154:6,2,50,0|0|4,0:0|0:0|0:3,0:0:0:0:
247,126,217669,1,0,0:0:0:0:
248,176,217774,1,0,0:0:0:0:
228,208,217880,1,4,0:3:0:0:
187,308,218091,6,0,P|106:321|60:317,2,100,0|4|0,0:0|1:3|0:0,0:0:0:0:
282,275,218725,1,4,0:3:0:0:
358,220,218936,2,0,P|410:184|414:174,2,50,0|0|4,0:0|0:0|0:3,0:0:0:0:
190,188,219359,1,0,0:0:0:0:
144,168,219464,1,0,0:0:0:0:
140,116,219570,2,0,P|196:97|242:103,1,100,4|4,0:3|0:3,0:0:0:0:
276,157,219992,1,0,1:0:0:0:
276,104,220414,6,0,L|64:104,1,200,4|0,0:3|1:3,0:0:0:0:
228,236,221259,2,0,L|16:236,1,200,4|0,0:3|1:0,0:0:0:0:
264,368,222104,2,0,L|52:368,1,200,4|0,0:3|1:3,0:0:0:0:
264,368,222950,2,4,L|476:368,2,200,4|0|4,0:3|1:0|0:3,0:0:0:0:
40,48,224217,5,4,0:3:0:0:
188,24,224428,1,0,0:0:0:0:
240,28,224534,1,0,0:0:0:0:
288,44,224639,1,4,0:3:0:0:
448,136,224850,2,0,P|460:192|448:244,1,100,0|0,0:0|1:0,0:0:0:0:
336,328,225273,1,0,0:0:0:0:
188,332,225484,5,4,0:3:0:0:
72,56,225907,1,4,0:3:0:0:
220,44,226118,1,0,0:0:0:0:
268,48,226223,1,0,0:0:0:0:
316,68,226329,1,4,0:3:0:0:
372,152,226541,1,0,0:0:0:0:
204,208,226752,5,0,1:0:0:0:
104,208,226963,1,0,1:0:0:0:
156,208,227068,1,0,1:0:0:0:
156,156,227174,1,4,0:3:0:0:
388,158,227386,6,0,L|440:253,1,100,4|0,0:3|1:0,0:0:0:0:
349,367,227808,1,0,0:0:0:0:
312,336,227914,1,0,0:0:0:0:
260,352,228019,1,4,0:3:0:0:
96,300,228231,2,0,P|64:244|58:191,1,100,4|0,0:3|1:0,0:0:0:0:
80,40,228653,1,0,0:0:0:0:
132,44,228759,1,0,0:0:0:0:
180,56,228864,2,0,P|235:62|276:96,1,100
396,200,229287,1,0,1:0:0:0:
241,242,229498,5,0,0:0:0:0:
208,204,229604,1,0,0:0:0:0:
176,240,229709,2,4,P|128:204|110:168,1,100,4|4,0:3|0:3,0:0:0:0:
156,312,230132,1,0,1:0:0:0:
304,312,230343,1,0,0:0:0:0:
444,256,230554,1,0,0:0:0:0:
440,104,230766,1,0,0:0:0:0:
392,112,230871,1,0,0:0:0:0:
352,140,230977,1,0,1:0:0:0:
171,150,231188,5,0,0:0:0:0:
156,104,231294,1,0,0:0:0:0:
112,80,231399,2,4,P|56:117|50:151,1,100,4|4,0:0|0:3,0:0:0:0:
37,256,231822,1,0,1:0:0:0:
178,303,232033,2,0,P|206:325|235:325,2,50
90,180,232456,5,0,1:0:0:0:
242,50,232667,1,0,1:0:0:0:
302,240,232878,1,4,0:3:0:0:
276,196,232984,1,0,0:0:0:0:
236,168,233089,1,0,1:0:0:0:
344,80,233300,5,0,1:0:0:0:
380,116,233406,1,0,0:0:0:0:
392,164,233512,1,0,0:0:0:0:
384,212,233617,1,0,1:0:0:0:
352,248,233723,1,0,0:0:0:0:
320,168,233934,5,4,0:3:0:0:
262,120,234145,1,0,0:0:0:0:
264,220,234251,1,0,0:0:0:0:
208,168,234357,1,4,1:0:0:0:
60,172,234568,1,4,0:0:0:0:
