osu file format v6

[General]
AudioFilename: 27. Mirrorcle World - Ayumi Hamasaki.mp3
AudioLeadIn: 0
PreviewTime: 93915
Countdown: 1
SampleSet: Soft
StackLeniency: 0.5
Mode: 0
LetterboxInBreaks: 1

[Editor]
Bookmarks: 52394,163698,191524
DistanceSpacing: 1.20000004768372
BeatDivisor: 4
GridSize: 8

[Metadata]
Title:Mirrorcle World
Artist:Ayumi Hamasaki
Creator:Atmey
Version:Hard
Source:
Tags:Jpop

[Difficulty]
HPDrainRate:6
CircleSize:5
OverallDifficulty:7
SliderMultiplier:1.4
SliderTickRate:2

[Events]
//Background and Video events
0,0,"mirrorcle.jpg"
Video,0,"mirrorcle_004.avi"
//Break Periods
2,65202,65624
2,82159,82798
2,130854,133233
2,137811,149102
2,205637,211494
//Storyboard Layer 0 (Background)
//Storyboard Layer 1 (Fail)
//Storyboard Layer 2 (Pass)
//Storyboard Layer 3 (Foreground)
//Storyboard Sound Samples
//Background Colour Transformations
3,100,163,162,255

[TimingPoints]
52394,434.782608695652,4,2,0,60,1,0
101089,-100,4,1,0,80,0,1
108046,-100,4,1,0,80,0,0
130654,-100,4,2,0,60,0,0
163698,-100,4,1,0,80,0,0
205437,-100,4,2,0,60,0,0
236307,-100,4,1,0,80,0,1
252394,-100,4,1,0,80,0,0

[HitObjects]
40,64,55872,1,0
184,64,56306,1,0
328,64,56741,1,0
472,64,57176,1,0
472,136,57394,1,2
472,208,57611,1,2
328,208,58046,1,0
192,208,58480,1,0
48,208,58915,1,0
48,136,59133,5,2
48,208,59350,1,2
147,307,59785,1,0
246,208,60220,1,0
344,306,60654,1,0
443,207,61089,1,0
443,136,61307,1,2
443,66,61524,1,2
343,165,61959,1,0
443,265,62394,1,0
344,363,62828,5,8
344,293,63046,1,0
344,223,63263,1,8
274,223,63480,1,0
344,223,63698,1,8
414,223,63915,1,0
364,104,64350,1,2
315,153,64567,1,2
265,103,64785,1,0
216,153,65002,1,0
48,48,66524,5,0
97,97,66741,1,0
147,47,66959,1,0
196,97,67176,2,0,B|248:40,1,70
292,94,67611,1,0
342,45,67828,1,2
367,70,67937,1,2
392,95,68046,2,2,B|391:250,1,140
341,284,68698,1,0
201,284,69133,5,0
151,235,69350,1,0
102,284,69567,1,0
52,235,69785,2,0,B|104:184,2,70,8|0|8
102,185,70437,1,0
53,136,70654,1,8
102,86,70872,1,0
152,135,71089,1,8
201,86,71307,1,2
226,110,71415,1,2
250,134,71524,2,2,B|344:248|368:88|480:280,1,280
448,64,73480,5,0
399,113,73697,1,0
349,63,73915,1,0
300,113,74132,2,0,B|248:56,1,70
204,110,74567,1,0
154,61,74784,1,2
129,86,74893,1,2
104,111,75002,2,2,B|105:266,1,140
155,300,75654,1,0
295,300,76089,5,0
345,251,76306,1,0
394,300,76523,1,0
444,251,76741,2,0,B|392:200,2,70,8|0|8
394,201,77393,1,0
443,152,77610,1,8
394,102,77828,1,0
344,151,78045,1,8
295,102,78263,1,2
270,126,78371,1,2
245,150,78480,2,2,B|152:264|128:104|16:296,2,280,2|2|6
256,192,80872,12,0,81959
408,288,83698,5,8
358,238,83915,1,0
408,188,84133,1,8
358,139,84350,1,0
408,90,84567,1,8
309,188,85002,5,0
210,89,85437,1,0
111,188,85872,1,0
210,288,86307,1,0
309,189,86741,1,0
176,352,87394,5,0
126,302,87611,1,0
176,252,87829,1,0
126,203,88046,2,0,B|178:146,1,70
124,201,88481,1,0
74,250,88698,1,2
99,275,88807,1,2
128,304,88916,2,2,B|240:192,1,140
276,254,89568,1,0
416,256,90003,5,0
465,206,90220,1,0
416,157,90437,1,0
368,208,90655,2,0,B|420:157,2,70,8|0|8
318,257,91307,1,0
268,208,91524,1,8
318,158,91742,1,0
269,207,91959,1,8
318,257,92177,1,2
343,282,92285,1,2
368,307,92394,2,2,B|274:193|250:353|138:161,1,280
336,32,94350,5,0
385,81,94567,1,0
335,131,94785,1,0
385,180,95002,2,0,B|333:237,1,70
387,182,95437,1,0
437,133,95654,1,2
412,108,95763,1,2
384,80,95872,2,2,B|272:192,1,140
235,129,96524,1,0
96,128,96959,5,0
46,177,97176,1,0
96,226,97393,1,0
144,176,97611,2,0,B|92:227,2,70,8|0|8
193,126,98263,1,0
243,175,98480,1,8
193,225,98698,1,0
242,176,98915,1,8
193,126,99133,1,2
168,101,99241,1,2
143,76,99350,2,2,B|237:190|261:30|373:222,1,280
112,336,101089,5,2
230,217,101524,1,2
111,98,101959,1,2
171,157,102176,1,8
230,98,102393,1,2
290,157,102611,1,8
349,98,102828,1,2
468,217,103263,1,0
349,336,103698,1,0
290,276,103915,1,8
349,217,104133,1,0
290,158,104350,1,8
231,217,104567,2,2,B|120:72|120:344|0:192,1,280
95,109,105764,5,0
220,109,106089,1,0
280,169,106307,2,2,B|391:24|391:296|511:144,1,280
416,240,107502,1,0
327,329,107828,1,0
268,269,108046,5,2
149,150,108481,1,2
30,269,108916,1,2
89,210,109133,1,8
148,269,109350,1,2
208,210,109568,1,8
267,269,109785,1,2
386,150,110220,1,0
386,318,110655,1,0
327,259,110872,1,8
386,199,111090,1,0
327,140,111307,1,8
268,199,111524,2,2,B|157:54|157:326|37:174,1,280
132,92,112721,1,0
258,92,113046,1,0
256,192,113263,12,0,114567
400,48,115002,5,2
282,167,115437,1,2
401,286,115872,1,2
341,227,116089,1,8
282,286,116306,1,2
222,227,116524,1,8
163,286,116741,1,2
44,167,117176,1,0
163,48,117611,1,0
222,108,117828,1,8
163,167,118046,1,0
222,226,118263,1,8
281,166,118480,2,0,B|336:112,4,70
408,166,119677,5,0
319,255,120002,1,0
259,195,120220,2,0,B|204:250,4,70
170,285,121415,1,0
81,195,121741,1,0
141,136,121959,5,2
309,136,122394,1,2
428,17,122829,1,2
368,76,123046,1,8
428,136,123263,1,2
368,76,123481,1,8
309,135,123698,1,2
190,254,124133,1,0
190,86,124568,1,0
131,145,124785,1,8
71,86,125003,1,0
130,145,125220,1,8
189,204,125437,2,0,B|233:299|305:84|105:100|137:260,1,280,0|4
256,192,127176,12,0,130654
256,192,134133,12,0,137611
328,232,150002,6,0,B|384:175,1,70,0|8
328,133,150437,2,0,B|384:76,1,70,0|8
307,83,150872,2,0,B|250:140,1,70,0|8
307,182,151307,2,0,B|250:238,1,70,0|8
208,182,151741,1,0
208,184,151850,1,2
208,184,151959,1,2
158,134,152176,1,0
158,274,152611,2,0,B|215:218,1,70
257,275,153046,2,0,B|314:218,1,70
357,275,153480,2,0,B|413:218,1,70
336,225,153915,2,0,B|279:282,1,70
237,225,154350,1,0
187,274,154567,1,0
138,225,154785,1,0
88,274,155002,6,2,B|16:104|160:16,1,280,2|10
243,125,156307,1,8
342,26,156741,1,12
392,76,156959,6,0,B|335:132,1,70,0|8
342,195,157394,2,0,B|285:251,1,70,0|8
292,314,157828,2,0,B|235:371,1,70,0|8
193,314,158263,2,0,B|136:258,1,70,0|8
193,215,158698,1,0
193,215,158807,1,2
193,215,158915,1,2
143,165,159133,1,4
282,165,159567,6,0,B|225:221,1,70
303,214,160002,2,0,B|360:157,1,70
401,115,160436,2,0,B|345:172,1,70
282,165,160871,2,0,B|339:108,1,70
282,65,161306,1,0
331,16,161523,1,0
381,66,161741,1,0
430,115,161958,2,2,B|502:285|358:373,1,280,2|10
400,48,163698,5,2
340,107,163915,1,0
282,167,164133,1,2
401,286,164568,1,2
371,256,164676,1,0
341,227,164785,1,8
282,286,165002,1,2
252,256,165111,1,0
222,227,165220,1,8
163,286,165437,1,2
44,167,165872,1,0
163,48,166307,5,0
192,77,166415,1,0
222,108,166524,1,8
163,167,166742,1,0
192,196,166850,1,0
222,226,166959,1,8
281,167,167176,2,2,B|392:312|392:40|512:192,1,280
417,275,168373,1,0
292,275,168698,1,0
232,215,168916,2,2,B|121:360|121:88|1:240,1,280
96,144,170111,1,0
244,114,170654,5,0
303,174,170872,1,0
363,234,171090,1,2
482,115,171525,1,2
452,144,171633,1,0
423,174,171742,1,8
364,115,171959,1,2
334,144,172067,1,0
304,174,172177,1,8
245,115,172394,1,2
185,174,172611,1,0
126,234,172829,5,0
126,66,173264,1,0
155,95,173372,1,0
185,125,173481,1,8
126,185,173699,1,0
155,214,173807,1,0
185,244,173916,1,8
244,185,174133,2,2,B|355:330|355:58|475:210,1,280
380,292,175330,1,0
254,292,175655,1,0
256,192,175872,12,0,177176
112,336,177611,5,2
171,276,177828,1,0
230,217,178046,1,2
111,98,178481,1,2
140,127,178589,1,0
171,157,178698,1,8
230,98,178915,1,2
259,127,179024,1,0
290,157,179133,1,8
349,98,179350,1,2
408,157,179567,1,0
468,217,179785,5,0
349,336,180220,1,0
319,306,180328,1,0
290,276,180437,1,8
349,217,180655,1,0
319,187,180763,1,0
290,158,180872,1,8
231,218,181089,2,0,B|176:272,4,70
104,218,182286,5,0
193,129,182611,1,0
253,189,182829,2,0,B|308:134,4,70
342,99,184024,1,0
371,248,184568,5,2
287,248,184785,1,0
203,248,185003,1,2
84,367,185438,1,2
113,337,185546,1,0
144,308,185655,1,8
84,248,185872,1,2
113,277,185980,1,0
144,308,186090,1,8
203,249,186307,1,2
262,189,186524,1,0
322,130,186742,5,0
322,298,187177,1,0
351,268,187285,1,0
381,239,187394,1,8
441,298,187612,1,0
411,268,187720,1,0
382,239,187829,1,8
323,180,188046,2,0,B|279:85|207:300|407:284|375:124,1,280,0|4
256,192,189785,12,0,191524
76,325,192394,5,0
135,265,192611,1,0
76,206,192828,1,0
135,146,193046,2,0,B|136:0,2,140
195,206,194133,2,0,B|195:353,2,140
254,146,195220,5,0
313,206,195437,1,0
254,146,195654,1,0
314,206,195872,1,0
433,87,196307,1,0
373,146,196524,2,0,B|317:90,3,70
443,216,197611,1,0
413,245,197720,1,0
383,275,197829,1,0
324,334,198045,1,0
205,215,198480,5,0
205,215,198698,1,0
121,215,198915,1,2
121,47,199350,1,0
168,48,199459,1,0
208,48,199567,1,0
296,48,199785,1,2
414,166,200220,5,0
355,226,200438,1,0
296,285,200655,1,2
414,166,201090,1,0
385,137,201199,1,0
355,166,201307,1,0
295,107,201525,1,2
177,225,201959,2,0,B|112:160,1,70
68,116,202394,1,0
68,284,202828,2,0,B|104:320,2,35
68,199,203263,1,0
256,192,203698,12,4,205437
376,168,212394,5,0
227,316,213046,1,0
178,267,213263,1,0
178,126,213698,1,0
318,126,214133,1,2
120,324,215002,5,0
21,225,215437,1,0
120,126,215872,1,0
268,275,216524,1,0
318,324,216741,1,0
417,225,217176,1,0
256,192,218154,6,2,B|328:112,1,105
276,64,218698,1,0
227,113,218915,1,0
177,163,219133,1,2
128,212,219350,2,0,B|72:272|112:320|192:256,1,140
217,322,220002,1,0
266,272,220220,1,0
316,322,220436,1,0
365,272,220654,1,0
415,321,220871,1,2
464,272,221088,2,0,B|520:213|480:165|400:229,1,140
375,162,221741,5,0
325,212,221959,1,0
276,162,222176,1,0
226,212,222394,1,0
177,162,222611,1,2
152,224,222828,2,0,B|104:200|96:120|168:88,1,140
190,55,223480,1,0
239,105,223698,1,0
289,56,223915,1,0
338,105,224133,1,0
388,56,224350,1,2
437,105,224567,2,0,B|485:129|493:209|421:241,1,140
398,173,225220,2,0,B|360:288|316:161,1,140
250,173,225872,2,0,B|211:287|167:160,1,140
80,168,226959,5,0
129,217,227176,1,0
179,167,227394,1,0
228,217,227611,1,0
277,167,227828,1,2
328,216,228046,2,0,B|384:166|416:262|456:206,1,140
327,217,228698,2,0,B|384:168|416:264|456:208,1,140
354,310,229567,1,0
329,285,229676,1,2
304,310,229785,1,2
256,192,230654,12,0,234567
384,168,236307,5,0
312,216,236742,6,2,C|152:216,1,140
290,97,237611,1,8
201,7,237938,1,0
112,96,238263,1,8
53,155,238480,2,2,B|-8:217|58:291,1,140
218,280,239350,1,8
307,191,239676,1,0
396,280,240002,1,8
455,221,240220,2,0,B|472:32|264:32,1,280,0|8
210,122,241415,1,0
121,33,241741,1,8
205,33,241959,6,2,B|272:96,1,70
316,141,242394,2,2,B|250:203,1,70
206,248,242828,2,2,B|272:310,1,70
316,236,243263,2,2,B|382:174,1,70
426,247,243698,6,2,C|266:247,1,140
167,128,244567,1,8
78,39,244894,1,0
0,128,245219,1,8
59,187,245436,2,2,B|-1:249|64:323,1,140
174,193,246306,1,8
263,282,246632,1,0
352,193,246958,1,8
412,253,247176,2,0,B|480:184|392:120,2,140
501,164,248371,1,0
412,75,248697,1,8
328,75,248915,6,2,B|384:128|336:208,1,140
219,83,249785,6,2,B|163:136|211:216,1,140
256,192,250654,12,0,251959
113,342,252394,5,2
172,282,252611,1,0
231,342,252829,1,2
399,342,253264,1,2
370,312,253372,1,0
340,342,253481,1,8
281,283,253698,1,2
311,253,253807,1,0
340,283,253916,1,8
400,223,254133,1,2
400,55,254568,1,0
232,55,255003,5,0
202,85,255111,1,0
172,55,255220,1,8
113,115,255438,1,0
83,85,255546,1,0
53,115,255655,1,8
113,174,255872,2,2,B|224:29|224:301|344:149,1,280
428,246,257069,1,0
428,120,257394,1,0
368,180,257612,2,2,B|257:35|257:307|137:155,1,280
54,251,258807,1,0
202,384,259350,5,0
262,324,259568,1,0
321,384,259786,1,2
440,265,260221,1,2
411,294,260329,1,0
440,264,260438,1,8
357,264,260655,1,2
327,294,260763,1,0
357,264,260873,1,8
273,264,261090,1,2
333,205,261307,1,0
392,145,261525,5,0
511,26,261960,1,0
481,56,262068,1,0
511,26,262177,1,8
452,85,262395,1,0
422,115,262503,1,0
452,85,262612,1,8
368,85,262829,2,2,B|257:-59|257:212|137:60,1,280
53,157,264026,1,0
53,282,264351,1,0
256,192,264568,12,0,265872
401,54,266307,5,2
342,114,266524,1,0
401,173,266742,1,2
402,292,267177,1,2
373,263,267285,1,0
343,292,267394,1,8
259,292,267611,1,2
229,263,267720,1,0
199,292,267829,1,8
115,292,268046,1,2
175,233,268263,1,0
115,173,268481,5,0
0,55,268916,1,0
29,84,269024,1,0
59,114,269133,1,8
118,173,269351,1,0
148,203,269459,1,0
178,233,269568,1,8
296,114,270002,6,0,B|408:216,1,140
370,238,270546,6,2,B|437:301,1,70
391,316,270872,2,2,B|325:378,2,70
223,316,271741,6,0,B|112:215,1,140
149,192,272285,6,2,B|82:129,1,70
128,114,272611,2,2,B|194:52,2,70
188,174,273264,5,2
247,115,273481,1,0
307,174,273699,1,2
426,55,274134,1,2
396,26,274242,1,0
366,56,274351,1,8
426,115,274568,1,2
396,144,274676,1,0
366,114,274786,1,8
425,174,275003,1,2
366,233,275220,1,0
426,293,275438,5,0
258,293,275872,1,2
228,322,275980,1,0
199,292,276089,1,8
258,233,276306,1,2
228,203,276414,1,0
198,234,276524,1,8
256,192,276741,12,0,278046
256,192,278481,12,0,280220
