osu file format v13

[General]
AudioFilename: 02 M ''Above & Beyond remix''.mp3
AudioLeadIn: 0
PreviewTime: 68057
Countdown: 1
SampleSet: Normal
StackLeniency: 0.3
Mode: 0
LetterboxInBreaks: 1
WidescreenStoryboard: 0

[Editor]
Bookmarks: 231,3926,14144,28057,41970,55883,68057,69796,83709,97622,123709,125448,132405,139361,146318,158491,160231,174144,188057,201970,229796
DistanceSpacing: 0.9
BeatDivisor: 4
GridSize: 8
TimelineZoom: 1.6

[Metadata]
Title:M (Above & Beyond Remix)
TitleUnicode:M (Above & Beyond Remix)
Artist:Ayumi Hamasaki
ArtistUnicode:Ayumi Hamasaki
Creator:The Girls
Version:Trauma
Source:
Tags:Trance Dance Japan Japanese Ayumi Hamasaki Ayu Queen of J-Pop Pop Jpop M Above & Beyond Remix Rave
BeatmapID:451894
BeatmapSetID:189689

[Difficulty]
HPDrainRate:5
CircleSize:4
OverallDifficulty:6
ApproachRate:7
SliderMultiplier:1.8
SliderTickRate:1

[Events]
//Background and Video events
0,0,"IMG_0924.JPG",0,0
//Break Periods
2,83909,95635
2,114996,117591
2,125865,131505
//Storyboard Layer 0 (Background)
//Storyboard Layer 1 (Fail)
//Storyboard Layer 2 (Pass)
//Storyboard Layer 3 (Foreground)
//Storyboard Sound Samples
//Background Colour Transformations
3,100,163,162,255

[TimingPoints]
1970.25868648162,434.782608695652,4,2,1,10,1,0
9035,-100,4,1,1,20,0,0
10339,-100,4,1,1,30,0,0
11644,-100,4,1,1,40,0,0
12948,-100,4,1,1,50,0,0
14144,-100,4,3,1,60,0,0
41970,-100,4,1,1,60,0,0
55883,-100,4,3,1,60,0,0
55883,-100,4,1,1,60,0,0
66535,-100,4,1,1,60,0,0
69796,-100,4,2,1,80,0,0
97622,-100,4,1,1,60,0,0
118600,-100,4,1,1,40,0,0
118818,-100,4,1,1,30,0,0
119035,-100,4,1,1,60,0,0
120339,-100,4,1,1,40,0,0
120557,-100,4,1,1,30,0,0
120774,-100,4,3,1,60,0,0
157078,-100,4,1,1,60,0,1
174183,-100,4,1,1,60,0,0

[Colours]
Combo1 : 170,170,170
Combo2 : 149,189,251
Combo3 : 255,157,255

[HitObjects]
160,56,1318,6,0,L|208:40,1,45,0|0,0:0|0:0,0:0:0:0:
421,176,1752,2,0,L|411:226,1,45,0|0,0:0|0:0,0:0:0:0:
186,343,2187,2,0,L|148:309,1,45,0|0,0:0|0:0,0:3:0:0:
160,144,3057,6,0,L|208:128,1,45
345,132,3491,2,0,L|335:182,1,45
262,299,3926,2,0,L|224:265,1,45
160,232,4796,6,0,L|208:216,1,45
269,88,5231,2,0,L|259:138,1,45
338,255,5665,2,0,L|300:221,1,45
160,320,6535,6,0,L|208:304,1,45
154,209,6970,2,0,L|112:224,1,45
152,104,7405,2,0,L|200:88,1,45,0|0,0:0|0:0,0:0:0:0:
264,184,7731,5,0,0:0:0:0:
288,208,7839,1,12,0:0:0:0:
312,232,7948,1,0,0:0:0:0:
264,184,8165,1,0,0:0:0:0:
288,208,8274,1,12,0:0:0:0:
312,232,8383,1,0,0:0:0:0:
264,184,8600,1,0,0:0:0:0:
288,208,8709,1,12,0:0:0:0:
312,232,8818,1,0,0:0:0:0:
248,169,9035,5,0,0:0:0:0:
288,209,9144,1,12,0:0:0:0:
329,250,9252,1,0,0:0:0:0:
248,169,9470,1,0,0:0:0:0:
288,209,9578,1,12,0:0:0:0:
329,250,9687,1,0,0:0:0:0:
248,169,9905,1,0,0:0:0:0:
288,209,10013,1,12,0:0:0:0:
329,250,10122,1,0,0:0:0:0:
225,145,10339,5,0,0:0:0:0:
289,208,10448,1,12,0:0:0:0:
352,272,10557,1,0,0:0:0:0:
374,184,10774,1,0,0:0:0:0:
288,208,10883,1,12,0:0:0:0:
201,230,10992,1,0,0:0:0:0:
265,293,11209,1,0,0:0:0:0:
288,206,11318,1,12,0:0:0:0:
312,120,11427,1,0,0:0:0:0:
436,249,11644,5,0,0:0:0:0:
373,185,11753,1,12,0:0:0:0:
312,120,11862,1,0,0:0:0:0:
140,166,12078,1,0,0:0:0:0:
201,231,12187,1,12,0:0:0:0:
264,295,12296,1,0,0:0:0:0:
312,120,12513,1,0,0:0:0:0:
288,206,12622,1,12,0:0:0:0:
265,293,12731,1,0,0:0:0:0:
216,152,12948,5,0,0:0:0:0:
136,168,13057,1,12,0:0:0:0:
96,240,13165,1,0,0:0:0:0:
266,290,13383,1,0,0:0:0:0:
320,352,13491,1,12,0:0:0:0:
402,350,13600,1,0,0:0:0:0:
373,189,13818,1,0,0:0:0:0:
400,112,13926,1,12,0:0:0:0:
357,41,14035,1,0,0:0:0:0:
280,208,14144,5,0,0:0:0:0:
176,216,14578,1,0,0:0:0:0:
136,320,15013,1,0,0:0:0:0:
48,232,15448,1,0,0:0:0:0:
24,160,15665,2,0,P|40:144|32:88,2,45
168,64,16535,5,0,0:0:0:0:
248,64,16752,1,0,0:0:0:0:
256,144,16970,1,0,0:0:0:0:
176,144,17187,2,0,B|136:168|144:232|144:208,2,45
256,320,18057,5,0,0:0:0:0:
336,320,18274,2,0,P|376:256|368:136,1,180
256,40,19144,1,0,0:0:0:0:
192,184,20013,5,0,0:0:0:0:
256,120,20231,1,0,0:0:0:0:
320,184,20448,1,0,0:0:0:0:
256,248,20665,1,0,0:0:0:0:
256,280,20774,1,0,0:0:0:0:
256,320,20883,1,0,0:0:0:0:
184,112,21535,5,0,0:0:0:0:
328,112,21970,1,0,0:0:0:0:
328,248,22405,1,0,0:0:0:0:
184,248,22622,1,0,0:0:0:0:
216,224,22731,1,0,0:0:0:0:
248,200,22839,1,0,0:0:0:0:
256,64,23491,6,0,L|144:104,1,90
112,144,23926,1,0,0:0:0:0:
40,112,24144,2,0,P|32:168|72:224,1,90
144,304,25013,6,0,P|200:336|232:320,1,90
384,328,25665,2,0,P|416:256|376:128,1,180
368,136,26209,1,0,0:0:0:0:
328,120,26318,2,0,P|312:192|200:256,1,180
184,256,26861,2,0,L|128:256,7,45,0|0|0|0|0|0|0|0,0:0|0:0|0:0|0:0|0:0|0:0|0:0|0:0,0:0:0:0:
80,88,28057,6,0,L|144:88,1,45
128,160,28383,2,0,L|176:160,1,45
192,88,28709,2,0,L|240:88,1,45
240,160,29035,2,0,L|288:160,1,45
304,88,29361,2,0,L|352:88,2,45,0|0|0,0:0|0:0|0:0,0:0:0:0:
360,160,29687,2,0,L|408:160,2,45
360,256,30122,6,0,L|360:304,1,45
288,256,30448,2,0,L|288:304,1,45
216,256,30774,2,0,L|216:304,1,45
144,256,31100,2,0,L|144:304,2,45,0|0|0,0:0|0:0|0:0,0:0:0:0:
72,256,31426,2,0,L|72:304,2,45
72,184,31861,6,0,L|104:144,1,45
168,168,32187,2,0,L|200:128,1,45
264,152,32513,2,0,L|296:112,1,45
360,136,32839,2,0,L|392:96,2,45,0|0|0,0:0|0:0|0:0,0:0:0:0:
448,128,33165,2,0,L|480:80,2,45
416,192,33600,6,0,L|432:240,1,45
352,248,33926,2,0,L|368:296,1,45
272,224,34252,2,0,L|288:272,1,45
192,200,34578,2,0,L|208:248,2,45,0|0|0,0:0|0:0|0:0,0:0:0:0:
112,176,34905,2,0,L|128:224,2,45
160,120,35231,5,0,0:0:0:0:
208,120,35339,1,0,0:0:0:0:
224,80,35448,1,0,0:0:0:0:
200,48,35557,1,0,0:0:0:0:
160,56,35665,1,0,0:0:0:0:
144,88,35774,1,0,0:0:0:0:
160,128,35883,5,0,0:0:0:0:
144,168,35991,1,0,0:0:0:0:
160,200,36100,1,0,0:0:0:0:
208,200,36209,1,0,0:0:0:0:
224,160,36318,1,0,0:0:0:0:
200,128,36426,1,0,0:0:0:0:
160,128,36535,5,0,0:0:0:0:
140,176,36644,1,0,0:0:0:0:
160,214,36752,1,0,0:0:0:0:
217,214,36861,1,0,0:0:0:0:
236,166,36970,1,0,0:0:0:0:
208,128,37078,1,0,0:0:0:0:
160,128,37187,5,0,0:0:0:0:
136,185,37296,1,0,0:0:0:0:
160,231,37405,1,0,0:0:0:0:
229,231,37513,1,0,0:0:0:0:
252,174,37622,1,0,0:0:0:0:
217,128,37731,1,0,0:0:0:0:
160,128,37839,5,0,0:0:0:0:
132,197,37948,1,0,0:0:0:0:
160,252,38057,1,0,0:0:0:0:
242,252,38165,1,0,0:0:0:0:
270,183,38274,1,0,0:0:0:0:
229,128,38383,1,0,0:0:0:0:
160,128,38491,5,0,0:0:0:0:
126,210,38600,1,0,0:0:0:0:
160,277,38709,1,0,0:0:0:0:
259,277,38818,1,0,0:0:0:0:
292,194,38926,1,0,0:0:0:0:
242,128,39035,1,0,0:0:0:0:
242,128,39144,5,0,0:0:0:0:
292,194,39252,1,0,0:0:0:0:
259,277,39361,1,0,0:0:0:0:
160,277,39470,1,0,0:0:0:0:
126,210,39578,1,0,0:0:0:0:
160,128,39687,1,0,0:0:0:0:
232,128,39796,5,0,0:0:0:0:
273,183,39905,1,0,0:0:0:0:
245,252,40013,1,0,0:0:0:0:
162,252,40122,1,0,0:0:0:0:
135,197,40231,1,0,0:0:0:0:
162,128,40339,1,0,0:0:0:0:
225,128,40448,5,0,0:0:0:0:
260,174,40557,1,0,0:0:0:0:
237,231,40665,1,0,0:0:0:0:
168,231,40774,1,0,0:0:0:0:
144,185,40883,1,0,0:0:0:0:
168,128,40991,1,0,0:0:0:0:
224,136,41100,5,0,0:0:0:0:
252,174,41209,1,0,0:0:0:0:
233,222,41318,1,0,0:0:0:0:
176,222,41426,1,0,0:0:0:0:
156,183,41535,1,0,0:0:0:0:
176,136,41644,1,0,0:0:0:0:
192,72,41752,5,0,0:0:0:0:
240,48,41861,1,0,0:0:0:0:
296,48,41970,2,0,P|360:96|344:216,1,180
408,336,42839,2,0,P|464:272|440:88,1,270
416,64,43709,1,0,0:0:0:0:
256,152,44361,6,0,P|240:168|56:168,1,180,0|0,0:0|0:0,0:0:0:0:
24,96,45013,1,0,0:0:0:0:
64,56,45122,1,0,0:0:0:0:
112,32,45231,1,0,0:0:0:0:
240,144,45883,6,0,P|256:200|320:232,1,90
408,176,46535,2,0,P|464:272|456:376,1,180
344,328,47839,5,0,0:0:0:0:
256,256,48057,2,0,P|224:312|240:344,1,90
136,224,48491,1,0,0:0:0:0:
112,272,48600,1,0,0:0:0:0:
112,328,48709,1,0,0:0:0:0:
232,96,49361,6,0,P|304:176|392:160,2,180
296,48,50448,1,0,0:0:0:0:
344,48,50557,1,0,0:0:0:0:
392,72,50665,1,0,0:0:0:0:
128,48,51318,5,0,0:0:0:0:
40,152,51535,1,0,0:0:0:0:
64,304,51752,1,0,0:0:0:0:
160,216,51970,1,0,0:0:0:0:
200,248,52078,1,0,0:0:0:0:
248,272,52187,1,0,0:0:0:0:
424,128,52839,5,0,0:0:0:0:
448,216,53057,1,0,0:0:0:0:
280,88,53491,2,0,P|264:184|312:288,1,180
304,296,54035,1,0,0:0:0:0:
296,328,54144,2,0,P|176:272|112:152,1,270
200,96,55448,5,0,0:0:0:0:
256,104,55557,1,0,0:0:0:0:
304,80,55665,1,0,0:0:0:0:
320,32,55774,1,0,0:0:0:0:
424,72,55883,6,0,L|360:72,1,45
416,144,56209,2,0,L|464:144,1,45
432,216,56535,2,0,L|376:216,1,45
328,288,56861,2,0,L|376:288,1,45
264,352,57187,2,0,L|200:352,2,45,0|0|0,0:0|0:0|0:0,0:0:0:0:
200,280,57513,2,0,L|248:280,2,45
288,208,57948,6,0,L|288:152,1,45
216,176,58274,2,0,L|216:120,1,45
144,112,58600,2,0,L|144:160,1,45
72,96,58926,2,0,L|72:40,2,45,0|0|0,0:0|0:0|0:0,0:0:0:0:
72,216,59252,2,0,L|72:160,2,45
144,208,59687,6,0,L|184:176,1,45
208,272,60013,2,0,L|232:232,1,45
304,296,60339,2,0,L|304:248,1,45
408,264,60665,2,0,L|376:224,2,45,0|0|0,0:0|0:0|0:0,0:0:0:0:
480,200,60991,2,0,L|424:176,2,45
400,56,61426,6,0,L|448:80,1,45
336,104,61752,2,0,L|392:136,1,45
304,168,62078,2,0,L|264:144,1,45
192,184,62405,2,0,L|240:216,2,45,0|0|0,0:0|0:0|0:0,0:0:0:0:
120,224,62731,2,0,L|176:256,2,45
104,296,63057,5,0,0:0:0:0:
152,296,63165,1,0,0:0:0:0:
192,288,63274,1,0,0:0:0:0:
216,264,63383,1,0,0:0:0:0:
216,224,63491,1,0,0:0:0:0:
208,184,63600,1,0,0:0:0:0:
192,144,63709,1,0,0:0:0:0:
176,112,63818,1,0,0:0:0:0:
168,80,63926,1,0,0:0:0:0:
208,80,64035,1,0,0:0:0:0:
256,80,64144,1,0,0:0:0:0:
304,80,64252,1,0,0:0:0:0:
344,80,64361,1,0,0:0:0:0:
336,112,64470,1,0,0:0:0:0:
320,152,64578,1,0,0:0:0:0:
304,184,64687,1,0,0:0:0:0:
296,224,64796,1,0,0:0:0:0:
304,264,64905,1,0,0:0:0:0:
336,288,65013,1,0,0:0:0:0:
376,296,65122,1,0,0:0:0:0:
424,304,65231,1,0,0:0:0:0:
152,184,65665,5,0,0:0:0:0:
192,184,65774,1,0,0:0:0:0:
232,184,65883,1,0,0:0:0:0:
264,184,65991,1,0,0:0:0:0:
296,184,66100,1,0,0:0:0:0:
328,184,66209,1,0,0:0:0:0:
360,184,66318,1,0,0:0:0:0:
256,48,66752,5,0,0:0:0:0:
56,192,67187,1,0,0:0:0:0:
472,192,67622,1,0,0:0:0:0:
256,352,68057,1,0,0:0:0:0:
472,296,68383,5,0,0:0:0:0:
304,272,68709,1,0,0:0:0:0:
264,112,69035,1,0,0:0:0:0:
120,88,69361,1,0,0:0:0:0:
64,32,69578,1,0,0:0:0:0:
48,128,69796,6,0,B|48:352|48:352|264:168|472:352|472:352|472:128,1,900
472,72,72187,1,0,0:0:0:0:
432,64,72296,1,0,0:0:0:0:
336,80,72839,5,0,0:0:0:0:
248,136,73057,1,0,0:0:0:0:
192,224,73274,1,0,0:0:0:0:
96,128,73709,5,0,0:0:0:0:
176,56,73926,2,0,P|200:56|224:32,1,45
344,48,74361,1,0,0:0:0:0:
352,168,74578,1,0,0:0:0:0:
360,280,74796,1,0,0:0:0:0:
480,280,75013,2,0,P|456:344|400:360,1,90
248,320,75448,2,0,P|240:272|296:240,1,90
296,216,75774,1,0,0:0:0:0:
296,80,76318,5,0,0:0:0:0:
176,48,76535,1,0,0:0:0:0:
72,120,76752,1,0,0:0:0:0:
40,256,77187,5,0,0:0:0:0:
128,328,77405,2,0,P|144:296|176:304,1,45
256,328,77839,1,0,0:0:0:0:
256,184,78057,1,0,0:0:0:0:
256,56,78274,1,0,0:0:0:0:
440,96,78491,2,0,P|392:120|360:176,1,90
416,312,78926,2,0,P|408:264|464:232,1,90
472,208,79252,1,0,0:0:0:0:
360,96,79796,5,0,0:0:0:0:
360,184,80013,2,0,L|360:248,1,45
256,312,80448,1,0,0:0:0:0:
160,232,80665,1,0,0:0:0:0:
160,144,80883,2,0,L|160:72,1,45
256,40,81318,1,0,0:0:0:0:
88,40,81535,1,0,0:0:0:0:
48,176,81752,1,0,0:0:0:0:
136,296,81970,6,0,B|136:88|136:88|256:192|256:192|368:88|368:88|368:320,1,720
400,104,96535,5,0,0:0:0:0:
352,272,96752,1,0,0:0:0:0:
272,104,96970,1,0,0:0:0:0:
216,272,97187,1,0,0:0:0:0:
144,160,97405,2,0,P|104:112|56:128,2,90
296,312,98057,5,0,0:0:0:0:
376,192,98274,2,0,L|432:136,1,45
304,48,98600,1,0,0:0:0:0:
208,160,98818,2,0,L|160:200,1,45
72,296,99144,2,0,L|24:256,1,45
48,96,99470,5,0,0:0:0:0:
128,224,99687,2,0,L|200:256,1,45
272,144,100013,2,0,L|320:96,1,45
352,280,100339,1,0,0:0:0:0:
424,168,100557,2,0,L|480:160,1,45
352,280,100883,2,0,L|328:344,1,45,0|0,0:0|0:0,0:0:0:0:
216,328,101209,5,0,0:0:0:0:
88,208,101426,1,0,0:0:0:0:
48,160,101535,1,0,0:0:0:0:
240,104,101752,1,0,0:0:0:0:
208,48,101861,1,0,0:0:0:0:
400,48,102078,1,0,0:0:0:0:
408,192,102296,1,0,0:0:0:0:
464,224,102405,1,0,0:0:0:0:
296,288,102622,1,0,0:0:0:0:
328,344,102731,1,0,0:0:0:0:
224,208,102948,5,0,0:0:0:0:
128,72,103165,1,0,0:0:0:0:
184,40,103274,1,0,0:0:0:0:
344,64,103491,1,0,0:0:0:0:
408,64,103600,1,0,0:0:0:0:
384,272,103818,1,0,0:0:0:0:
224,336,104035,1,0,0:0:0:0:
176,288,104144,1,0,0:0:0:0:
144,144,104361,1,0,0:0:0:0:
184,88,104470,1,0,0:0:0:0:
304,200,104687,5,0,0:0:0:0:
352,168,104796,1,0,0:0:0:0:
400,144,104905,1,0,0:0:0:0:
456,136,105013,1,0,0:0:0:0:
360,280,105231,1,0,0:0:0:0:
360,280,105339,1,0,0:0:0:0:
208,192,105557,1,0,0:0:0:0:
160,224,105666,1,0,0:0:0:0:
112,248,105775,1,0,0:0:0:0:
56,256,105883,1,0,0:0:0:0:
152,112,106101,1,0,0:0:0:0:
152,112,106209,1,0,0:0:0:0:
320,88,106426,5,0,0:0:0:0:
368,112,106535,1,0,0:0:0:0:
408,152,106644,1,0,0:0:0:0:
432,200,106752,1,0,0:0:0:0:
256,304,106970,1,0,0:0:0:0:
200,288,107078,1,0,0:0:0:0:
192,88,107296,1,0,0:0:0:0:
144,112,107405,1,0,0:0:0:0:
104,152,107513,1,0,0:0:0:0:
80,200,107622,1,0,0:0:0:0:
256,304,107839,1,0,0:0:0:0:
312,288,107948,1,0,0:0:0:0:
336,224,108057,5,0,0:0:0:0:
312,168,108165,1,0,0:0:0:0:
256,144,108274,1,0,0:0:0:0:
200,168,108383,1,0,0:0:0:0:
184,224,108491,1,0,0:0:0:0:
169,84,108709,1,0,0:0:0:0:
218,57,108818,1,0,0:0:0:0:
271,55,108926,1,0,0:0:0:0:
322,63,109035,1,0,0:0:0:0:
373,90,109144,1,0,0:0:0:0:
407,135,109252,1,0,0:0:0:0:
420,192,109361,1,0,0:0:0:0:
352,320,109578,5,0,0:0:0:0:
312,280,109687,1,0,0:0:0:0:
272,240,109795,1,0,0:0:0:0:
232,200,109904,1,0,0:0:0:0:
272,152,110013,1,0,0:0:0:0:
312,112,110121,1,0,0:0:0:0:
352,72,110230,1,0,0:0:0:0:
192,72,110448,1,0,0:0:0:0:
152,112,110557,1,0,0:0:0:0:
112,152,110665,1,0,0:0:0:0:
72,200,110774,1,0,0:0:0:0:
112,240,110883,1,0,0:0:0:0:
152,280,110991,1,0,0:0:0:0:
192,320,111100,1,0,0:0:0:0:
320,216,111318,6,0,L|280:160,1,45
256,192,111535,12,2,113274,2:0:0:0:
352,104,114578,5,2,2:0:0:0:
440,288,114796,1,2,2:0:0:0:
208,312,118491,5,2,2:2:0:0:
64,232,118709,1,2,2:2:0:0:
136,80,118926,1,2,2:2:0:0:
256,80,120231,5,2,2:0:0:0:
376,136,120448,1,2,2:0:0:0:
480,48,120665,1,2,2:0:0:0:
96,144,121535,5,2,2:0:0:0:
224,216,121752,1,2,2:0:0:0:
184,80,123274,5,2,2:0:0:0:
72,168,123491,1,2,2:0:0:0:
480,104,124361,5,0,0:0:0:0:
360,56,124578,1,0,0:0:0:0:
392,208,124796,1,0,0:0:0:0:
256,160,125013,1,0,0:0:0:0:
112,136,125231,2,0,P|96:200|120:232,2,90
248,96,132405,5,0,0:0:0:0:
248,96,132513,1,0,0:0:0:0:
248,96,132622,1,0,0:0:0:0:
248,96,132731,1,0,0:0:0:0:
336,120,132839,6,0,P|304:208|224:304,2,180
416,160,133926,1,0,0:0:0:0:
432,248,134035,1,0,0:0:0:0:
360,328,134144,5,0,0:0:0:0:
360,328,134252,1,0,0:0:0:0:
360,328,134361,1,0,0:0:0:0:
360,328,134470,1,0,0:0:0:0:
112,264,134796,5,0,0:0:0:0:
48,216,135013,2,0,P|88:128|168:80,1,180
224,48,135557,1,0,0:0:0:0:
224,120,135665,1,0,0:0:0:0:
368,56,135883,5,0,0:0:0:0:
368,56,135991,1,0,0:0:0:0:
368,56,136100,1,0,0:0:0:0:
368,56,136209,1,0,0:0:0:0:
328,136,136318,6,0,P|392:176|416:160,1,90
168,344,136970,2,0,P|240:296|352:352,1,180
440,304,137622,5,0,0:0:0:0:
440,304,137731,1,0,0:0:0:0:
440,304,137839,1,0,0:0:0:0:
440,304,137948,1,0,0:0:0:0:
416,192,138274,6,0,P|464:168|448:120,1,90
256,40,138926,1,0,0:0:0:0:
256,40,139035,1,0,0:0:0:0:
256,40,139144,1,0,0:0:0:0:
256,40,139252,1,0,0:0:0:0:
176,80,139361,5,0,0:0:0:0:
176,80,139470,1,0,0:0:0:0:
176,80,139578,1,0,0:0:0:0:
176,80,139687,1,0,0:0:0:0:
144,160,139796,6,0,P|72:232|32:344,2,180
160,264,140883,1,0,0:0:0:0:
160,352,140991,1,0,0:0:0:0:
248,320,141100,5,0,0:0:0:0:
248,320,141209,1,0,0:0:0:0:
248,320,141318,1,0,0:0:0:0:
248,320,141426,1,0,0:0:0:0:
336,192,141752,5,0,0:0:0:0:
352,344,141970,2,0,P|440:304|472:208,1,180
464,160,142513,1,0,0:0:0:0:
448,80,142622,1,0,0:0:0:0:
312,96,142839,5,0,0:0:0:0:
312,96,142948,1,0,0:0:0:0:
312,96,143057,1,0,0:0:0:0:
312,96,143165,1,0,0:0:0:0:
232,120,143274,6,0,P|232:176|192:216,1,90
32,192,143926,2,0,P|56:312|112:368,1,180
256,320,144578,5,0,0:0:0:0:
256,320,144687,1,0,0:0:0:0:
256,320,144796,1,0,0:0:0:0:
256,320,144905,1,0,0:0:0:0:
392,200,145231,6,0,P|440:176|424:128,1,90
256,40,145883,5,0,0:0:0:0:
256,40,145991,1,0,0:0:0:0:
256,40,146100,1,0,0:0:0:0:
256,40,146209,1,0,0:0:0:0:
192,136,146318,6,0,L|152:104,1,45,0|0,0:0|0:0,0:0:0:0:
256,96,146644,2,0,L|256:40,1,45,0|0,0:0|0:0,0:0:0:0:
320,136,146970,2,0,L|352:104,1,45,0|0,0:0|0:0,0:0:0:0:
320,208,147296,2,0,L|360:248,1,45,0|0,0:0|0:0,0:0:0:0:
256,232,147622,2,0,L|256:280,2,45,0|0|0,0:0|0:0|0:0,0:0:0:0:
192,208,147948,2,0,L|152:240,2,45,0|0|0,0:0|0:0|0:0,0:0:0:0:
280,128,148383,6,0,L|280:72,1,45
352,88,148709,2,0,L|352:32,1,45
424,72,149035,2,0,L|424:120,1,45
352,216,149361,2,0,L|352:160,2,45,0|0|0,0:0|0:0|0:0,0:0:0:0:
424,256,149687,2,0,L|424:200,2,45
264,312,150122,6,0,L|312:312,1,45
184,304,150448,2,0,L|184:256,1,45
256,224,150774,2,0,L|256:176,1,45
176,176,151100,2,0,L|128:176,2,45,0|0|0,0:0|0:0|0:0,0:0:0:0:
176,96,151426,2,0,L|176:48,2,45
256,64,151861,6,0,L|304:96,1,45
352,40,152187,2,0,L|408:72,1,45
336,184,152513,2,0,L|368:144,1,45
440,128,152839,2,0,L|488:160,2,45,0|0|0,0:0|0:0|0:0,0:0:0:0:
424,208,153165,2,0,L|480:240,2,45
360,264,153491,5,0,0:0:0:0:
328,208,153600,5,0,0:0:0:0:
296,264,153709,1,0,0:0:0:0:
328,320,153818,1,0,0:0:0:0:
264,320,153926,5,0,0:0:0:0:
232,264,154035,1,0,0:0:0:0:
264,208,154144,1,0,0:0:0:0:
208,208,154252,5,0,0:0:0:0:
176,264,154361,1,0,0:0:0:0:
208,320,154470,1,0,0:0:0:0:
144,320,154578,5,0,0:0:0:0:
120,264,154687,1,0,0:0:0:0:
152,208,154796,1,0,0:0:0:0:
96,208,154905,5,0,0:0:0:0:
64,264,155013,1,0,0:0:0:0:
88,320,155122,1,0,0:0:0:0:
32,320,155231,5,0,0:0:0:0:
16,264,155339,1,0,0:0:0:0:
40,208,155448,1,0,0:0:0:0:
72,160,155557,1,0,0:0:0:0:
112,112,155665,1,0,0:0:0:0:
224,48,156100,5,0,0:0:0:0:
264,48,156209,1,0,0:0:0:0:
304,48,156318,1,0,0:0:0:0:
336,48,156426,1,0,0:0:0:0:
368,48,156535,1,0,0:0:0:0:
400,48,156644,1,0,0:0:0:0:
432,48,156752,1,0,0:0:0:0:
448,192,157187,5,0,0:0:0:0:
72,192,157622,1,0,0:0:0:0:
256,56,158057,1,0,0:0:0:0:
256,336,158491,1,0,0:0:0:0:
144,144,158818,5,0,0:0:0:0:
256,56,159144,1,0,0:0:0:0:
368,144,159470,1,0,0:0:0:0:
304,272,159796,1,0,0:0:0:0:
208,272,160013,1,0,0:0:0:0:
112,288,160231,5,0,0:0:0:0:
208,200,160448,1,0,0:0:0:0:
96,160,160665,1,0,0:0:0:0:
168,64,160883,2,0,P|192:64|216:40,1,45
360,48,161318,1,0,0:0:0:0:
448,136,161535,1,0,0:0:0:0:
456,272,161752,1,0,0:0:0:0:
336,280,161970,2,0,P|272:320|256:360,1,90
136,320,162405,2,0,P|128:272|184:240,1,90
184,216,162731,1,0,0:0:0:0:
272,128,163274,5,0,0:0:0:0:
184,48,163491,1,0,0:0:0:0:
344,32,163709,1,0,0:0:0:0:
432,144,164144,5,0,0:0:0:0:
432,240,164361,2,0,P|392:264|400:288,1,45
256,328,164796,1,0,0:0:0:0:
256,184,165013,1,0,0:0:0:0:
256,56,165231,1,0,0:0:0:0:
128,128,165448,2,0,P|85:138|68:178,1,90
88,328,165883,2,0,P|136:312|136:248,1,90
176,240,166209,1,0,0:0:0:0:
288,56,166752,5,0,0:0:0:0:
128,56,166970,1,0,0:0:0:0:
24,184,167187,5,0,0:0:0:0:
80,200,167296,1,0,0:0:0:0:
136,224,167405,1,0,0:0:0:0:
192,248,167513,1,0,0:0:0:0:
248,280,167622,1,0,0:0:0:0:
288,328,167731,1,0,0:0:0:0:
272,264,167839,5,0,0:0:0:0:
296,208,167948,1,0,0:0:0:0:
328,152,168057,1,0,0:0:0:0:
368,104,168165,1,0,0:0:0:0:
416,56,168274,1,0,0:0:0:0:
344,96,168383,5,0,0:0:0:0:
288,136,168491,1,0,0:0:0:0:
232,168,168600,1,0,0:0:0:0:
176,208,168709,1,0,0:0:0:0:
128,248,168818,1,0,0:0:0:0:
72,288,168926,5,0,0:0:0:0:
136,288,169035,1,0,0:0:0:0:
200,288,169144,1,0,0:0:0:0:
264,288,169252,1,0,0:0:0:0:
328,288,169361,1,0,0:0:0:0:
392,288,169470,1,0,0:0:0:0:
456,288,169578,5,0,0:0:0:0:
416,240,169687,1,0,0:0:0:0:
368,200,169796,1,0,0:0:0:0:
312,168,169905,1,0,0:0:0:0:
256,144,170013,1,0,0:0:0:0:
200,128,170122,1,0,0:0:0:0:
144,128,170231,1,0,0:0:0:0:
256,40,170448,5,0,0:0:0:0:
368,88,170665,1,0,0:0:0:0:
424,200,170883,1,0,0:0:0:0:
368,312,171100,1,0,0:0:0:0:
256,352,171318,1,0,0:0:0:0:
144,304,171535,1,0,0:0:0:0:
88,192,171752,1,0,0:0:0:0:
152,88,171970,1,0,0:0:0:0:
256,40,172187,1,0,0:0:0:0:
232,152,172405,5,0,0:0:0:0:
216,192,172513,1,0,0:0:0:0:
232,224,172622,1,0,0:0:0:0:
280,224,172731,1,0,0:0:0:0:
296,184,172839,1,0,0:0:0:0:
272,152,172948,1,0,0:0:0:0:
232,152,173057,5,0,0:0:0:0:
216,192,173165,1,0,0:0:0:0:
232,224,173274,1,0,0:0:0:0:
280,224,173383,1,0,0:0:0:0:
296,184,173491,1,0,0:0:0:0:
272,152,173600,1,0,0:0:0:0:
232,96,173709,5,0,0:0:0:0:
296,56,173818,1,0,0:0:0:0:
376,64,173926,1,0,0:0:0:0:
432,120,174035,1,0,0:0:0:0:
456,192,174144,1,0,0:0:0:0:
