osu file format v7

[General]
AudioFilename: LABYRINTH.mp3
AudioLeadIn: 0
PreviewTime: 48613
Countdown: 0
SampleSet: Soft
StackLeniency: 0.7
Mode: 0
LetterboxInBreaks: 1

[Editor]
Bookmarks: 30152,48617,57844,67075,76306,85536
DistanceSpacing: 0.800000011920929
BeatDivisor: 2
GridSize: 16

[Metadata]
Title:Labyrinth
Artist:Ayumi Hamasaki
Creator:AngelHoney
Version:Normal
Source:
Tags:Breeze

[Difficulty]
HPDrainRate:5
CircleSize:4
OverallDifficulty:6
SliderMultiplier:1.1
SliderTickRate:1

[Events]
//Background and Video events
0,0,"Ayu.jpg"
//Break Periods
2,91125,92952
//Storyboard Layer 0 (Background)
//Storyboard Layer 1 (Fail)
//Storyboard Layer 2 (Pass)
//Storyboard Layer 3 (Foreground)
//Storyboard Sound Samples
//Background Colour Transformations
3,100,245,137,197

[TimingPoints]
2464,384.615384615385,3,2,1,50,1,0
85541,-100,4,2,1,50,0,0

[Colours]
Combo1 : 255,230,230
Combo2 : 247,155,205

[HitObjects]
96,80,11694,1,2
112,160,12079,1,0
96,240,12464,1,0
112,320,12848,1,0
192,336,13233,2,0,B|272:336|288:272,3,110,2|0|0|0
352,336,14771,6,0,B|416:336|464:288,1,110,2|0
368,256,15540,2,0,B|400:208|480:208,1,110,8|0
448,128,16310,1,2
368,96,16694,1,0
288,128,17079,1,0
208,96,17464,1,0
176,16,17848,6,0,B|112:32|112:112,1,110,2|0
48,160,18617,2,0,B|96:208|176:176,1,110
176,272,19387,2,0,B|256:256|288:192,1,110,2|0
336,288,20156,2,0,B|384:240|368:176,1,110,8|0
320,112,20925,5,2
256,48,21310,1,0
224,128,21694,1,0
160,64,22079,1,0
128,144,22464,2,0,B|64:160|16:96,3,110,2|0|0|0
32,208,24002,5,2
64,288,24387,1,0
128,336,24771,1,8
208,352,25156,1,0
288,320,25540,6,0,B|336:272|288:208,1,110,2|0
224,272,26310,2,0,B|176:224|240:144,1,110
160,112,27079,2,0,B|208:64|288:96,1,110,2|0
352,112,27848,2,0,B|416:128|464:192,1,110
256,192,28617,12,0,29771
128,272,30156,5,2
192,208,30540,1,0
208,288,30925,1,0
272,224,31310,1,0
288,304,31694,1,2
352,240,32079,1,0
368,320,32464,1,0
432,256,32848,1,0
496,192,33233,6,0,B|464:144|384:144,3,110,2|0|8|0
320,144,34771,5,2
272,64,35156,1,0
192,64,35540,1,0
144,144,35925,1,0
192,224,36310,1,2
272,224,36694,1,0
320,304,37079,1,0
272,384,37464,1,0
192,384,37848,6,0,B|128:368|96:288,3,110,2|0|8|0
32,272,39387,6,0,B|32:160,1,110,2|0
112,208,40156,2,0,B|112:80,1,110
192,48,40925,2,0,B|192:160,1,110,2|0
272,112,41694,2,0,B|272:240,1,110
272,304,42464,6,0,B|480:304|480:64,1,330,2|0
416,32,44002,2,0,B|208:32|208:272,1,330,2|0
192,320,45540,5,2
112,304,45925,1,0
48,256,46310,1,0
32,176,46694,1,0
48,96,47079,2,0,B|48:64|112:16,3,55,2|0|0|0
128,96,47848,5,8
208,48,48233,1,0
240,128,48617,6,0,B|304:128|368:96,1,110,2|0
384,192,49387,2,0,B|304:224|256:224,1,110
296,312,50156,2,0,B|360:312|448:272,1,110,2|0
480,240,50925,1,0
256,192,51021,12,8,52464
128,96,53233,6,0,B|160:32|240:32,2,110,2|0|0
96,176,54387,1,0
32,240,54771,2,0,B|96:288|160:240|160:240|272:208,1,220,2|0
400,112,57079,5,0
320,144,57464,1,0
240,176,57848,2,0,B|272:256|368:224|368:224|464:224,1,220,2|0
432,304,59002,5,0
352,320,59387,1,2
272,304,59771,1,0
192,288,60156,2,0,B|160:240|96:256|96:256|32:256|16:160,1,220,0|2
256,192,62464,5,2
256,192,62560,12,0,64002
80,80,64771,6,0,B|32:96|16:144|32:192,1,110
112,160,65540,2,0,B|144:208|224:224,1,110,2|0
288,208,66310,2,0,B|304:240|272:272|272:272|240:304|256:336,1,110,8|0
336,320,67079,5,2
384,240,67464,1,0
336,160,67848,1,0
384,80,68233,1,0
432,160,68617,1,2
384,240,69002,1,0
336,320,69387,1,0
288,240,69771,1,0
240,160,70156,1,2
112,64,71694,5,2
64,144,72079,1,0
112,224,72464,1,0
160,144,72848,1,0
208,64,73233,1,2
256,144,73617,1,0
208,224,74002,1,0
160,304,74387,1,0
112,224,74771,1,2
256,192,76310,5,2
256,192,78617,5,0
256,192,80925,5,2
256,192,83233,5,0
48,304,85540,6,0,B|112:368|192:304|192:304|256:304,1,220,2|0
128,192,87079,2,0,B|272:192|272:192|320:192|352:256,1,220
464,336,88617,2,0,B|496:288|464:224|464:224|464:112,1,220
320,32,90156,2,0,B|288:80|320:144|320:144|320:256,1,220
256,208,94002,5,6
