osu file format v7

[General]
AudioFilename: LABYRINTH.mp3
AudioLeadIn: 0
PreviewTime: 48613
Countdown: 0
SampleSet: Soft
StackLeniency: 0.6
Mode: 0
LetterboxInBreaks: 1

[Editor]
Bookmarks: 30152,48617,57844,67075,76306,85536
DistanceSpacing: 1
BeatDivisor: 4
GridSize: 16

[Metadata]
Title:Labyrinth
Artist:Ayumi Hamasaki
Creator:AngelHoney
Version:Insane
Source:
Tags:Breeze

[Difficulty]
HPDrainRate:7
CircleSize:5
OverallDifficulty:7
SliderMultiplier:1.9
SliderTickRate:1

[Events]
//Background and Video events
0,0,"Ayu.jpg"
//Break Periods
2,87278,93102
//Storyboard Layer 0 (Background)
//Storyboard Layer 1 (Fail)
//Storyboard Layer 2 (Pass)
//Storyboard Layer 3 (Foreground)
//Storyboard Sound Samples
//Background Colour Transformations
3,100,245,137,197

[TimingPoints]
2464,384.615384615385,3,2,1,50,1,0
85541,-100,4,2,1,50,0,0
93233,-100,4,2,1,30,0,0
94050,-100,4,2,1,0,0,0

[Colours]
Combo1 : 255,230,230
Combo2 : 247,155,205

[HitObjects]
96,96,11694,5,2
176,32,11887,1,0
272,64,12079,1,0
256,160,12271,1,0
176,208,12464,1,2
128,288,12656,1,0
176,368,12848,2,0,B|227:382|296:344,1,95
352,320,13233,5,2
432,272,13425,1,0
464,176,13617,1,0
424,96,13810,1,0
336,64,14002,1,2
256,128,14194,1,0
208,208,14387,2,0,B|160:240|112:208,1,95
160,128,14771,6,0,B|128:80|176:16,1,95,2|0
350,38,15156,2,0,B|384:80|352:128,1,95
352,256,15540,2,0,B|385:297|353:345,1,95,2|0
157,343,15925,2,0,B|126:297|160:256,1,95
240,304,16310,5,2
272,224,16502,1,0
304,144,16694,1,0
336,64,16887,1,0
240,64,17079,2,0,B|176:64|160:144,1,95,2|0
128,208,17464,2,0,B|64:208|48:112,1,95
128,208,17848,5,2
224,176,18040,1,0
304,112,18233,1,0
352,32,18425,1,0
416,128,18617,6,0,B|448:160|448:240,1,95,2|0
480,304,19002,2,0,B|432:320|384:288,1,95
304,320,19387,2,0,B|272:256|336:208,1,95,2|0
224,176,19771,2,0,B|192:224|128:208,1,95
160,112,20156,2,0,B|192:64|272:80,1,95,2|0
336,32,20540,2,0,B|368:80|336:144,1,95
320,208,20925,5,2
400,160,21117,1,0
384,256,21310,1,0
464,208,21502,1,0
480,112,21694,2,0,B|432:48|384:48,1,95,2|0
320,128,22079,2,0,B|256:128|224:64,1,95
160,32,22464,5,2
96,96,22656,1,0
160,160,22848,1,0
96,224,23040,1,0
160,288,23233,6,0,B|208:304|256:256,1,95,2|0
272,176,23617,2,0,B|336:192|336:272,1,95
288,336,24002,2,0,B|336:368|416:344,1,95,2|0
448,288,24387,2,0,B|432:240|480:192,1,95
384,176,24771,2,0,B|432:160|464:96,1,95,2|0
368,96,25156,2,0,B|320:64|256:80,1,95
160,208,25540,6,0,B|96:224|72:144,1,95,2|0
80,272,25925,1,0
176,272,26117,1,0
240,336,26310,2,0,B|272:304|352:320,1,95,2|0
416,352,26694,2,0,B|384:304|416:256,1,95
256,144,27079,5,2
192,64,27271,1,0
96,96,27464,1,0
160,176,27656,1,0
96,256,27848,2,0,B|96:320|160:352,1,95,2|0
192,256,28233,2,0,B|240:272|272:336,1,95
416,192,28617,5,2
256,32,29002,1,0
96,192,29387,1,10
256,352,29771,1,0
224,208,30156,6,0,B|208:272|128:272,1,95,2|0
64,272,30540,1,0
32,184,30733,1,0
112,128,30925,2,0,B|144:160|208:136,1,95,2|0
288,96,31310,1,0
384,112,31502,1,0
400,208,31694,6,0,B|448:192|496:232,1,95,2|0
416,288,32079,2,0,B|352:304|320:240,1,95
320,160,32464,2,0,B|273:159|241:207,1,95,2|0
208,288,32848,2,0,B|160:272|153:210,1,95
160,64,33233,5,2
256,80,33425,1,0
320,144,33617,2,0,B|384:144|408:96,1,95
384,208,34002,2,0,B|320:224|320:288,1,95,2|0
256,208,34387,2,0,B|256:144|176:96,1,95
128,64,34771,6,0,B|64:80|48:144,1,95,2|0
128,192,35156,2,0,B|128:240|64:272,1,95
112,336,35540,2,0,B|176:336|224:272,1,95,2|0
400,336,35925,2,0,B|336:336|288:272,1,95
256,192,36310,5,2
288,96,36502,1,0
208,32,36694,1,0
128,96,36887,1,0
160,192,37079,2,0,B|128:256|208:304,1,95,2|0
80,256,37464,2,0,B|96:192|32:128,1,95
16,80,37848,6,0,B|64:128|128:48,1,95,2|0
192,96,38233,2,0,B|224:48|304:80,1,95
256,160,38618,2,0,B|208:208|288:288,1,95,2|0
336,208,39002,2,0,B|400:224|448:144,1,95
352,64,39387,6,0,B|256:16|128:80,1,190,2|0
160,320,40156,2,0,B|256:368|384:304,1,190,2|0
160,320,40925,5,2
208,240,41117,1,0
160,320,41310,1,0
208,240,41502,1,0
128,176,41694,2,0,B|176:128|256:144,1,95,2|0
304,176,42079,2,0,B|288:240|352:288,1,95
400,192,42464,2,0,B|416:144|368:96,1,95,2|0
304,48,42848,2,0,B|256:16|192:32,1,95
240,128,43233,1,10
320,192,43425,1,0
240,144,43617,1,0
320,208,43810,1,0
464,80,44002,5,2
448,176,44194,1,0
400,256,44387,1,0
320,304,44579,1,0
224,320,44771,1,2
144,272,44964,1,0
80,208,45156,1,0
48,112,45348,1,0
96,32,45540,5,2
80,128,45733,1,0
96,224,45925,1,0
160,304,46117,1,0
256,336,46310,1,2
352,320,46502,1,0
432,256,46694,1,0
480,176,46887,1,0
400,112,47079,6,0,B|400:64|376:16,1,95,2|0
304,80,47464,2,0,B|304:128|336:192,1,95
240,160,47848,2,0,B|240:96|192:48,1,95,2|0
144,144,48233,2,0,B|144:208|192:256,1,95
80,32,48617,5,6
32,128,48810,1,0
96,208,49002,1,0
192,192,49194,1,0
208,96,49387,1,2
112,112,49579,1,0
96,208,49771,1,0
160,288,49964,1,0
256,272,50156,5,2
288,192,50348,1,0
192,192,50540,1,0
160,288,50733,1,0
240,368,50925,1,2
336,352,51117,1,0
352,256,51310,1,0
256,272,51502,1,0
160,288,51694,6,0,B|96:288|64:224,1,95,2|0
48,160,52079,1,0
80,64,52271,1,0
256,48,52464,6,0,B|336:16|384:64,1,95,10|0
432,80,52848,1,0
480,160,53040,1,0
288,144,53233,5,2
384,144,53425,1,0
320,224,53617,1,0
416,224,53810,1,0
224,144,54002,5,2
128,144,54194,1,0
176,224,54387,1,0
80,224,54579,1,0
128,304,54771,5,2
224,304,54964,1,0
320,304,55156,1,0
416,304,55348,1,0
368,144,55540,5,2
272,144,55733,1,0
176,144,55925,1,0
80,144,56117,1,0
64,48,56310,6,0,B|112:16|176:48,1,95,2|0
112,128,56694,2,0,B|160:160|224:128,1,95
160,224,57079,2,0,B|208:192|272:224,1,95,10|0
208,304,57463,2,0,B|256:336|320:304,1,95
384,272,57848,5,6
464,208,58040,1,0
400,128,58233,1,0
320,192,58425,1,0
416,224,58617,1,0
448,128,58810,1,0
352,96,59002,1,0
320,192,59194,1,0
416,176,59387,5,2
384,80,59579,1,0
288,96,59771,1,0
320,192,59964,1,0
400,128,60156,1,2
320,64,60348,1,0
240,128,60540,1,0
320,192,60733,1,0
352,96,60925,6,0,B|384:64|464:64,1,95,2|0
264,64,61310,2,0,B|320:96|376:96,1,95,0|0
184,104,61694,2,0,B|200:64|272:64,1,95,10|0
112,160,62079,2,0,B|184:136|184:96,1,95
32,240,62464,5,2
112,304,62656,1,0
208,336,62848,2,0,B|256:352|320:320,1,95
432,256,63233,5,2
368,192,63425,1,0
288,160,63617,2,0,B|240:128|192:128,1,95
48,144,64002,5,2
112,80,64194,1,0
192,48,64387,2,0,B|256:32|304:48,1,95
400,96,64771,5,2
432,192,64964,1,0
400,288,65156,1,0
304,320,65348,1,0
208,288,65540,1,2
176,192,65733,1,0
208,96,65925,1,0
304,64,66117,1,0
400,96,66310,6,0,B|384:160|304:192,1,95,10|0
208,288,66694,2,0,B|224:240|304:192,1,95
176,160,67079,5,6
96,112,67271,1,0
176,64,67464,1,0
256,112,67656,1,0
256,208,67848,1,2
176,256,68040,1,0
176,160,68233,1,0
256,112,68425,1,0
336,160,68617,5,2
336,256,68810,1,0
256,304,69002,1,0
256,208,69194,1,0
336,160,69387,1,2
416,208,69579,1,0
416,304,69771,1,0
336,352,69964,1,0
256,304,70156,5,2
176,352,70348,2,0,B|128:336|96:288,1,95
192,256,70733,2,0,B|192:208|160:160,1,95,0|10
80,112,71117,2,0,B|128:64|192:64,2,95
304,64,71694,5,2
384,112,71887,1,0
464,160,72079,1,0
384,208,72271,1,0
304,256,72464,1,2
224,304,72656,1,0
144,256,72848,1,0
64,208,73040,1,0
0,160,73233,6,0,B|48:112|112:144,1,95,2|0
160,64,73617,2,0,B|208:96|208:176,1,95
192,240,74002,1,2
256,320,74194,1,0
352,288,74387,1,0
416,208,74579,1,0
432,112,74771,1,2
368,32,74964,1,0
288,80,75156,1,0
208,32,75348,1,0
48,112,75540,6,0,B|96:144|144:120,1,95,10|0
224,224,75925,2,0,B|176:192|128:224,1,95
176,304,76310,5,6
112,224,76502,1,0
176,144,76694,1,0
112,64,76887,1,0
336,64,77079,5,2
400,144,77271,1,0
336,224,77464,1,0
400,304,77656,1,0
336,224,77848,6,0,B|320:160|272:144,1,95,10|0
176,224,78233,2,0,B|192:288|240:304,1,95
176,224,78617,5,2
80,208,78810,1,0
16,128,79002,1,0
0,32,79194,1,0
96,32,79387,1,2
192,48,79579,1,0
256,128,79771,1,0
272,224,79964,1,0
176,224,80156,6,0,B|176:272|224:320,1,95,10|0
368,224,80541,2,0,B|368:176|320:128,1,95,0|0
256,80,80925,5,2
160,48,81117,1,0
112,128,81310,1,0
208,176,81502,1,0
304,224,81694,1,2
400,272,81887,1,0
352,352,82079,1,0
256,304,82271,1,0
160,320,82464,6,0,B|96:320|72:256,1,95,10|0
160,224,82848,2,0,B|160:160|96:144,1,95
16,144,83233,2,0,B|32:80|96:64,1,95,2|0
144,0,83617,2,0,B|208:32|208:96,1,95
192,160,84002,2,0,B|256:176|304:112,1,95,2|0
336,64,84387,2,0,B|368:16|448:32,1,95
416,128,84771,2,0,B|464:176|384:256,1,95,10|0
336,176,85156,2,0,B|288:224|336:288,1,95
224,320,85540,6,0,B|320:368|432:320,4,190,2|0|0|0|0
256,208,94002,5,6
256,192,94098,12,0,99387
