osu file format v5

[General]
AudioFilename: Evolution (Time Is Pop).mp3
AudioLeadIn: 0
PreviewTime: -1
Countdown: 0
SampleSet: Normal
StackLeniency: 0.7
Mode: 0
LetterboxInBreaks: 1
EditorBookmarks: 14270,118243,260424
EditorDistanceSpacing: 1.20000004768372

[Metadata]
Title:Evolution (Time Is Pop)
Artist:Ayumi Hamasaki
Creator:Aqua92
Version:oSuPlaYeR mIX Keyboard-Breaking
Source:
Tags:ayuma hamasaki time is pop evolution ytmnd soundtrack volume

[Difficulty]
HPDrainRate:7
CircleSize:5
OverallDifficulty:6
SliderMultiplier:1.5
SliderTickRate:1

[Events]
//Background and Video events
0,0,"ayumi20hamasaki2010.jpg"
//Break Periods
2,25239,25678
2,32931,37985
2,62162,62601
2,90238,95052
2,108315,113370
2,132546,133370
2,159085,170143
2,182162,182643
2,196008,207216
2,219085,221062
//Storyboard Layer 0 (Background)
//Storyboard Layer 1 (Failing)
//Storyboard Layer 2 (Passing)
//Storyboard Layer 3 (Foreground)
//Storyboard Sound Samples
//Background Colour Transformations
3,100,163,162,255

[TimingPoints]
12732,384.615384615385,4,1,0,100,1,0
54960,-100,4,2,0,100,0,0
57298,-100,4,1,0,100,0,0
65039,-100,4,1,0,100,0,1
77058,-100,4,1,0,100,0,0
77346,-100,4,1,0,100,0,1
91289,-100,4,1,0,100,0,0
124462,-100,4,2,0,100,0,0
126577,-100,4,1,0,100,0,0
134270,-100,4,1,0,100,0,1
146193,-100,4,1,0,100,0,0
146577,-100,4,1,0,100,0,1
160135,-100,4,1,0,100,0,0
212250,-100,4,2,0,100,0,0
214270,-100,4,1,0,100,0,0
225039,-100,4,2,0,100,0,0
228116,-100,4,1,0,100,0,0
231193,-100,4,2,0,100,0,0
234270,-100,4,1,0,100,0,0
235808,-100,4,1,0,100,0,1
247731,-100,4,1,0,100,0,0
248116,-100,4,1,0,100,0,1

[Colours]
Combo1 : 255,150,0
Combo2 : 40,205,31
Combo3 : 45,88,228
Combo4 : 200,38,38

[HitObjects]
64,64,14270,2,0,L|184:64|184:176|264:176|264:320,1,450
384,312,15808,1,0
384,192,16193,1,0
328,192,16385,1,0
136,192,16962,1,0
136,72,17347,2,0,L|256:72|256:112,2,150
136,192,18501,5,0
136,248,18693,5,0
136,304,18885,5,0
256,304,19270,5,0
256,184,19655,1,0
256,64,20039,1,0
152,120,20424,5,0
152,240,20808,1,0
152,296,21001,1,0
96,296,21193,1,0
40,192,21578,1,0
160,192,21962,5,0
280,192,22347,1,0
336,192,22539,2,0,L|376:192|376:88|288:88,1,225
176,88,23501,1,0
176,208,23885,5,0
120,208,24078,5,0
120,328,24462,5,0
176,328,24655,5,0
296,328,25039,5,4
88,56,26578,5,0
120,56,26674,1,0
152,56,26770,1,0
184,56,26866,1,0
208,56,26962,1,0
240,56,27058,1,0
272,56,27155,1,0
392,56,27539,5,0
392,88,27635,1,0
392,120,27732,1,0
392,152,27828,1,0
392,184,27924,1,0
392,216,28020,1,0
392,304,28308,5,0
360,304,28405,1,0
328,304,28501,1,0
296,304,28597,1,0
264,304,28693,1,0
232,304,28789,1,0
200,304,28885,1,0
136,304,29078,1,0
72,304,29270,1,0
72,240,29462,1,0
72,120,29847,5,0
128,120,30039,1,0
184,120,30232,1,0
240,120,30424,1,0
240,176,30616,1,0
184,176,30808,1,0
96,256,31193,5,0
96,256,31289,5,0
96,256,31385,5,0
96,256,31482,5,0
96,256,31578,5,0
96,256,31674,5,0
96,256,31770,5,0
96,256,31866,5,0
96,256,31962,5,0
96,256,32058,5,0
96,256,32155,5,0
96,256,32251,5,0
96,256,32347,5,0
96,256,32443,5,0
96,256,32539,5,0
96,256,32635,5,0
96,256,32732,5,4
64,104,38885,5,0
64,192,39174,1,0
152,192,39462,1,0
152,312,39847,1,0
208,312,40039,1,0
208,256,40232,1,0
264,256,40424,1,0
264,144,40712,1,0
264,56,41001,1,0
136,64,41385,5,0
136,120,41578,1,0
136,176,41770,1,0
80,176,41962,1,0
80,264,42251,2,0,B|168:344,1,112.5
280,336,42924,1,0
280,280,43116,1,0
336,280,43308,1,0
336,280,43405,1,0
336,280,43501,1,0
424,280,43789,1,0
424,192,44078,1,0
336,192,44462,5,0
280,192,44655,1,0
224,192,44847,1,0
224,136,45039,1,0
312,136,45328,1,0
224,136,45616,1,0
104,168,46001,1,0
104,224,46193,1,0
104,280,46385,1,0
104,280,46482,1,0
104,280,46578,1,0
192,280,46866,5,0
280,280,47155,1,0
400,280,47539,1,0
400,224,47732,1,0
344,224,47924,1,0
344,168,48116,2,0,L|424:168|424:240,1,150
424,238,48693,1,0
224,216,49078,1,0
224,272,49270,1,0
224,328,49462,1,0
280,328,49655,5,0
368,328,49943,1,0
432,264,50232,1,0
432,176,50616,1,0
376,176,50808,1,0
320,176,51001,1,0
264,176,51193,5,0
112,176,51578,5,0
112,56,51962,5,0
112,176,52347,5,0
216,112,52732,5,0
272,112,52925,1,0
328,112,53117,1,0
328,168,53309,1,0
328,224,53502,1,0
328,344,53885,2,0,L|176:344,1,150
256,144,55232,6,0,B|256:192,21,37.5
256,112,57347,6,0,B|408:112|384:352,1,300
328,328,58308,1,0
272,312,58501,2,0,B|56:264|64:112,1,300
168,88,59655,1,0
256,168,60039,1,0
256,48,60424,2,0,B|368:120|240:192|168:104|72:72|56:216|200:264|280:256,1,450
256,136,61962,5,4
256,48,63501,5,0
256,336,63885,5,0
48,192,64270,5,0
224,192,64655,5,0
400,193,65039,5,0
344,192,65232,1,0
400,192,65424,1,0
400,248,65616,1,0
400,304,65808,1,0
344,304,66001,1,0
288,304,66193,1,0
232,304,66385,1,0
288,304,66578,5,0
232,304,66770,1,0
232,304,66962,1,0
232,248,67155,1,0
232,192,67347,1,0
176,192,67539,1,0
120,192,67732,1,0
64,192,67924,2,0,L|64:272,1,75
64,328,68308,5,0
120,304,68501,1,0
120,248,68693,1,0
120,192,68885,1,0
120,136,69078,1,0
176,136,69270,1,0
232,136,69462,1,0
232,80,69655,1,0
232,80,69847,2,0,L|320:80,1,75
368,80,70232,5,0
400,136,70424,1,0
344,136,70616,1,0
288,136,70808,1,0
288,192,71001,1,0
344,192,71193,6,0,B|440:192|440:296,1,150
440,284,71962,2,0,B|384:380|312:364,1,150
325,366,72732,2,0,B|253:414|165:366,1,150
88,296,73501,1,0
88,176,73885,5,0
88,176,73982,5,0
88,176,74078,5,0
88,176,74174,5,0
88,176,74270,5,0
184,104,74655,5,0
304,104,75039,1,0
304,160,75232,1,0
304,216,75424,1,0
304,272,75616,1,0
304,216,75808,1,0
304,104,76193,6,0,B|424:152|416:216,1,150
296,200,76962,1,0
176,200,77347,5,0
120,200,77539,1,0
64,200,77732,1,0
64,144,77924,1,0
64,88,78116,1,0
120,88,78308,1,0
176,88,78501,1,0
176,144,78693,2,0,L|176:224,1,75
144,264,79078,5,0
176,312,79270,1,0
232,312,79462,1,0
232,256,79655,1,0
232,200,79847,1,0
288,200,80039,1,0
232,200,80232,1,0
176,200,80424,5,0
232,200,80616,1,0
232,144,80809,1,0
176,144,81001,1,0
176,88,81193,1,0
232,88,81385,1,0
288,88,81578,1,0
344,88,81770,1,0
344,144,81962,2,0,L|256:144,1,75
280,200,82347,5,0
224,200,82539,1,0
168,200,82732,1,0
112,200,82924,1,0
112,144,83116,1,0
120,88,83308,1,0
120,88,83501,6,0,B|232:176|192:232,1,150,0|0
203,207,84270,2,0,B|307:191|331:111,1,150
440,128,85039,1,0
440,184,85232,1,0
440,240,85424,1,0
440,296,85616,1,0
440,352,85808,1,0
320,352,86193,5,0
200,352,86578,5,0
200,296,86770,1,0
200,240,86962,1,0
200,184,87155,1,0
200,128,87347,1,0
200,72,87539,1,0
256,72,87732,5,0
256,72,87828,5,0
256,72,87924,5,0
256,72,88020,5,0
256,72,88116,5,0
288,184,88501,5,0
344,184,88693,1,0
400,184,88885,1,0
288,184,89270,1,0
232,184,89462,1,0
232,240,89655,5,0
200,240,89751,5,0
168,240,89847,5,0
136,240,89943,5,0
104,240,90039,5,4
88,328,95808,5,0
120,328,95904,1,0
152,328,96000,1,0
184,328,96096,1,0
208,328,96192,1,0
240,328,96288,1,0
272,328,96385,1,0
392,328,96769,5,0
392,296,96865,1,0
392,264,96962,1,0
392,232,97058,1,0
392,200,97154,1,0
392,168,97250,1,0
384,88,97538,5,0
352,88,97635,1,0
320,88,97731,1,0
288,88,97827,1,0
256,88,97923,1,0
224,88,98019,1,0
192,88,98115,1,0
128,88,98308,1,0
64,88,98500,1,0
64,24,98692,1,0
64,144,99077,5,0
120,144,99269,1,0
176,144,99462,1,0
232,144,99654,1,0
232,200,99846,1,0
176,200,100038,1,0
72,264,100423,5,0
72,264,100519,5,0
72,264,100615,5,0
72,264,100712,5,0
72,264,100808,5,0
72,264,100904,5,0
72,264,101000,5,0
72,264,101096,5,0
72,264,101192,5,0
72,264,101288,5,0
72,264,101385,5,0
72,264,101481,5,0
72,264,101577,5,0
72,264,101673,5,0
72,264,101769,5,0
72,264,101865,5,0
72,264,101962,5,4
72,144,102347,5,0
104,144,102443,1,0
136,144,102539,1,0
168,144,102635,1,0
192,144,102731,1,0
224,144,102827,1,0
256,144,102924,1,0
360,80,103308,5,0
360,112,103404,1,0
360,144,103501,1,0
360,176,103597,1,0
360,208,103693,1,0
360,240,103789,1,0
360,328,104077,5,0
328,328,104174,1,0
296,328,104270,1,0
264,328,104366,1,0
232,328,104462,1,0
200,328,104558,1,0
168,328,104654,1,0
232,264,104847,1,0
168,264,105039,1,0
200,208,105231,1,0
144,80,105616,5,0
200,80,105808,1,0
256,80,106001,1,0
312,80,106193,1,0
256,192,106578,5,0
256,192,106674,5,0
256,192,106770,5,0
256,192,106867,5,0
256,192,106963,5,0
256,192,107059,5,0
256,192,107155,5,0
256,192,107251,5,0
256,192,107347,5,0
256,192,107443,5,0
256,192,107540,5,0
256,192,107636,5,0
256,192,107732,5,0
256,192,107828,5,0
256,192,107924,5,0
256,192,108020,5,0
256,192,108117,5,4
72,80,114270,5,0
80,208,114558,1,0
208,208,114847,1,0
176,312,115232,1,0
232,312,115424,1,0
288,312,115616,1,0
288,256,115808,2,0,L|248:256|248:176,1,112.5,0|0
248,96,116385,1,0
128,96,116770,5,0
128,152,116962,1,0
128,208,117155,1,0
128,264,117347,2,0,L|208:264|208:200,1,112.5
210,169,117924,1,0
296,72,118308,5,0
352,72,118501,1,0
296,72,118693,1,0
240,72,118885,1,0
240,128,119078,2,0,L|392:128,1,150
360,224,119847,5,0
304,224,120039,1,0
248,224,120232,1,0
192,224,120424,2,0,B|272:280|144:320|248:376,1,150
48,72,121193,6,0,B|128:128|0:168|104:224,1,150
344,72,121962,6,0,B|424:128|296:168|400:224,1,150
256,184,122732,5,0
256,240,122924,1,0
200,240,123116,1,0
88,192,123501,5,0
88,72,123885,5,0
264,80,124462,6,0,B|264:128,21,37.5
288,96,126578,6,0,B|368:152|200:200|376:384,2,300,0|0|0
232,96,128308,1,0
80,192,128885,2,0,L|168:192|168:336|96:336,1,300
32,240,130039,5,0
32,120,130424,5,0
152,120,130808,5,0
152,240,131193,5,0
152,240,131289,5,0
152,240,131385,5,0
152,240,131482,5,0
152,240,131578,5,0
152,240,131674,5,0
152,240,131770,5,0
152,240,131866,5,0
152,240,131962,5,0
152,240,132058,5,0
152,240,132155,5,0
152,240,132251,5,0
152,240,132347,5,4
64,136,134270,5,0
64,192,134462,1,0
120,192,134655,1,0
176,192,134847,1,0
232,192,135039,2,0,L|320:192,1,75
304,192,135424,1,0
304,248,135616,1,0
304,304,135808,5,0
248,304,136001,2,0,L|168:304,1,75,0|0
120,304,136385,1,0
120,248,136578,1,0
64,248,136770,1,0
64,192,136962,1,0
64,136,137155,5,0
64,136,137251,5,0
120,136,137443,5,0
176,136,137635,5,0
176,136,137732,5,0
256,48,138116,6,0,L|296:48|296:88,1,75
296,80,138501,1,0
296,136,138693,1,0
296,192,138885,1,0
176,192,139270,1,0
56,192,139655,1,0
56,312,140039,5,0
112,312,140232,1,0
168,312,140424,1,0
168,192,140808,1,0
256,104,141193,1,0
376,104,141578,1,0
376,160,141770,1,0
376,216,141962,2,0,B|448:288|320:336|456:344,1,150
296,336,142732,5,0
176,336,143116,1,0
176,216,143501,1,0
96,128,143885,1,0
136,88,144078,1,0
176,48,144270,2,0,B|312:48|320:136,1,150
256,208,145039,1,0
256,264,145232,1,0
256,320,145424,1,0
376,320,145808,5,0
376,200,146193,5,0
256,192,146578,5,0
200,192,146770,1,0
144,192,146962,1,0
200,192,147155,1,0
144,192,147347,1,0
144,136,147539,1,0
200,136,147732,2,0,L|200:232,1,75
200,208,148116,5,0
200,328,148501,1,0
200,208,148885,1,0
320,208,149270,1,0
344,88,149655,5,0
288,88,149848,1,0
232,88,150040,1,0
232,144,150232,1,0
232,200,150425,1,0
232,320,150808,2,0,L|144:320|144:232,2,150
352,248,151962,5,0
352,192,152155,5,0
352,136,152347,5,0
352,80,152539,5,0
296,80,152732,5,0
176,80,153116,5,0
56,80,153501,1,0
56,200,153885,1,0
56,256,154078,1,0
56,312,154270,1,0
160,312,154655,1,0
160,256,154847,1,0
160,200,155039,1,0
256,128,155424,5,0
376,128,155808,1,0
376,184,156001,1,0
376,240,156193,1,0
320,240,156385,1,0
288,240,156482,1,0
256,240,156578,1,0
136,240,156962,5,0
136,184,157155,1,0
192,184,157347,1,0
192,128,157539,1,0
248,128,157732,1,0
248,184,157924,1,0
304,184,158116,1,0
304,240,158308,5,0
304,240,158405,5,0
304,240,158501,5,0
304,240,158597,5,0
304,240,158693,5,0
304,240,158789,5,0
304,240,158885,5,4
256,48,171193,5,0
56,192,172732,5,0
176,192,173116,1,0
176,248,173308,1,0
344,304,173885,1,0
224,304,174270,1,0
256,80,175424,5,0
256,136,175616,1,0
256,192,175808,1,0
136,192,176193,1,0
216,280,176578,1,0
296,192,176962,1,0
256,80,177347,1,0
136,80,177732,5,0
136,80,177828,5,0
136,80,177924,5,0
136,80,178020,5,0
136,80,178116,5,0
136,320,178885,5,0
256,320,179270,1,0
256,264,179462,1,0
424,192,180039,1,0
304,192,180424,1,0
96,72,181193,1,0
96,192,181578,1,0
216,192,181962,1,4
440,48,183501,5,0
440,80,183597,1,0
440,112,183693,1,0
440,144,183789,1,0
440,168,183885,1,0
440,200,183981,1,0
440,232,184078,1,0
320,232,184462,5,0
320,200,184558,1,0
320,168,184655,1,0
320,136,184751,1,0
320,104,184847,1,0
320,72,184943,1,0
352,152,185231,5,0
320,152,185328,1,0
288,152,185424,1,0
256,152,185520,1,0
224,152,185616,1,0
192,152,185712,1,0
160,152,185808,1,0
96,152,186001,1,0
32,152,186193,1,0
32,88,186385,1,0
88,192,186770,5,0
144,192,186962,1,0
200,192,187155,1,0
256,192,187347,1,0
256,248,187539,1,0
200,248,187731,1,0
96,304,188116,5,0
96,304,188212,5,0
96,304,188308,5,0
96,304,188405,5,0
96,304,188501,5,0
96,304,188597,5,0
96,304,188693,5,0
96,304,188789,5,0
96,304,188885,5,0
96,304,188981,5,0
96,304,189078,5,0
96,304,189174,5,0
96,304,189270,5,0
96,304,189366,5,0
96,304,189462,5,0
96,304,189558,5,0
96,304,189655,5,4
216,304,190039,5,0
248,304,190135,1,0
280,304,190231,1,0
312,304,190327,1,0
336,304,190423,1,0
368,304,190519,1,0
400,304,190616,1,0
400,184,191000,5,0
368,184,191096,1,0
336,184,191193,1,0
304,184,191289,1,0
272,184,191385,1,0
240,184,191481,1,0
256,96,191769,5,0
224,96,191866,1,0
192,96,191962,1,0
160,96,192058,1,0
128,96,192154,1,0
96,96,192250,1,0
64,96,192346,1,0
64,152,192539,1,0
64,208,192731,1,0
64,264,192923,1,0
176,224,193308,5,0
232,224,193500,1,0
288,224,193693,1,0
344,224,193885,1,0
256,136,194270,5,0
256,136,194366,5,0
256,136,194462,5,0
256,136,194559,5,0
256,136,194655,5,0
256,136,194751,5,0
256,136,194847,5,0
256,136,194943,5,0
256,136,195039,5,0
256,136,195135,5,0
256,136,195232,5,0
256,136,195328,5,0
256,136,195424,5,0
256,136,195520,5,0
256,136,195616,5,0
256,136,195712,5,0
256,136,195809,5,4
56,96,208116,6,0,B|136:200|224:120|328:224,1,300
432,216,209270,2,0,B|528:240|496:360,1,150
152,328,210808,5,0
88,224,211193,5,0
88,104,211578,5,0
168,16,211962,5,0
232,80,212251,6,0,L|232:136,20,37.5
200,88,214270,6,0,B|200:168|288:200|344:136|336:80|424:64|448:88,2,300
80,296,216578,5,0
320,296,217347,5,0
256,192,217732,5,0
184,96,218116,5,0
184,96,218212,5,0
184,96,218308,5,0
184,96,218405,5,0
184,96,218501,5,0
184,96,218597,5,0
184,96,218693,5,0
184,96,218789,5,0
184,96,218885,5,4
88,72,221962,5,0
88,128,222155,1,0
88,184,222347,1,0
88,240,222539,1,0
144,216,222732,2,0,B|240:264|128:344|128:360,1,150
143,215,223501,6,0,B|71:151|119:71,1,150
112,88,224078,1,0
171,85,224270,1,0
288,88,224655,1,0
288,208,225039,5,0
232,208,225232,1,0
232,152,225424,1,0
176,152,225616,1,0
120,152,225808,1,0
120,208,226001,1,0
120,264,226193,1,0
176,264,226385,1,0
232,264,226578,2,0,L|312:264,1,75
360,264,226962,5,0
360,264,227058,1,0
360,264,227155,1,0
360,208,227347,1,0
360,152,227539,1,0
304,152,227732,1,0
232,152,227924,6,0,B|312:152,1,75
360,152,228308,1,0
360,208,228501,1,0
360,264,228693,1,0
304,264,228885,1,0
248,264,229078,1,0
192,264,229270,1,0
64,192,229655,5,0
112,80,230039,1,0
168,80,230232,1,0
224,80,230424,1,0
344,80,230808,6,0,B|344:176|240:168,1,150
248,224,231385,1,0
248,280,231577,1,0
248,336,231769,1,0
248,336,231865,1,0
192,336,232058,1,0
192,336,232155,1,0
136,336,232347,1,0
80,336,232539,1,0
80,280,232732,5,0
80,280,232828,1,0
80,224,233020,1,0
80,224,233116,1,0
136,224,233308,1,0
136,224,233404,1,0
136,168,233596,1,0
136,112,233788,1,0
136,112,233885,1,0
192,112,234078,6,0,L|256:112|256:152,2,75
192,112,234655,1,0
192,168,234847,1,0
192,224,235039,1,0
248,224,235232,1,0
304,224,235424,1,0
360,224,235616,6,0,L|360:304,1,75
304,296,236001,5,0
248,296,236193,1,0
304,296,236385,1,0
248,296,236578,1,0
192,296,236770,5,0
192,296,236866,5,0
192,296,236962,5,0
192,296,237058,5,0
192,296,237155,5,0
136,296,237347,5,0
136,240,237539,2,0,L|40:240,1,75
64,184,237924,1,0
64,128,238116,1,0
120,128,238308,5,0
120,128,238405,5,0
120,128,238501,5,0
120,128,238597,5,0
120,128,238693,5,0
176,128,238885,5,0
232,128,239078,1,0
288,128,239270,2,0,L|448:128,2,150
256,240,240424,1,0
256,120,240808,1,0
152,184,241193,1,0
72,88,241578,5,0
72,88,241674,5,0
72,88,241770,5,0
72,88,241866,5,0
72,88,241962,5,0
72,88,242058,5,0
160,88,242347,5,0
216,88,242539,1,0
272,88,242732,2,0,L|360:88|360:152,1,150
360,272,243501,5,0
296,272,243693,5,0
296,272,243789,5,0
296,272,243885,5,0
296,272,243982,5,0
296,272,244078,5,0
240,272,244270,5,0
120,272,244655,1,0
120,152,245039,1,0
176,152,245232,1,0
296,152,245616,2,0,L|344:152|376:152,1,75
376,272,246193,5,0
256,272,246578,5,0
136,272,246962,5,0
136,152,247347,5,0
256,192,247732,5,0
256,192,247828,5,0
256,192,247924,5,0
256,192,248020,5,0
256,192,248116,5,0
256,136,248308,5,0
200,136,248501,1,0
144,136,248693,1,0
176,88,248885,1,0
232,88,249078,1,0
200,40,249270,1,0
256,40,249462,1,0
312,37,249655,6,0,L|312:125,1,75
312,112,250039,1,0
312,168,250232,1,0
312,224,250424,1,0
256,224,250616,1,0
200,224,250808,1,0
72,224,251193,5,0
72,224,251289,5,0
72,224,251385,5,0
72,224,251482,5,0
72,224,251578,5,0
120,112,251962,5,0
176,112,252155,1,0
232,112,252347,1,0
288,112,252539,1,0
344,112,252732,2,0,L|344:32|416:32,2,150
352,232,253885,5,0
296,232,254078,1,0
240,232,254270,1,0
240,232,254366,1,0
240,232,254462,1,0
120,232,254847,1,0
120,176,255039,1,0
184,72,255424,6,0,L|320:72|320:96,2,150
256,168,256578,1,0
256,288,256962,1,0
256,344,257155,1,0
256,288,257347,1,0
184,192,257732,5,0
256,80,258116,5,0
256,136,258308,5,0
256,192,258501,5,0
256,192,258885,12,4,260424
