osu file format v7

[General]
AudioFilename: Seikon_no_Qwaser_-_Passionate_Squall_TV_Size.mp3
AudioLeadIn: 0
PreviewTime: 13199
Countdown: 0
SampleSet: Normal
StackLeniency: 0.7
Mode: 0
LetterboxInBreaks: 1

[Editor]
DistanceSpacing: 1
BeatDivisor: 4
GridSize: 8

[Metadata]
Title:Passionate squall (TV Size)
Artist:Ayumi Fujimura
Creator:Mafiamaster
Version:Insane
Source:Seikon no Qwaser
Tags:Aki Toyosaki Minori Chihara Aya Hirano Yoko Hikasa Vicho-kun osuplayer111 Breast Milk

[Difficulty]
HPDrainRate:6
CircleSize:5
OverallDifficulty:8
SliderMultiplier:2.6
SliderTickRate:1

[Events]
//Background and Video events
Video,0,"HD Bitches.avi"
0,0,"Moe Bitches.jpg"
//Break Periods
//Storyboard Layer 0 (Background)
//Storyboard Layer 1 (Fail)
//Storyboard Layer 2 (Pass)
//Storyboard Layer 3 (Foreground)
//Storyboard Sound Samples
//Background Colour Transformations
3,100,0,0,0

[TimingPoints]
6064,500,4,1,0,70,1,0
11997,-100,4,1,0,40,0,0
13261,-100,4,1,0,70,0,0
14060,-100,4,1,0,100,0,1
14185,-100,4,1,0,100,0,0
22060,-100,4,1,0,100,0,1
22185,-100,4,1,0,100,0,0
28060,2000,4,2,0,0,1,0
30060,500,4,1,0,100,1,0
53810,-100,4,1,0,50,0,0
70935,-100,4,1,0,100,0,0
71060,-100,4,1,0,100,0,1
71185,-100,4,1,0,100,0,0
79060,-100,4,1,0,100,0,1
79185,-100,4,1,0,100,0,0
85060,2000,4,1,0,0,1,0
87060,500,4,1,0,100,1,0

[Colours]
Combo1 : 191,0,191
Combo2 : 0,0,255
Combo3 : 255,0,0
Combo4 : 234,234,0
Combo5 : 0,138,69

[HitObjects]
224,112,6064,1,0
288,112,6189,1,0
320,168,6314,1,0
288,224,6439,1,0
224,224,6564,1,0
192,280,6689,2,0,B|168:304|144:320|104:312|72:272,2,130
256,168,7439,5,0
288,224,7564,1,0
320,168,7689,1,0
352,224,7814,1,0
320,280,7939,2,0,L|464:280,1,130
344,352,8439,2,0,L|200:352,1,130,0|0
152,352,8814,5,0
88,352,8939,1,0
56,296,9064,1,0
24,240,9189,2,0,L|72:216|168:216,1,130
128,152,9564,1,0
64,152,9689,2,0,L|80:88|160:88,1,130
208,88,10064,5,0
272,88,10189,1,0
240,144,10314,1,0
304,144,10439,1,0
272,200,10564,1,0
336,200,10689,2,0,L|400:224|480:192,1,130
368,296,11189,2,0,L|304:272|224:304,1,130,0|0
192,328,11564,1,0
136,360,11689,1,0
136,296,11814,1,0
80,328,11939,1,0
24,296,12064,6,0,B|24:224,1,65
80,264,12314,2,0,B|112:200,1,65,0|0
24,112,12689,1,0
144,56,12939,1,0
224,160,13189,1,0
240,224,13314,5,0
304,240,13439,1,0
352,192,13564,1,0
336,128,13689,1,0
384,80,13814,1,0
448,96,13939,1,0
400,144,14064,6,0,L|432:280,1,130,4|0
440,336,14439,2,0,L|313:307,1,130
256,336,14814,2,0,L|192:192,1,130,0|0
176,160,15189,1,0
152,96,15314,2,0,B|224:80|280:152,1,130
320,176,15689,1,0
368,216,15814,1,0
312,248,15939,1,0
256,280,16064,6,0,B|232:256|208:240|168:248|136:288,1,130
200,312,16439,2,0,B|224:288|240:264|232:224|192:192,1,130
144,168,16814,2,0,B|160:208|152:232|152:232|120:240|96:200,3,130
64,152,17689,1,0
56,88,17814,1,0
256,80,18064,5,0
368,192,18314,1,0
144,192,18564,1,0
256,304,18814,1,0
256,192,19064,1,0
168,96,19314,5,0
168,96,19439,1,0
344,288,19689,1,0
344,288,19814,1,0
256,192,20064,5,0
344,96,20314,1,0
408,96,20439,1,0
472,96,20564,1,0
360,160,20814,2,0,B|216:160,1,130
344,224,21314,2,0,B|416:224,2,65
288,256,21689,1,0
232,224,21814,1,0
176,256,21939,1,0
120,224,22064,6,0,B|120:88,1,130,4|0
176,56,22439,2,0,B|176:186,1,130
232,224,22814,2,0,B|232:88,2,130
232,288,23439,1,0
232,352,23564,6,0,B|256:376|280:392|320:384|352:344,1,130
384,304,23939,1,0
416,360,24064,2,0,B|440:336|456:312|448:272|408:240,1,130
384,304,24439,2,0,B|360:280|344:256|352:216|392:184,1,130
416,248,24814,2,0,B|440:224|456:200|448:160|408:128,2,130
384,304,25439,5,0
328,272,25564,2,0,B|184:272,2,130
440,336,26314,5,0
440,208,26564,1,0
440,144,26689,1,0
328,208,26939,1,0
328,272,27064,1,0
256,384,27314,1,0
160,200,27564,5,0
224,184,27689,1,0
288,184,27814,1,0
352,200,27939,1,0
256,264,28060,6,0,B|304:152|208:152|280:32,1,227.5
392,96,30060,5,4
480,192,30310,1,0
392,288,30560,1,0
392,192,30810,1,0
328,192,30935,2,0,B|192:192,2,130
360,136,31560,2,0,B|230:136,1,130
168,136,31935,6,0,B|137:161|129:201|145:225|169:249,1,130
200,192,32310,1,0
168,248,32435,2,0,B|145:272|121:288|81:280|56:248,1,130,0|0
112,216,32810,1,0
56,248,32935,2,0,B|40:320,1,65
24,376,33185,1,0
88,376,33310,2,0,B|232:376,1,130
280,376,33685,1,0
312,320,33810,1,0
280,264,33935,1,0
312,208,34060,6,0,B|336:176|376:168|400:184|424:208,2,130
280,264,34685,1,0
248,320,34810,2,0,B|176:303,1,65
120,296,35060,1,0
56,288,35185,2,0,L|32:224|64:144,1,130
88,112,35560,1,0
160,224,35810,5,0
192,168,35935,2,0,B|328:168,1,130
384,168,36310,1,0
352,224,36435,2,0,B|216:224,2,130
384,280,37060,5,0
416,336,37185,1,0
448,280,37310,1,0
480,224,37435,1,0
448,168,37560,1,0
384,168,37685,2,0,B|312:168,2,65
416,224,38060,1,4
256,304,38310,5,0
144,240,38560,1,0
256,176,38810,1,0
368,240,39060,1,0
320,120,39310,1,0
192,120,39560,1,0
144,240,39810,1,0
208,240,39935,2,0,L|256:288|304:240,2,130
192,176,40560,2,0,L|328:176,1,130
384,176,40935,1,0
448,176,41060,6,0,L|432:240|352:240,1,130
480,304,41560,2,0,L|328:304,1,130
288,304,41935,1,0
224,304,42060,2,0,L|224:240|360:240,1,195
416,240,42560,1,0
384,184,42685,1,0
320,176,42810,2,0,L|184:176,2,130
384,184,43435,5,0
416,240,43560,1,0
416,304,43685,1,0
384,360,43810,1,0
320,360,43935,1,0
304,296,44060,2,0,B|272:224|256:320|256:320|224:216|200:328,1,195
200,360,44560,2,0,B|260:408|330:353,2,130
152,312,45185,6,0,B|104:256,1,65
48,264,45435,1,0
48,200,45560,2,0,B|90:150,1,65,0|0
152,152,45810,1,0
152,216,45935,2,0,B|194:265,1,65,0|0
256,64,46310,6,0,B|256:200,1,130
256,256,46685,1,0
256,320,46810,2,0,B|280:352|320:360|344:344|368:320,1,130
456,224,47310,1,0
416,104,47560,2,0,B|320:96|336:208,1,130
328,240,47935,1,0
320,304,48060,2,0,B|224:312|240:200,1,130
232,96,48560,5,0
296,96,48685,1,0
184,160,48935,1,0
296,224,49185,1,0
232,224,49310,1,0
120,160,49560,2,0,B|256:160,1,130
312,160,49935,1,0
360,208,50060,6,0,B|384:232|400:256|392:296|352:328,1,130
328,264,50435,2,0,B|352:240|376:224|416:232|448:272,1,130
488,312,50810,1,0
432,352,50935,1,0
384,304,51060,2,0,B|384:168,1,130
384,112,51435,1,0
384,48,51560,2,0,B|360:24|336:8|296:16|264:56,1,130
328,80,51935,1,0
328,144,52060,6,0,B|328:280,1,130
392,280,52435,2,0,B|256:280,1,130
256,344,52810,2,0,B|256:208,1,130
256,152,53185,2,0,B|176:272,1,130
144,312,53560,1,0
96,360,53685,1,0
40,328,53810,5,0
48,264,53935,1,0
112,256,54060,1,4
400,184,54560,5,0
328,80,54810,1,0
400,184,55060,1,0
440,240,55185,2,0,B|336:96,1,130
328,80,55560,2,0,B|272:128|312:216,1,130
320,264,55935,1,0
384,240,56060,6,0,B|448:176|368:184|416:120,2,130
256,280,56810,2,0,B|232:168|88:168,1,195
48,280,57435,1,0
112,296,57560,1,0
176,312,57685,2,0,B|200:224|112:192,1,130
72,176,58060,1,0
400,200,58560,5,0
328,304,58810,1,0
400,200,59060,1,0
440,144,59185,2,0,B|336:288,1,130
328,304,59560,2,0,B|272:256|312:168,1,130
320,120,59935,1,0
384,144,60060,6,0,B|448:208|368:200|416:264,2,130
256,104,60810,2,0,B|232:216|88:216,1,195
48,104,61435,1,0
112,88,61560,1,0
176,72,61685,2,0,B|200:160|112:192,1,130
72,208,62060,1,0
296,344,62560,5,0
200,256,62810,1,0
88,320,63060,1,0
112,256,63185,2,0,B|128:176|208:152,1,130
232,208,63560,2,0,B|216:288|136:312,1,130
88,320,63935,5,0
32,288,64060,2,0,B|0:224|48:152,1,130
112,56,64560,1,0
136,184,64810,1,0
208,80,65060,1,0
272,88,65185,2,0,B|352:104|376:184,1,130
328,216,65560,2,0,B|248:200|224:120,1,130
208,80,65935,1,0
248,32,66060,1,0
400,240,66560,5,0
304,328,66810,2,0,B|224:344|176:272,1,130
144,336,67185,2,0,B|96:280|136:192,1,130
64,200,67560,2,0,B|88:128|160:120,1,130
224,120,67935,1,0
288,128,68060,2,0,B|360:144,3,65
344,80,68560,2,0,B|407:95,3,65
472,112,69060,6,0,B|464:184,1,65
400,160,69310,2,0,B|392:232,1,65,0|0
328,208,69560,2,0,B|320:280,1,65
208,336,69935,1,0
264,216,70185,1,0
248,152,70310,5,0
184,136,70435,1,0
136,184,70560,1,0
152,248,70685,1,0
104,296,70810,1,0
40,280,70935,1,0
24,216,71060,6,0,L|53:89,1,130,4|0
104,136,71435,2,0,L|224:64,1,130
272,32,71810,2,0,L|240:168,1,130,0|0
224,224,72185,1,0
208,288,72310,2,0,B|280:304|336:232,1,130
368,200,72685,1,0
384,136,72810,1,0
376,72,72935,1,0
320,112,73060,6,0,B|296:136|272:152|232:144|200:104,1,130
264,80,73435,2,0,B|288:104|304:128|296:168|256:200,1,130
232,136,73810,2,0,B|208:160|192:184|200:224|240:256,3,130
280,296,74685,1,0
312,240,74810,1,0
144,192,75060,5,0
256,80,75310,1,0
256,304,75560,1,0
368,192,75810,1,0
256,192,76060,1,0
344,288,76310,5,0
344,288,76435,1,0
168,96,76685,1,0
168,96,76810,1,0
256,192,77060,5,0
168,288,77310,1,0
104,288,77435,1,0
40,288,77560,1,0
152,224,77810,2,0,B|296:224,1,130
168,160,78310,2,0,B|96:160,2,65
224,128,78685,1,0
280,160,78810,1,0
336,128,78935,1,0
392,160,79060,6,0,B|392:296,1,130,4|0
336,328,79435,2,0,B|336:198,1,130
280,160,79810,2,0,B|280:296,2,130
280,96,80435,1,0
280,32,80560,6,0,B|256:8|232:-8|192:0|160:40,1,130
128,80,80935,1,0
96,24,81060,2,0,B|72:48|56:72|64:112|104:144,1,130
128,80,81435,2,0,B|152:104|168:128|160:168|120:200,1,130
96,136,81810,2,0,B|72:160|56:184|64:224|104:256,2,130
128,80,82435,5,0
184,112,82560,2,0,B|328:112,2,130
296,48,83310,5,0
296,176,83560,1,0
296,240,83685,1,0
184,176,83935,1,0
184,112,84060,1,0
184,304,84310,1,0
352,176,84560,5,0
288,192,84685,1,0
224,192,84810,1,0
160,176,84935,1,0
256,120,85060,6,0,B|208:232|304:232|232:352,1,227.5
120,288,87060,5,4
32,192,87310,1,0
120,96,87560,1,0
120,192,87810,1,0
184,192,87935,2,0,B|320:192,2,130
152,248,88560,2,0,B|282:248,1,130
344,248,88935,6,0,B|375:223|383:183|367:159|343:135,1,130
312,192,89310,1,0
344,136,89435,2,0,B|367:112|391:96|431:104|456:136,1,130,0|0
400,168,89810,1,0
456,136,89935,2,0,B|472:64,1,65
488,8,90185,1,0
424,8,90310,2,0,B|280:8,1,130
232,8,90685,1,0
200,64,90810,1,0
232,120,90935,1,0
200,176,91060,6,0,B|176:208|136:216|112:200|88:176,2,130
232,120,91685,1,0
264,64,91810,2,0,B|336:81,1,65
392,88,92060,1,0
456,96,92185,2,0,L|480:160|448:240,1,130
424,272,92560,1,0
352,160,92810,5,0
320,216,92935,2,0,B|184:216,1,130
128,216,93310,1,0
160,160,93435,2,0,B|296:160,2,130
128,104,94060,5,0
96,48,94185,1,0
64,104,94310,1,0
32,160,94435,1,0
64,216,94560,1,0
128,216,94685,2,0,B|200:216,2,65
96,160,95060,5,4
352,80,95435,1,0
160,80,95810,1,0
416,160,96185,1,0
256,376,96560,5,0
256,248,96810,1,0
256,120,97060,2,0,B|112:120,1,130
240,184,97560,2,0,B|376:184,1,130
352,248,97935,2,0,B|488:248,1,130
512,304,98310,1,0
