osu file format v7

[General]
AudioFilename: Seikon_no_Qwaser_-_Passionate_Squall_TV_Size.mp3
AudioLeadIn: 0
PreviewTime: 13199
Countdown: 0
SampleSet: Normal
StackLeniency: 0.7
Mode: 0
LetterboxInBreaks: 1

[Editor]
DistanceSpacing: 1.10000002384186
BeatDivisor: 4
GridSize: 8

[Metadata]
Title:Passionate squall (TV Size)
Artist:Ayumi Fujimura
Creator:Mafiamaster
Version:Easy
Source:Seikon no Qwaser
Tags:Aki Toyosaki Minori Chihara Aya Hirano Yoko Hikasa Vicho-kun osuplayer111 AtemiskKun Breast Milk

[Difficulty]
HPDrainRate:2
CircleSize:3
OverallDifficulty:2
SliderMultiplier:1.5
SliderTickRate:2

[Events]
//Background and Video events
Video,0,"HD Bitches.avi"
0,0,"Moe Bitches.jpg"
//Break Periods
2,30264,36754
//Storyboard Layer 0 (Background)
//Storyboard Layer 1 (Fail)
//Storyboard Layer 2 (Pass)
//Storyboard Layer 3 (Foreground)
//Storyboard Sound Samples
//Background Colour Transformations
3,100,0,0,0

[TimingPoints]
6064,500,4,1,0,81,1,0
14060,-100,4,1,0,81,0,1
14180,-100,4,1,0,81,0,0
22060,-100,4,1,0,81,0,1
22180,-100,4,1,0,81,0,0
27884,-100,4,1,0,0,0,0
30246,-100,4,1,0,81,0,0
54487,-100,4,1,0,57,0,0
70280,-100,4,1,0,81,0,0
71060,-100,4,1,0,81,0,1
71180,-100,4,1,0,81,0,0
79060,-100,4,1,0,81,0,1
79180,-100,4,1,0,81,0,0
85039,-100,4,1,0,0,0,0
87064,-100,4,1,0,81,0,0

[Colours]
Combo1 : 191,0,191
Combo2 : 0,0,255
Combo3 : 255,0,0
Combo4 : 234,234,0
Combo5 : 0,138,69

[HitObjects]
88,200,13314,1,0
88,280,13564,2,0,L|176:280,1,75
240,304,14064,2,0,B|360:304,1,112.5
264,216,14814,2,0,B|368:216,1,75
416,192,15314,6,0,L|416:280,2,75
408,112,16064,2,0,L|504:216,2,112.5
336,264,17314,6,0,L|336:184|336:184,2,75
336,344,18064,2,0,B|184:344,1,150
104,344,18814,1,0
136,264,19064,2,0,B|288:264,1,150
368,264,19814,1,0
256,192,20064,12,0,21564
368,288,22064,6,0,L|481:288,2,112.5,0|0|0
368,128,23314,1,0
368,208,23564,2,0,B|280:208,1,75
288,288,24064,2,0,B|144:288,2,112.5
288,128,25314,5,0
208,128,25564,1,0
40,128,26064,2,0,B|16:208|48:304,3,150
256,192,28064,12,0,30064
64,64,38314,5,0
64,144,38564,1,0
208,64,39064,2,0,B|208:216,1,150
304,64,40064,2,0,B|304:216,2,150
384,64,41314,6,0,L|472:64,2,75,0|0|0
384,144,42064,2,0,L|384:264,2,112.5
464,288,43314,6,0,B|312:288,1,150,0|0
256,344,44064,2,0,B|208:288|264:216,2,112.5
256,192,45064,12,0,46064
256,64,46564,6,0,L|104:64,1,150
256,144,47564,2,0,B|416:144,1,150
256,64,49314,5,0
256,144,49564,1,0
256,224,49814,1,0
256,304,50064,2,0,B|128:304,2,112.5
256,304,51314,5,0
256,224,51564,1,0
256,144,51814,1,0
256,64,52064,2,0,B|384:64,1,112.5
352,184,52814,2,0,B|248:288|144:160,1,225
56,40,54064,5,0
184,144,54564,1,0
56,248,55064,1,0
184,352,55564,1,0
312,248,56064,1,0
256,192,56189,12,0,58064
456,40,58564,5,0
328,144,59064,1,0
456,248,59564,1,0
328,352,60064,1,0
256,192,60189,12,0,62064
56,344,62564,5,0
184,240,63064,1,0
56,136,63564,1,0
184,32,64064,1,0
256,192,64189,12,0,66064
256,40,66564,5,0
168,176,67064,1,0
344,176,67564,1,0
256,312,68064,2,0,L|256:72,1,225
208,72,70314,5,0
288,72,70564,2,0,L|376:72,1,75
448,72,71064,2,0,L|448:200,2,112.5
368,216,72314,6,0,B|368:136,2,75
368,296,73064,2,0,L|240:296,2,112.5
224,216,74314,5,0
144,216,74564,1,0
64,216,74814,1,0
64,136,75064,2,0,L|248:136,3,150
64,216,77064,2,0,B|160:312|248:152|376:272,1,300
416,288,78314,5,0
480,240,78564,1,0
480,160,78814,1,0
416,112,79064,2,0,B|344:208,2,112.5
256,80,80314,5,0
176,80,80564,2,0,L|64:80,2,75,0|0|0
80,160,81439,2,0,B|224:160,1,112.5
360,160,82314,5,0
440,160,82564,2,0,B|464:320,1,150
320,232,83564,2,0,B|160:208,1,150
296,104,84564,1,0
256,192,85064,12,0,87064
