osu file format v14

[General]
AudioFilename: .mp3
AudioLeadIn: 0
PreviewTime: 54025
Countdown: 0
SampleSet: Normal
StackLeniency: 0.7
Mode: 3
LetterboxInBreaks: 0
SpecialStyle: 0
WidescreenStoryboard: 0

[Editor]
DistanceSpacing: 1.1
BeatDivisor: 8
GridSize: 4
TimelineZoom: 1.8

[Metadata]
Title:Toutatsu shite shimatta bokura to yume to kibou no sainohate
TitleUnicode:到達してしまった僕らと夢と希望の最之果
Artist:Ayatsugu_Otowa
ArtistUnicode:Ayatsugu_Otowa
Creator:LevPrism-
Version:EXH
Source:SOUND VOLTEX III GRAVITY WARS
Tags:SDVX LevPrism- Ayatsugu_Otowa
BeatmapID:678471
BeatmapSetID:302734

[Difficulty]
HPDrainRate:8
CircleSize:4
OverallDifficulty:8
ApproachRate:5
SliderMultiplier:1.4
SliderTickRate:1

[Events]
//Background and Video events
0,0,"BG.jpg",0,0
//Break Periods
//Storyboard Layer 0 (Background)
//Storyboard Layer 1 (Fail)
//Storyboard Layer 2 (Pass)
//Storyboard Layer 3 (Foreground)
//Storyboard Sound Samples

[TimingPoints]
407,319.148936170213,4,1,0,40,1,0
12055,-100,4,1,0,24,0,0
13172,-100,4,1,0,40,0,0

[HitObjects]
192,192,727,128,0,1684:0:0:0:0:
64,192,1684,1,0,0:0:0:0:
320,192,1684,1,0,0:0:0:0:
448,192,1684,1,0,0:0:0:0:
64,192,2163,1,0,0:0:0:0:
192,192,2163,1,0,0:0:0:0:
448,192,2163,1,0,0:0:0:0:
64,192,2641,1,0,0:0:0:0:
320,192,2641,1,0,0:0:0:0:
448,192,2641,1,0,0:0:0:0:
192,192,2961,1,0,0:0:0:0:
320,192,3280,1,0,0:0:0:0:
64,192,3439,1,0,0:0:0:0:
320,192,3758,1,0,0:0:0:0:
448,192,3918,128,0,4237:0:0:0:0:
64,192,4237,1,0,0:0:0:0:
192,192,4237,1,0,0:0:0:0:
320,192,4237,1,0,0:0:0:0:
192,192,4716,1,0,0:0:0:0:
320,192,4716,1,0,0:0:0:0:
448,192,4716,1,0,0:0:0:0:
64,192,5195,1,0,0:0:0:0:
320,192,5195,1,0,0:0:0:0:
448,192,5195,1,0,0:0:0:0:
192,192,5514,1,0,0:0:0:0:
64,192,5753,1,0,0:0:0:0:
192,192,5993,1,0,0:0:0:0:
448,192,6152,1,0,0:0:0:0:
192,192,6391,128,0,6790:0:0:0:0:
320,192,6790,1,0,0:0:0:0:
64,192,6790,1,0,0:0:0:0:
448,192,6790,1,0,0:0:0:0:
64,192,7269,1,0,0:0:0:0:
192,192,7269,1,0,0:0:0:0:
448,192,7269,1,0,0:0:0:0:
192,192,7748,1,0,0:0:0:0:
320,192,7748,1,0,0:0:0:0:
448,192,7748,1,0,0:0:0:0:
64,192,8067,128,0,8705:0:0:0:0:
320,192,8067,1,0,0:0:0:0:
192,192,8705,128,0,9344:0:0:0:0:
448,192,8705,1,0,0:0:0:0:
448,192,9344,128,0,9982:0:0:0:0:
64,192,9344,1,0,0:0:0:0:
64,192,9982,1,0,0:0:0:0:
320,192,9982,1,0,0:0:0:0:
64,192,10461,1,0,0:0:0:0:
192,192,10540,1,0,0:0:0:0:
320,192,10620,128,0,12056:0:0:0:0:
64,192,11258,128,0,12055:0:0:0:0:
192,192,12055,128,8,12215:0:0:0:0:
448,192,12055,128,8,12215:0:0:0:0:
64,192,12215,128,8,12375:0:0:0:0:
320,192,12215,128,8,12375:0:0:0:0:
192,192,12375,128,8,12534:0:0:0:0:
448,192,12375,128,8,12534:0:0:0:0:
64,192,12534,128,8,12694:0:0:0:0:
320,192,12534,128,8,12694:0:0:0:0:
192,192,12694,128,8,13172:0:0:0:0:
448,192,12694,128,8,13172:0:0:0:0:
64,192,13173,1,0,0:0:0:0:
320,192,13173,1,0,0:0:0:0:
320,192,13333,1,0,0:0:0:0:
192,192,13333,1,0,0:0:0:0:
192,192,13493,1,0,0:0:0:0:
448,192,13493,1,0,0:0:0:0:
192,192,13652,1,0,0:0:0:0:
320,192,13652,1,0,0:0:0:0:
64,192,13812,1,0,0:0:0:0:
320,192,13812,1,0,0:0:0:0:
192,192,13971,1,0,0:0:0:0:
448,192,13971,1,0,0:0:0:0:
320,192,14131,1,0,0:0:0:0:
64,192,14131,1,0,0:0:0:0:
192,192,14211,1,0,0:0:0:0:
64,192,14290,1,0,0:0:0:0:
192,192,14370,1,0,0:0:0:0:
320,192,14450,1,0,0:0:0:0:
448,192,14450,1,0,0:0:0:0:
192,192,14610,1,0,0:0:0:0:
320,192,14610,1,0,0:0:0:0:
64,192,14769,1,0,0:0:0:0:
320,192,14769,1,0,0:0:0:0:
192,192,14929,1,0,0:0:0:0:
448,192,14929,1,0,0:0:0:0:
192,192,15088,1,0,0:0:0:0:
320,192,15088,1,0,0:0:0:0:
64,192,15248,1,0,0:0:0:0:
320,192,15248,1,0,0:0:0:0:
192,192,15407,1,0,0:0:0:0:
448,192,15407,1,0,0:0:0:0:
320,192,15487,1,0,0:0:0:0:
448,192,15567,1,0,0:0:0:0:
320,192,15647,1,0,0:0:0:0:
64,192,15727,1,0,0:0:0:0:
192,192,15727,1,0,0:0:0:0:
64,192,15886,1,0,0:0:0:0:
448,192,15886,1,0,0:0:0:0:
192,192,16046,1,0,0:0:0:0:
320,192,16046,1,0,0:0:0:0:
64,192,16365,1,0,0:0:0:0:
320,192,16365,1,0,0:0:0:0:
192,192,16524,1,0,0:0:0:0:
448,192,16524,1,0,0:0:0:0:
64,192,16684,1,0,0:0:0:0:
448,192,16764,1,0,0:0:0:0:
64,192,16844,1,0,0:0:0:0:
448,192,16923,1,0,0:0:0:0:
192,192,17003,1,0,0:0:0:0:
320,192,17003,1,0,0:0:0:0:
64,192,17163,1,0,0:0:0:0:
320,192,17163,1,0,0:0:0:0:
192,192,17322,1,0,0:0:0:0:
320,192,17322,1,0,0:0:0:0:
192,192,17482,1,0,0:0:0:0:
448,192,17482,1,0,0:0:0:0:
320,192,17641,1,0,0:0:0:0:
64,192,17641,128,0,17801:0:0:0:0:
192,192,17801,1,0,0:0:0:0:
64,192,17961,128,0,18120:0:0:0:0:
320,192,17961,1,0,0:0:0:0:
192,192,18120,1,0,0:0:0:0:
448,192,18280,1,0,0:0:0:0:
320,192,18360,1,0,0:0:0:0:
448,192,18439,1,0,0:0:0:0:
320,192,18519,1,0,0:0:0:0:
192,192,18599,1,0,0:0:0:0:
64,192,18599,1,0,0:0:0:0:
448,192,18918,1,0,0:0:0:0:
320,192,18918,1,0,0:0:0:0:
448,192,19157,1,0,0:0:0:0:
320,192,19157,1,0,0:0:0:0:
192,192,19237,1,0,0:0:0:0:
64,192,19237,1,0,0:0:0:0:
320,192,19397,1,0,0:0:0:0:
448,192,19397,1,0,0:0:0:0:
192,192,19556,1,0,0:0:0:0:
448,192,19636,1,0,0:0:0:0:
192,192,19716,1,0,0:0:0:0:
448,192,19796,1,0,0:0:0:0:
192,192,19875,1,0,0:0:0:0:
64,192,19875,1,0,0:0:0:0:
320,192,20035,1,0,0:0:0:0:
448,192,20035,1,0,0:0:0:0:
192,192,20195,1,0,0:0:0:0:
64,192,20195,1,0,0:0:0:0:
320,192,20354,1,0,0:0:0:0:
192,192,20514,1,0,0:0:0:0:
64,192,20673,1,0,0:0:0:0:
192,192,20833,1,0,0:0:0:0:
448,192,20833,1,0,0:0:0:0:
192,192,20993,1,0,0:0:0:0:
448,192,20993,1,0,0:0:0:0:
64,192,21152,1,0,0:0:0:0:
320,192,21152,1,0,0:0:0:0:
192,192,21232,1,0,0:0:0:0:
64,192,21312,1,0,0:0:0:0:
192,192,21391,1,0,0:0:0:0:
320,192,21471,1,0,0:0:0:0:
448,192,21471,1,0,0:0:0:0:
192,192,21631,1,0,0:0:0:0:
320,192,21631,1,0,0:0:0:0:
64,192,21790,1,0,0:0:0:0:
192,192,21790,1,0,0:0:0:0:
192,192,21950,1,0,0:0:0:0:
320,192,21950,1,0,0:0:0:0:
448,192,22110,1,0,0:0:0:0:
64,192,22110,1,0,0:0:0:0:
192,192,22269,1,0,0:0:0:0:
320,192,22269,1,0,0:0:0:0:
64,192,22429,1,0,0:0:0:0:
448,192,22429,1,0,0:0:0:0:
192,192,22588,1,0,0:0:0:0:
320,192,22588,1,0,0:0:0:0:
64,192,22748,128,0,23067:0:0:0:0:
320,192,22748,1,0,0:0:0:0:
192,192,23067,128,0,23386:0:0:0:0:
448,192,23067,1,0,0:0:0:0:
448,192,23386,128,0,23546:0:0:0:0:
320,192,23546,128,0,23705:0:0:0:0:
192,192,23705,128,0,25939:0:0:0:0:
64,192,24024,1,0,0:0:0:0:
448,192,24104,1,0,0:0:0:0:
320,192,24184,1,0,0:0:0:0:
64,192,24264,1,0,0:0:0:0:
448,192,24344,1,0,0:0:0:0:
320,192,24423,1,0,0:0:0:0:
64,192,24503,1,0,0:0:0:0:
448,192,24583,1,0,0:0:0:0:
320,192,24663,1,0,0:0:0:0:
64,192,24822,1,0,0:0:0:0:
320,192,24982,1,0,0:0:0:0:
64,192,25141,1,0,0:0:0:0:
320,192,25301,1,0,0:0:0:0:
448,192,25301,1,0,0:0:0:0:
320,192,25461,1,0,0:0:0:0:
448,192,25461,1,0,0:0:0:0:
64,192,25620,1,0,0:0:0:0:
448,192,25620,1,0,0:0:0:0:
64,192,25939,128,0,26099:0:0:0:0:
448,192,26099,128,0,26258:0:0:0:0:
320,192,26258,128,0,28493:0:0:0:0:
64,192,26578,1,0,0:0:0:0:
448,192,26657,1,0,0:0:0:0:
192,192,26737,1,0,0:0:0:0:
64,192,26817,1,0,0:0:0:0:
448,192,26897,1,0,0:0:0:0:
192,192,26977,1,0,0:0:0:0:
64,192,27056,1,0,0:0:0:0:
448,192,27136,1,0,0:0:0:0:
192,192,27216,1,0,0:0:0:0:
448,192,27375,1,0,0:0:0:0:
192,192,27535,1,0,0:0:0:0:
448,192,27695,1,0,0:0:0:0:
64,192,27854,128,0,28173:0:0:0:0:
192,192,28173,1,0,0:0:0:0:
448,192,28173,1,0,0:0:0:0:
64,192,28333,1,0,0:0:0:0:
192,192,28333,1,0,0:0:0:0:
448,192,28493,128,0,29131:0:0:0:0:
64,192,28493,1,0,0:0:0:0:
192,192,28652,1,0,0:0:0:0:
64,192,28812,1,0,0:0:0:0:
192,192,28971,1,0,0:0:0:0:
320,192,29131,128,0,29769:0:0:0:0:
64,192,29131,1,0,0:0:0:0:
192,192,29290,1,0,0:0:0:0:
448,192,29450,1,0,0:0:0:0:
64,192,29610,1,0,0:0:0:0:
192,192,29769,128,0,30407:0:0:0:0:
448,192,29769,1,0,0:0:0:0:
64,192,29929,1,0,0:0:0:0:
320,192,30088,1,0,0:0:0:0:
448,192,30248,1,0,0:0:0:0:
64,192,30407,128,0,31046:0:0:0:0:
320,192,30407,1,0,0:0:0:0:
448,192,30567,1,0,0:0:0:0:
320,192,30727,1,0,0:0:0:0:
448,192,30886,1,0,0:0:0:0:
192,192,31046,1,0,0:0:0:0:
320,192,31046,1,0,0:0:0:0:
64,192,31205,1,0,0:0:0:0:
448,192,31205,1,0,0:0:0:0:
192,192,31365,1,0,0:0:0:0:
320,192,31365,1,0,0:0:0:0:
64,192,31524,1,0,0:0:0:0:
448,192,31524,1,0,0:0:0:0:
192,192,31684,1,0,0:0:0:0:
320,192,31764,1,0,0:0:0:0:
448,192,31844,1,0,0:0:0:0:
64,192,32003,1,0,0:0:0:0:
320,192,32003,1,0,0:0:0:0:
320,192,32163,1,0,0:0:0:0:
64,192,32163,1,0,0:0:0:0:
192,192,32322,1,0,0:0:0:0:
448,192,32402,1,0,0:0:0:0:
320,192,32482,1,0,0:0:0:0:
64,192,32562,1,0,0:0:0:0:
192,192,32641,1,0,0:0:0:0:
448,192,32721,1,0,0:0:0:0:
320,192,32801,1,0,0:0:0:0:
64,192,32881,1,0,0:0:0:0:
448,192,32961,128,0,33280:0:0:0:0:
192,192,32961,1,0,0:0:0:0:
320,192,33280,1,0,0:0:0:0:
64,192,33280,128,0,33599:0:0:0:0:
192,192,33599,1,0,0:0:0:0:
448,192,33599,1,0,0:0:0:0:
64,192,33918,1,0,0:0:0:0:
448,192,33918,1,0,0:0:0:0:
64,192,34237,1,0,0:0:0:0:
320,192,34237,1,0,0:0:0:0:
192,192,34397,1,0,0:0:0:0:
320,192,34477,1,0,0:0:0:0:
448,192,34556,1,0,0:0:0:0:
448,192,34716,1,0,0:0:0:0:
192,192,34875,1,0,0:0:0:0:
64,192,35035,1,0,0:0:0:0:
192,192,35354,1,0,0:0:0:0:
448,192,35354,1,0,0:0:0:0:
320,192,35673,1,0,0:0:0:0:
448,192,35673,1,0,0:0:0:0:
320,192,35833,1,0,0:0:0:0:
448,192,35833,1,0,0:0:0:0:
192,192,35913,1,0,0:0:0:0:
320,192,35993,1,0,0:0:0:0:
448,192,35993,1,0,0:0:0:0:
64,192,36152,1,0,0:0:0:0:
192,192,36312,1,0,0:0:0:0:
320,192,36391,1,0,0:0:0:0:
192,192,36471,1,0,0:0:0:0:
448,192,36631,1,0,0:0:0:0:
320,192,36711,1,0,0:0:0:0:
448,192,36790,1,0,0:0:0:0:
64,192,36950,1,0,0:0:0:0:
192,192,37030,1,0,0:0:0:0:
64,192,37110,1,0,0:0:0:0:
320,192,37269,1,0,0:0:0:0:
192,192,37349,1,0,0:0:0:0:
320,192,37429,1,0,0:0:0:0:
192,192,37588,1,0,0:0:0:0:
448,192,37748,1,0,0:0:0:0:
64,192,37907,1,0,0:0:0:0:
192,192,38067,1,0,0:0:0:0:
448,192,38067,1,0,0:0:0:0:
192,192,38227,1,0,0:0:0:0:
448,192,38227,1,0,0:0:0:0:
192,192,38386,1,0,0:0:0:0:
448,192,38386,1,0,0:0:0:0:
192,192,38546,1,0,0:0:0:0:
448,192,38546,1,0,0:0:0:0:
64,192,38705,1,0,0:0:0:0:
192,192,38705,1,0,0:0:0:0:
64,192,39024,1,0,0:0:0:0:
448,192,39024,1,0,0:0:0:0:
320,192,39344,1,0,0:0:0:0:
192,192,39503,1,0,0:0:0:0:
448,192,39822,1,0,0:0:0:0:
320,192,39902,1,0,0:0:0:0:
192,192,39982,1,0,0:0:0:0:
64,192,40301,1,0,0:0:0:0:
320,192,40301,1,0,0:0:0:0:
64,192,40461,1,0,0:0:0:0:
448,192,40461,1,0,0:0:0:0:
192,192,40780,1,0,0:0:0:0:
192,192,40939,1,0,0:0:0:0:
320,192,41099,1,0,0:0:0:0:
448,192,41179,1,0,0:0:0:0:
64,192,41258,1,0,0:0:0:0:
448,192,41578,1,0,0:0:0:0:
192,192,41578,128,0,42216:0:0:0:0:
320,192,41897,1,0,0:0:0:0:
320,192,42056,1,0,0:0:0:0:
320,192,42216,1,0,0:0:0:0:
64,192,42216,128,0,42695:0:0:0:0:
448,192,42216,1,0,0:0:0:0:
448,192,42695,1,0,0:0:0:0:
192,192,42695,1,0,0:0:0:0:
192,192,43014,1,0,0:0:0:0:
320,192,43014,1,0,0:0:0:0:
448,192,43173,128,0,43493:0:0:0:0:
64,192,43173,128,0,43493:0:0:0:0:
192,192,43493,1,0,0:0:0:0:
320,192,43493,1,0,0:0:0:0:
64,192,43812,1,0,0:0:0:0:
320,192,43812,1,0,0:0:0:0:
192,192,44131,1,0,0:0:0:0:
448,192,44450,128,0,44610:0:0:0:0:
320,192,44610,1,0,0:0:0:0:
192,192,44689,1,0,0:0:0:0:
320,192,44769,1,0,0:0:0:0:
64,192,44929,1,0,0:0:0:0:
192,192,45008,1,0,0:0:0:0:
64,192,45088,1,0,0:0:0:0:
320,192,45248,1,0,0:0:0:0:
448,192,45248,1,0,0:0:0:0:
192,192,45567,1,0,0:0:0:0:
64,192,45567,1,0,0:0:0:0:
448,192,45886,1,0,0:0:0:0:
320,192,46046,1,0,0:0:0:0:
64,192,46046,1,0,0:0:0:0:
192,192,46205,1,0,0:0:0:0:
64,192,46365,1,0,0:0:0:0:
448,192,46365,1,0,0:0:0:0:
64,192,46524,1,0,0:0:0:0:
320,192,46524,1,0,0:0:0:0:
192,192,46684,1,0,0:0:0:0:
320,192,46684,1,0,0:0:0:0:
64,192,46764,1,0,0:0:0:0:
192,192,46844,1,0,0:0:0:0:
320,192,47003,1,0,0:0:0:0:
448,192,47003,1,0,0:0:0:0:
192,192,47163,1,0,0:0:0:0:
448,192,47163,1,0,0:0:0:0:
64,192,47322,1,0,0:0:0:0:
320,192,47322,1,0,0:0:0:0:
192,192,47482,1,0,0:0:0:0:
448,192,47482,1,0,0:0:0:0:
320,192,47562,1,0,0:0:0:0:
448,192,47641,1,0,0:0:0:0:
320,192,47801,1,0,0:0:0:0:
64,192,47801,1,0,0:0:0:0:
64,192,48120,1,0,0:0:0:0:
320,192,48120,1,0,0:0:0:0:
192,192,48280,1,0,0:0:0:0:
448,192,48280,1,0,0:0:0:0:
64,192,48599,1,0,0:0:0:0:
320,192,48599,1,0,0:0:0:0:
448,192,48599,1,0,0:0:0:0:
192,192,48918,1,0,0:0:0:0:
448,192,48998,1,0,0:0:0:0:
192,192,49078,1,0,0:0:0:0:
448,192,49157,1,0,0:0:0:0:
64,192,49237,128,0,49716:0:0:0:0:
320,192,49716,1,0,0:0:0:0:
448,192,49716,1,0,0:0:0:0:
192,192,49875,128,0,50514:0:0:0:0:
320,192,50195,1,0,0:0:0:0:
448,192,50274,1,0,0:0:0:0:
320,192,50354,1,0,0:0:0:0:
448,192,50434,1,0,0:0:0:0:
64,192,50514,1,0,0:0:0:0:
320,192,50673,1,0,0:0:0:0:
448,192,50833,1,0,0:0:0:0:
192,192,50833,1,0,0:0:0:0:
64,192,50993,1,0,0:0:0:0:
192,192,51152,1,0,0:0:0:0:
448,192,51232,1,0,0:0:0:0:
192,192,51312,1,0,0:0:0:0:
448,192,51391,1,0,0:0:0:0:
320,192,51471,1,0,0:0:0:0:
64,192,51471,1,0,0:0:0:0:
64,192,51631,1,0,0:0:0:0:
320,192,51631,1,0,0:0:0:0:
192,192,51790,1,0,0:0:0:0:
448,192,51790,128,0,52429:0:0:0:0:
64,192,52429,1,0,0:0:0:0:
320,192,52429,1,0,0:0:0:0:
192,192,52429,128,0,52907:0:0:0:0:
320,192,52907,1,0,0:0:0:0:
64,192,52907,128,0,53227:0:0:0:0:
448,192,52907,128,0,53227:0:0:0:0:
192,192,53227,128,0,53386:0:0:0:0:
320,192,53227,128,0,53386:0:0:0:0:
64,192,53386,1,0,0:0:0:0:
448,192,53386,1,0,0:0:0:0:
448,192,53705,1,0,0:0:0:0:
320,192,53785,1,0,0:0:0:0:
192,192,53865,1,0,0:0:0:0:
64,192,53945,1,0,0:0:0:0:
448,192,54024,1,0,0:0:0:0:
64,192,54184,1,0,0:0:0:0:
320,192,54344,1,0,0:0:0:0:
192,192,54503,1,0,0:0:0:0:
64,192,54663,1,0,0:0:0:0:
320,192,54663,128,0,54822:0:0:0:0:
192,192,54743,1,0,0:0:0:0:
64,192,54822,1,0,0:0:0:0:
320,192,54982,1,0,0:0:0:0:
448,192,54982,128,0,55141:0:0:0:0:
192,192,55062,1,0,0:0:0:0:
320,192,55141,1,0,0:0:0:0:
64,192,55301,1,0,0:0:0:0:
192,192,55381,1,0,0:0:0:0:
320,192,55461,1,0,0:0:0:0:
448,192,55620,1,0,0:0:0:0:
192,192,55780,1,0,0:0:0:0:
320,192,55780,1,0,0:0:0:0:
64,192,55860,1,0,0:0:0:0:
192,192,55939,1,0,0:0:0:0:
64,192,56019,1,0,0:0:0:0:
448,192,56099,1,0,0:0:0:0:
192,192,56258,1,0,0:0:0:0:
64,192,56418,1,0,0:0:0:0:
448,192,56578,1,0,0:0:0:0:
320,192,56578,1,0,0:0:0:0:
192,192,56737,1,0,0:0:0:0:
448,192,56737,1,0,0:0:0:0:
64,192,56897,1,0,0:0:0:0:
448,192,56897,1,0,0:0:0:0:
192,192,57056,1,0,0:0:0:0:
448,192,57056,1,0,0:0:0:0:
320,192,57216,1,0,0:0:0:0:
192,192,57296,1,0,0:0:0:0:
64,192,57375,1,0,0:0:0:0:
192,192,57535,1,0,0:0:0:0:
64,192,57695,1,0,0:0:0:0:
448,192,57695,1,0,0:0:0:0:
192,192,57854,1,0,0:0:0:0:
448,192,57854,1,0,0:0:0:0:
320,192,58014,1,0,0:0:0:0:
64,192,58014,1,0,0:0:0:0:
448,192,58173,1,0,0:0:0:0:
192,192,58173,1,0,0:0:0:0:
320,192,58333,1,0,0:0:0:0:
448,192,58333,1,0,0:0:0:0:
64,192,58493,128,0,58971:0:0:0:0:
192,192,58493,1,0,0:0:0:0:
320,192,58811,1,8,0:0:0:0:
448,192,58811,1,0,0:0:0:0:
192,192,58811,1,2,0:0:0:0:
192,192,58970,1,0,0:0:0:0:
64,192,59050,1,0,0:0:0:0:
192,192,59130,1,0,0:0:0:0:
448,192,59131,128,0,59450:0:0:0:0:
320,192,59211,1,0,0:0:0:0:
192,192,59289,1,0,0:0:0:0:
320,192,59370,1,0,0:0:0:0:
192,192,59450,1,0,0:0:0:0:
64,192,59610,1,0,0:0:0:0:
448,192,59769,1,0,0:0:0:0:
320,192,59809,1,0,0:0:0:0:
192,192,59849,1,0,0:0:0:0:
64,192,59889,1,0,0:0:0:0:
448,192,60088,1,0,0:0:0:0:
320,192,60168,1,0,0:0:0:0:
448,192,60248,1,0,0:0:0:0:
64,192,60407,1,0,0:0:0:0:
320,192,60407,1,0,0:0:0:0:
192,192,60567,1,0,0:0:0:0:
64,192,60727,1,0,0:0:0:0:
320,192,60727,1,0,0:0:0:0:
448,192,60886,1,0,0:0:0:0:
192,192,61046,1,0,0:0:0:0:
320,192,61046,1,0,0:0:0:0:
192,192,61205,1,0,0:0:0:0:
320,192,61205,1,0,0:0:0:0:
64,192,61365,1,0,0:0:0:0:
448,192,61365,1,0,0:0:0:0:
320,192,61524,1,0,0:0:0:0:
192,192,61604,1,0,0:0:0:0:
64,192,61684,1,0,0:0:0:0:
448,192,61844,128,0,62083:0:0:0:0:
192,192,61844,1,0,0:0:0:0:
320,192,62083,128,0,62322:0:0:0:0:
64,192,62083,1,0,0:0:0:0:
448,192,62322,128,0,62562:0:0:0:0:
192,192,62322,1,0,0:0:0:0:
320,192,62562,128,0,62801:0:0:0:0:
64,192,62562,1,0,0:0:0:0:
192,192,62801,1,0,0:0:0:0:
448,192,62801,1,0,0:0:0:0:
64,192,63120,128,0,63360:0:0:0:0:
320,192,63120,1,0,0:0:0:0:
192,192,63360,128,0,63599:0:0:0:0:
448,192,63360,1,0,0:0:0:0:
64,192,63599,128,0,63838:0:0:0:0:
320,192,63599,1,0,0:0:0:0:
192,192,63838,128,0,64078:0:0:0:0:
448,192,63838,1,0,0:0:0:0:
64,192,64078,1,0,0:0:0:0:
320,192,64078,1,0,0:0:0:0:
192,192,64237,1,0,0:0:0:0:
448,192,64237,1,0,0:0:0:0:
320,192,64397,1,0,0:0:0:0:
192,192,64556,1,0,0:0:0:0:
448,192,64556,1,0,0:0:0:0:
64,192,64716,1,0,0:0:0:0:
192,192,64875,128,0,65035:0:0:0:0:
448,192,64875,1,0,0:0:0:0:
320,192,64955,1,0,0:0:0:0:
448,192,65035,1,0,0:0:0:0:
64,192,65195,128,0,65354:0:0:0:0:
192,192,65195,1,0,0:0:0:0:
320,192,65274,1,0,0:0:0:0:
192,192,65354,1,0,0:0:0:0:
448,192,65514,1,0,0:0:0:0:
320,192,65594,1,0,0:0:0:0:
192,192,65673,1,0,0:0:0:0:
64,192,65833,1,0,0:0:0:0:
192,192,65993,1,0,0:0:0:0:
448,192,65993,128,0,66312:0:0:0:0:
320,192,66072,1,0,0:0:0:0:
192,192,66152,1,0,0:0:0:0:
320,192,66232,1,0,0:0:0:0:
64,192,66312,1,0,0:0:0:0:
192,192,66471,1,0,0:0:0:0:
64,192,66631,1,0,0:0:0:0:
192,192,66790,1,0,0:0:0:0:
448,192,66790,1,0,0:0:0:0:
320,192,66950,1,0,0:0:0:0:
192,192,66950,1,0,0:0:0:0:
64,192,67110,1,0,0:0:0:0:
320,192,67110,1,0,0:0:0:0:
192,192,67269,1,0,0:0:0:0:
448,192,67269,1,0,0:0:0:0:
192,192,67508,1,0,0:0:0:0:
320,192,67588,1,0,0:0:0:0:
448,192,67668,1,0,0:0:0:0:
64,192,67748,1,0,0:0:0:0:
448,192,67907,1,0,0:0:0:0:
320,192,67987,1,0,0:0:0:0:
192,192,68067,1,0,0:0:0:0:
64,192,68067,1,0,0:0:0:0:
192,192,68227,1,0,0:0:0:0:
320,192,68227,1,0,0:0:0:0:
64,192,68386,1,0,0:0:0:0:
448,192,68386,1,0,0:0:0:0:
192,192,68546,1,0,0:0:0:0:
320,192,68546,1,0,0:0:0:0:
448,192,68705,128,0,69184:0:0:0:0:
320,192,68705,1,0,0:0:0:0:
320,192,69024,1,2,0:0:0:0:
192,192,69024,1,8,0:0:0:0:
64,192,69024,1,0,0:0:0:0:
320,192,69183,1,0,0:0:0:0:
448,192,69263,1,0,0:0:0:0:
64,192,69343,1,0,0:0:0:0:
192,192,69383,1,0,0:0:0:0:
320,192,69422,1,0,0:0:0:0:
448,192,69462,1,0,0:0:0:0:
64,192,69502,1,0,0:0:0:0:
192,192,69542,1,0,0:0:0:0:
320,192,69582,1,0,0:0:0:0:
448,192,69622,1,0,0:0:0:0:
64,192,69662,1,0,0:0:0:0:
320,192,69822,1,0,0:0:0:0:
192,192,69982,1,0,0:0:0:0:
448,192,69982,1,0,0:0:0:0:
64,192,70141,128,0,70461:0:0:0:0:
192,192,70301,1,2,0:0:0:0:
320,192,70301,1,8,0:0:0:0:
448,192,70301,1,8,0:0:0:0:
192,192,70460,1,0,0:0:0:0:
64,192,70539,1,0,0:0:0:0:
448,192,70619,1,0,0:0:0:0:
320,192,70659,1,0,0:0:0:0:
192,192,70699,1,0,0:0:0:0:
64,192,70739,1,0,0:0:0:0:
448,192,70779,1,0,0:0:0:0:
320,192,70819,1,0,0:0:0:0:
192,192,70859,1,0,0:0:0:0:
64,192,70899,1,0,0:0:0:0:
448,192,70938,1,0,0:0:0:0:
192,192,71099,1,0,0:0:0:0:
64,192,71258,1,0,0:0:0:0:
320,192,71258,1,0,0:0:0:0:
448,192,71418,128,0,71737:0:0:0:0:
320,192,71578,1,2,0:0:0:0:
192,192,71578,1,8,0:0:0:0:
64,192,71578,1,0,0:0:0:0:
320,192,71736,1,0,0:0:0:0:
192,192,71816,1,0,0:0:0:0:
448,192,71896,1,0,0:0:0:0:
64,192,71897,1,0,0:0:0:0:
64,192,72056,1,0,0:0:0:0:
448,192,72056,1,0,0:0:0:0:
64,192,72216,1,0,0:0:0:0:
448,192,72216,1,0,0:0:0:0:
64,192,72375,1,0,0:0:0:0:
448,192,72375,1,0,0:0:0:0:
192,192,72535,1,0,0:0:0:0:
320,192,72535,1,0,0:0:0:0:
192,192,72695,1,0,0:0:0:0:
320,192,72695,1,0,0:0:0:0:
192,192,72854,1,0,0:0:0:0:
320,192,72854,1,0,0:0:0:0:
192,192,73014,1,0,0:0:0:0:
320,192,73014,1,0,0:0:0:0:
448,192,73333,1,0,0:0:0:0:
192,192,73333,1,0,0:0:0:0:
320,192,73652,1,0,0:0:0:0:
64,192,73812,1,0,0:0:0:0:
192,192,73971,1,0,0:0:0:0:
320,192,74131,1,0,0:0:0:0:
448,192,74290,1,0,0:0:0:0:
64,192,74450,1,0,0:0:0:0:
320,192,74450,1,8,0:0:0:0:
192,192,74530,1,8,0:0:0:0:
448,192,74530,1,0,0:0:0:0:
64,192,74610,1,0,0:0:0:0:
320,192,74610,1,8,0:0:0:0:
192,192,74689,1,8,0:0:0:0:
448,192,74689,1,0,0:0:0:0:
320,192,74769,1,8,0:0:0:0:
64,192,74769,1,0,0:0:0:0:
448,192,74929,1,0,0:0:0:0:
192,192,74929,1,8,0:0:0:0:
320,192,75008,1,8,0:0:0:0:
64,192,75008,1,0,0:0:0:0:
448,192,75088,1,0,0:0:0:0:
192,192,75088,1,8,0:0:0:0:
320,192,75168,1,8,0:0:0:0:
64,192,75168,1,0,0:0:0:0:
192,192,75248,1,8,0:0:0:0:
448,192,75248,1,0,0:0:0:0:
64,192,75407,1,0,0:0:0:0:
192,192,75407,1,0,0:0:0:0:
320,192,75407,1,0,0:0:0:0:
448,192,75727,128,0,75966:0:0:0:0:
64,192,75727,1,0,0:0:0:0:
320,192,75966,128,0,76205:0:0:0:0:
192,192,75966,1,0,0:0:0:0:
192,192,76205,128,0,76445:0:0:0:0:
448,192,76205,1,0,0:0:0:0:
64,192,76445,128,0,76684:0:0:0:0:
320,192,76445,1,0,0:0:0:0:
192,192,76684,1,0,0:0:0:0:
448,192,76684,1,0,0:0:0:0:
320,192,76844,1,0,0:0:0:0:
64,192,76844,1,0,0:0:0:0:
320,192,77003,1,0,0:0:0:0:
448,192,77003,1,0,0:0:0:0:
192,192,77083,1,0,0:0:0:0:
64,192,77083,1,0,0:0:0:0:
320,192,77163,1,0,0:0:0:0:
448,192,77163,1,0,0:0:0:0:
64,192,77322,1,0,0:0:0:0:
448,192,77322,1,0,0:0:0:0:
192,192,77482,1,0,0:0:0:0:
320,192,77562,1,0,0:0:0:0:
192,192,77641,1,0,0:0:0:0:
320,192,77721,1,0,0:0:0:0:
64,192,77801,1,0,0:0:0:0:
448,192,77801,1,0,0:0:0:0:
320,192,77961,1,0,0:0:0:0:
448,192,77961,1,0,0:0:0:0:
192,192,78040,1,0,0:0:0:0:
64,192,78040,1,0,0:0:0:0:
320,192,78120,1,0,0:0:0:0:
448,192,78120,1,0,0:0:0:0:
64,192,78280,128,0,78918:0:0:0:0:
192,192,78280,1,0,0:0:0:0:
320,192,78439,1,0,0:0:0:0:
448,192,78599,1,0,0:0:0:0:
320,192,78758,1,0,0:0:0:0:
192,192,78918,1,0,0:0:0:0:
448,192,78918,128,0,79237:0:0:0:0:
320,192,78998,1,0,0:0:0:0:
192,192,79078,1,0,0:0:0:0:
320,192,79157,1,0,0:0:0:0:
64,192,79237,1,0,0:0:0:0:
448,192,79556,1,0,0:0:0:0:
64,192,79556,1,8,0:0:0:0:
192,192,79636,1,0,0:0:0:0:
320,192,79636,1,8,0:0:0:0:
64,192,79716,1,8,0:0:0:0:
448,192,79716,1,0,0:0:0:0:
192,192,79796,1,0,0:0:0:0:
320,192,79796,1,8,0:0:0:0:
64,192,79875,1,8,0:0:0:0:
448,192,79875,1,0,0:0:0:0:
192,192,80035,1,0,0:0:0:0:
320,192,80035,1,8,0:0:0:0:
64,192,80115,1,8,0:0:0:0:
448,192,80115,1,0,0:0:0:0:
192,192,80195,1,0,0:0:0:0:
320,192,80195,1,8,0:0:0:0:
64,192,80274,1,8,0:0:0:0:
448,192,80274,1,0,0:0:0:0:
192,192,80354,1,0,0:0:0:0:
320,192,80354,1,8,0:0:0:0:
192,192,80514,1,0,0:0:0:0:
448,192,80514,1,0,0:0:0:0:
64,192,80514,1,0,0:0:0:0:
64,192,80833,128,0,81072:0:0:0:0:
448,192,80833,1,0,0:0:0:0:
320,192,81071,1,0,0:0:0:0:
192,192,81072,128,0,81312:0:0:0:0:
320,192,81312,128,0,81551:0:0:0:0:
64,192,81312,1,0,0:0:0:0:
448,192,81551,128,0,81790:0:0:0:0:
192,192,81551,1,0,0:0:0:0:
64,192,81790,1,0,0:0:0:0:
320,192,81790,1,0,0:0:0:0:
192,192,81950,1,0,0:0:0:0:
448,192,81950,1,0,0:0:0:0:
192,192,82110,1,0,0:0:0:0:
64,192,82110,1,0,0:0:0:0:
320,192,82189,1,0,0:0:0:0:
448,192,82189,1,0,0:0:0:0:
192,192,82269,1,0,0:0:0:0:
64,192,82269,1,0,0:0:0:0:
448,192,82429,1,0,0:0:0:0:
320,192,82469,1,0,0:0:0:0:
192,192,82508,1,0,0:0:0:0:
64,192,82548,1,0,0:0:0:0:
192,192,82748,1,0,0:0:0:0:
64,192,82748,1,0,0:0:0:0:
320,192,82907,1,0,0:0:0:0:
448,192,82907,1,0,0:0:0:0:
64,192,83067,1,0,0:0:0:0:
448,192,83147,1,0,0:0:0:0:
64,192,83227,1,0,0:0:0:0:
448,192,83306,1,0,0:0:0:0:
192,192,83386,1,0,0:0:0:0:
320,192,83386,1,0,0:0:0:0:
320,192,83625,1,0,0:0:0:0:
64,192,83625,1,0,0:0:0:0:
448,192,83625,1,0,0:0:0:0:
64,192,83865,128,0,84583:0:0:0:0:
320,192,83865,128,0,84583:0:0:0:0:
192,192,83865,128,0,84583:0:0:0:0:
448,192,84583,1,0,0:0:0:0:
320,192,84663,1,0,0:0:0:0:
192,192,84743,1,0,0:0:0:0:
64,192,84822,1,0,0:0:0:0:
64,192,85141,1,0,0:0:0:0:
448,192,85301,1,0,0:0:0:0:
320,192,85540,1,0,0:0:0:0:
192,192,85780,1,0,0:0:0:0:
320,192,85939,1,0,0:0:0:0:
64,192,85939,1,0,0:0:0:0:
192,192,86099,1,0,0:0:0:0:
448,192,86258,1,0,0:0:0:0:
320,192,86338,1,0,0:0:0:0:
64,192,86578,128,0,86897:0:0:0:0:
320,192,86897,1,0,0:0:0:0:
448,192,86977,1,0,0:0:0:0:
64,192,87216,1,0,0:0:0:0:
320,192,87216,1,0,0:0:0:0:
192,192,87375,1,0,0:0:0:0:
320,192,87455,1,0,0:0:0:0:
448,192,87695,1,0,0:0:0:0:
64,192,87854,1,0,0:0:0:0:
320,192,87854,1,0,0:0:0:0:
192,192,88173,1,0,0:0:0:0:
448,192,88173,1,0,0:0:0:0:
448,192,88493,128,0,88732:0:0:0:0:
320,192,88732,128,0,89450:0:0:0:0:
64,192,88971,128,0,89211:0:0:0:0:
192,192,89211,128,0,89450:0:0:0:0:
64,192,89450,128,0,89769:0:0:0:0:
448,192,89450,128,0,89769:0:0:0:0:
192,192,89769,1,0,0:0:0:0:
320,192,89769,1,0,0:0:0:0:
320,192,89929,1,0,0:0:0:0:
192,192,90088,1,0,0:0:0:0:
64,192,90168,1,0,0:0:0:0:
192,192,90248,1,0,0:0:0:0:
448,192,90407,1,0,0:0:0:0:
320,192,90567,1,0,0:0:0:0:
448,192,90727,1,0,0:0:0:0:
320,192,90806,1,0,0:0:0:0:
192,192,90885,1,0,0:0:0:0:
64,192,91046,1,0,0:0:0:0:
192,192,91125,1,0,0:0:0:0:
320,192,91205,1,0,0:0:0:0:
448,192,91365,1,0,0:0:0:0:
192,192,91524,1,0,0:0:0:0:
320,192,91684,1,0,0:0:0:0:
448,192,91684,128,0,92003:0:0:0:0:
64,192,91764,1,0,0:0:0:0:
320,192,91844,1,0,0:0:0:0:
64,192,91923,1,0,0:0:0:0:
192,192,92003,1,0,0:0:0:0:
64,192,92163,1,0,0:0:0:0:
320,192,92163,1,0,0:0:0:0:
448,192,92322,1,0,0:0:0:0:
192,192,92322,1,0,0:0:0:0:
64,192,92482,1,0,0:0:0:0:
448,192,92482,1,0,0:0:0:0:
448,192,92641,1,0,0:0:0:0:
192,192,92641,1,0,0:0:0:0:
448,192,92801,1,0,0:0:0:0:
64,192,92801,1,0,0:0:0:0:
448,192,92961,1,0,0:0:0:0:
192,192,92961,1,0,0:0:0:0:
448,192,93120,1,0,0:0:0:0:
64,192,93120,1,0,0:0:0:0:
448,192,93280,1,0,0:0:0:0:
192,192,93280,1,0,0:0:0:0:
448,192,93439,1,0,0:0:0:0:
64,192,93439,1,0,0:0:0:0:
320,192,93599,1,0,0:0:0:0:
192,192,93679,1,0,0:0:0:0:
448,192,93758,1,0,0:0:0:0:
64,192,93838,1,0,0:0:0:0:
320,192,93918,1,0,0:0:0:0:
192,192,93998,1,0,0:0:0:0:
448,192,94078,1,0,0:0:0:0:
64,192,94157,1,0,0:0:0:0:
320,192,94237,1,0,0:0:0:0:
192,192,94317,1,0,0:0:0:0:
448,192,94397,1,0,0:0:0:0:
64,192,94477,1,0,0:0:0:0:
192,192,94556,128,0,94875:0:0:0:0:
320,192,94556,128,0,94875:0:0:0:0:
64,192,94875,1,0,0:0:0:0:
448,192,94875,1,0,0:0:0:0:
320,192,94955,1,0,0:0:0:0:
192,192,95035,1,0,0:0:0:0:
64,192,95115,1,0,0:0:0:0:
192,192,95195,1,0,0:0:0:0:
320,192,95274,1,0,0:0:0:0:
448,192,95354,1,0,0:0:0:0:
320,192,95434,1,0,0:0:0:0:
192,192,95514,1,0,0:0:0:0:
64,192,95514,1,0,0:0:0:0:
320,192,95594,1,0,0:0:0:0:
448,192,95673,1,0,0:0:0:0:
320,192,95753,1,0,0:0:0:0:
192,192,95833,1,0,0:0:0:0:
64,192,95913,1,0,0:0:0:0:
192,192,95993,1,0,0:0:0:0:
320,192,96072,1,0,0:0:0:0:
192,192,96152,1,0,0:0:0:0:
448,192,96152,1,0,0:0:0:0:
64,192,96312,1,0,0:0:0:0:
192,192,96471,1,0,0:0:0:0:
320,192,96551,1,0,0:0:0:0:
192,192,96790,1,0,0:0:0:0:
448,192,96790,1,0,0:0:0:0:
192,192,96950,1,0,0:0:0:0:
448,192,96950,1,0,0:0:0:0:
64,192,97110,1,0,0:0:0:0:
320,192,97189,1,0,0:0:0:0:
64,192,97269,1,0,0:0:0:0:
320,192,97349,1,0,0:0:0:0:
192,192,97429,1,0,0:0:0:0:
320,192,97508,1,0,0:0:0:0:
448,192,97588,1,0,0:0:0:0:
448,192,97748,128,0,98067:0:0:0:0:
192,192,97748,1,0,0:0:0:0:
320,192,98067,128,0,98227:0:0:0:0:
64,192,98067,1,0,0:0:0:0:
448,192,98227,128,0,98386:0:0:0:0:
192,192,98227,1,0,0:0:0:0:
320,192,98386,128,0,98546:0:0:0:0:
64,192,98386,1,0,0:0:0:0:
448,192,98546,128,0,98705:0:0:0:0:
192,192,98546,1,0,0:0:0:0:
64,192,98705,1,0,0:0:0:0:
320,192,98705,1,0,0:0:0:0:
64,192,99024,128,0,99344:0:0:0:0:
320,192,99024,1,0,0:0:0:0:
192,192,99344,128,0,99503:0:0:0:0:
448,192,99344,1,0,0:0:0:0:
64,192,99503,128,0,99663:0:0:0:0:
320,192,99503,1,0,0:0:0:0:
192,192,99663,128,0,99822:0:0:0:0:
448,192,99663,1,0,0:0:0:0:
64,192,99822,128,0,99982:0:0:0:0:
320,192,99822,1,0,0:0:0:0:
192,192,99982,1,0,0:0:0:0:
448,192,99982,1,0,0:0:0:0:
320,192,100141,1,0,0:0:0:0:
64,192,100301,1,0,0:0:0:0:
448,192,100461,1,0,0:0:0:0:
320,192,100540,1,0,0:0:0:0:
64,192,100620,1,0,0:0:0:0:
192,192,100620,1,0,0:0:0:0:
448,192,100780,1,0,0:0:0:0:
64,192,100939,1,0,0:0:0:0:
320,192,100939,1,0,0:0:0:0:
192,192,101099,1,0,0:0:0:0:
64,192,101258,1,0,0:0:0:0:
448,192,101258,1,0,0:0:0:0:
192,192,101338,1,0,0:0:0:0:
320,192,101418,1,0,0:0:0:0:
448,192,101498,1,0,0:0:0:0:
320,192,101578,1,0,0:0:0:0:
192,192,101657,1,0,0:0:0:0:
64,192,101737,1,0,0:0:0:0:
192,192,101817,1,0,0:0:0:0:
320,192,101897,1,0,0:0:0:0:
448,192,101977,1,0,0:0:0:0:
320,192,102056,1,0,0:0:0:0:
448,192,102136,1,0,0:0:0:0:
192,192,102216,1,0,0:0:0:0:
64,192,102216,1,0,0:0:0:0:
320,192,102375,1,0,0:0:0:0:
448,192,102375,1,0,0:0:0:0:
64,192,102535,1,0,0:0:0:0:
320,192,102535,1,0,0:0:0:0:
192,192,102695,1,0,0:0:0:0:
448,192,102695,1,0,0:0:0:0:
64,192,102854,1,0,0:0:0:0:
320,192,102854,1,0,0:0:0:0:
192,192,103014,1,0,0:0:0:0:
448,192,103014,1,0,0:0:0:0:
64,192,103173,1,0,0:0:0:0:
320,192,103173,1,0,0:0:0:0:
64,192,103333,1,0,0:0:0:0:
448,192,103333,1,0,0:0:0:0:
64,192,103493,1,0,0:0:0:0:
320,192,103493,1,0,0:0:0:0:
64,192,103652,1,0,0:0:0:0:
448,192,103652,1,0,0:0:0:0:
192,192,103812,1,0,0:0:0:0:
448,192,103891,1,0,0:0:0:0:
320,192,103971,1,0,0:0:0:0:
64,192,104051,1,0,0:0:0:0:
192,192,104131,1,0,0:0:0:0:
448,192,104211,1,0,0:0:0:0:
320,192,104290,1,0,0:0:0:0:
64,192,104370,1,0,0:0:0:0:
192,192,104450,1,0,0:0:0:0:
448,192,104530,1,0,0:0:0:0:
320,192,104610,1,0,0:0:0:0:
64,192,104689,1,0,0:0:0:0:
192,192,104769,1,0,0:0:0:0:
448,192,104849,1,0,0:0:0:0:
320,192,104929,1,0,0:0:0:0:
64,192,105008,1,0,0:0:0:0:
448,192,105088,1,0,0:0:0:0:
192,192,105088,1,0,0:0:0:0:
64,192,105248,1,0,0:0:0:0:
448,192,105248,1,0,0:0:0:0:
192,192,105407,1,0,0:0:0:0:
448,192,105407,1,0,0:0:0:0:
320,192,105567,1,0,0:0:0:0:
448,192,105567,1,0,0:0:0:0:
192,192,105727,1,0,0:0:0:0:
448,192,105727,1,0,0:0:0:0:
64,192,105886,1,0,0:0:0:0:
448,192,105886,1,0,0:0:0:0:
192,192,106046,1,0,0:0:0:0:
448,192,106046,1,0,0:0:0:0:
320,192,106205,1,0,0:0:0:0:
448,192,106205,1,0,0:0:0:0:
64,192,106365,1,0,0:0:0:0:
320,192,106365,1,0,0:0:0:0:
192,192,106445,1,0,0:0:0:0:
64,192,106524,1,0,0:0:0:0:
320,192,106524,1,0,0:0:0:0:
192,192,106604,1,0,0:0:0:0:
64,192,106684,1,0,0:0:0:0:
320,192,106684,1,0,0:0:0:0:
192,192,106764,1,0,0:0:0:0:
64,192,106844,1,0,0:0:0:0:
320,192,106844,1,0,0:0:0:0:
448,192,106923,1,0,0:0:0:0:
192,192,107003,1,0,0:0:0:0:
320,192,107003,1,0,0:0:0:0:
448,192,107083,1,0,0:0:0:0:
192,192,107162,1,0,0:0:0:0:
320,192,107162,1,0,0:0:0:0:
448,192,107243,1,0,0:0:0:0:
192,192,107322,1,0,0:0:0:0:
320,192,107322,1,0,0:0:0:0:
448,192,107402,1,0,0:0:0:0:
192,192,107482,1,0,0:0:0:0:
320,192,107482,1,0,0:0:0:0:
448,192,107562,1,0,0:0:0:0:
192,192,107641,1,0,0:0:0:0:
320,192,107641,1,0,0:0:0:0:
448,192,107801,1,0,0:0:0:0:
64,192,107801,1,0,0:0:0:0:
320,192,107961,1,0,0:0:0:0:
64,192,107961,1,0,0:0:0:0:
192,192,108120,1,0,0:0:0:0:
64,192,108120,1,0,0:0:0:0:
320,192,108280,1,0,0:0:0:0:
64,192,108280,1,0,0:0:0:0:
448,192,108439,1,0,0:0:0:0:
64,192,108439,1,0,0:0:0:0:
320,192,108599,1,0,0:0:0:0:
64,192,108599,1,0,0:0:0:0:
192,192,108758,1,0,0:0:0:0:
64,192,108758,1,0,0:0:0:0:
192,192,108917,1,0,0:0:0:0:
448,192,108918,1,0,0:0:0:0:
320,192,108998,1,0,0:0:0:0:
192,192,109077,1,0,0:0:0:0:
64,192,109077,1,0,0:0:0:0:
320,192,109236,1,0,0:0:0:0:
192,192,109236,1,0,0:0:0:0:
64,192,109316,1,0,0:0:0:0:
448,192,109316,1,0,0:0:0:0:
320,192,109477,1,0,0:0:0:0:
448,192,109555,1,0,0:0:0:0:
64,192,109555,1,0,0:0:0:0:
320,192,109635,1,0,0:0:0:0:
64,192,109715,1,0,0:0:0:0:
192,192,109796,1,0,0:0:0:0:
320,192,109875,1,0,0:0:0:0:
448,192,109954,1,0,0:0:0:0:
320,192,110034,1,0,0:0:0:0:
64,192,110114,128,0,110672:0:0:0:0:
192,192,110114,1,0,0:0:0:0:
320,192,110673,1,0,0:0:0:0:
448,192,110673,1,0,0:0:0:0:
192,192,110673,128,0,113386:0:0:0:0:
64,192,113067,1,0,0:0:0:0:
320,192,113227,1,0,0:0:0:0:
448,192,113386,1,0,0:0:0:0:
