osu file format v14

[General]
AudioFilename: Garasu no Hanazono.mp3
AudioLeadIn: 0
PreviewTime: 62219
Countdown: 0
SampleSet: Normal
StackLeniency: 0.7
Mode: 1
LetterboxInBreaks: 0
WidescreenStoryboard: 0

[Editor]
DistanceSpacing: 1.4
BeatDivisor: 4
GridSize: 32
TimelineZoom: 1

[Metadata]
Title:Garasu no Hanazono
TitleUnicode:硝子の花園
Artist:Ayase Eli, Tojo Nozomi
ArtistUnicode:絢瀬絵里・東條 希
Creator:Nardoxyribonucleic
Version:Oni
Source:Love Live! School idol project
Tags:Taiko ラブライブ! 南條愛乃 Nanjo Yoshino 楠田亜衣奈 Kusuda Aina Garden of Glass
BeatmapID:1110481
BeatmapSetID:522971

[Difficulty]
HPDrainRate:5
CircleSize:5
OverallDifficulty:6
ApproachRate:7
SliderMultiplier:1.4
SliderTickRate:1

[Events]
//Background and Video events
0,0,"bg2.jpg",0,90
//Break Periods
//Storyboard Layer 0 (Background)
//Storyboard Layer 1 (Fail)
//Storyboard Layer 2 (Pass)
//Storyboard Layer 3 (Foreground)
//Storyboard Sound Samples

[TimingPoints]
799,355.029585798817,4,1,0,75,1,0
6479,-100,4,1,0,85,0,0
29201,-100,4,1,0,75,0,0
40562,-100,4,1,0,80,0,0
63284,-100,4,1,0,90,0,1
83165,-100,4,1,0,75,0,0
86006,-100,4,1,0,85,0,0
97367,-100,4,1,0,75,0,0
108727,-100,4,1,0,80,0,0
131449,-100,4,1,0,90,0,1
151331,-100,4,1,0,75,0,0
154171,-100,4,1,0,80,0,0
176893,-100,4,1,0,65,0,0
179733,-100,4,1,0,75,0,0
195355,-100,4,1,0,95,0,1
215236,-100,4,1,0,80,0,0
218077,-100,4,1,0,95,0,1
237958,-100,4,1,0,75,0,0
240799,-100,4,1,0,90,0,0
264941,-100,4,1,0,75,0,0
266006,-100,4,1,0,60,0,0
267071,-100,4,1,0,45,0,0
268136,-100,4,1,0,30,0,0
269201,-100,4,1,0,15,0,0

[HitObjects]
256,192,799,5,4,0:0:0:0:
256,192,1065,1,12,0:0:0:0:
256,192,1331,1,12,0:0:0:0:
256,192,1686,1,0,0:0:0:0:
256,192,1775,1,0,0:0:0:0:
256,192,1864,1,8,0:0:0:0:
256,192,2041,1,8,0:0:0:0:
256,192,2219,1,0,0:0:0:0:
256,192,2396,1,8,0:0:0:0:
256,192,2574,1,8,0:0:0:0:
256,192,2662,1,8,0:0:0:0:
256,192,2751,1,0,0:0:0:0:
256,192,2840,1,0,0:0:0:0:
256,192,2929,1,8,0:0:0:0:
256,192,3017,1,0,0:0:0:0:
256,192,3106,1,0,0:0:0:0:
256,192,3284,1,8,0:0:0:0:
256,192,3372,1,0,0:0:0:0:
256,192,3461,1,0,0:0:0:0:
256,192,3639,1,4,0:0:0:0:
256,192,3905,1,12,0:0:0:0:
256,192,4171,1,12,0:0:0:0:
256,192,4526,1,0,0:0:0:0:
256,192,4704,1,8,0:0:0:0:
256,192,4793,1,8,0:0:0:0:
256,192,4881,1,0,0:0:0:0:
256,192,5059,1,4,0:0:0:0:
256,192,5325,1,12,0:0:0:0:
256,192,5591,1,4,0:0:0:0:
256,192,5769,1,4,0:0:0:0:
256,192,6035,1,12,0:0:0:0:
256,192,6301,1,4,0:0:0:0:
256,192,6479,1,12,0:0:0:0:
256,192,6834,1,8,0:0:0:0:
256,192,7012,1,0,0:0:0:0:
256,192,7367,1,0,0:0:0:0:
256,192,7544,1,8,0:0:0:0:
256,192,7722,1,8,0:0:0:0:
256,192,7810,1,8,0:0:0:0:
256,192,7899,1,0,0:0:0:0:
256,192,8077,1,0,0:0:0:0:
256,192,8254,1,8,0:0:0:0:
256,192,8432,1,0,0:0:0:0:
256,192,8787,1,8,0:0:0:0:
256,192,8964,1,8,0:0:0:0:
256,192,9319,1,0,0:0:0:0:
256,192,9674,1,8,0:0:0:0:
256,192,9852,1,0,0:0:0:0:
256,192,10207,1,0,0:0:0:0:
256,192,10384,1,8,0:0:0:0:
256,192,10562,1,0,0:0:0:0:
256,192,10651,1,0,0:0:0:0:
256,192,10739,1,8,0:0:0:0:
256,192,10917,1,0,0:0:0:0:
256,192,11094,1,8,0:0:0:0:
256,192,11272,1,8,0:0:0:0:
256,192,11627,1,0,0:0:0:0:
256,192,11804,1,8,0:0:0:0:
256,192,11982,1,0,0:0:0:0:
256,192,12159,1,0,0:0:0:0:
256,192,12514,1,8,0:0:0:0:
256,192,12692,1,0,0:0:0:0:
256,192,12781,1,0,0:0:0:0:
256,192,12870,1,0,0:0:0:0:
256,192,13047,1,0,0:0:0:0:
256,192,13225,1,8,0:0:0:0:
256,192,13402,1,8,0:0:0:0:
256,192,13580,1,0,0:0:0:0:
256,192,13935,1,8,0:0:0:0:
256,192,14112,1,8,0:0:0:0:
256,192,14467,1,0,0:0:0:0:
256,192,14645,1,8,0:0:0:0:
256,192,15000,1,0,0:0:0:0:
256,192,15355,1,8,0:0:0:0:
256,192,15532,1,0,0:0:0:0:
256,192,15621,1,0,0:0:0:0:
256,192,15710,1,0,0:0:0:0:
256,192,15887,1,0,0:0:0:0:
256,192,16065,1,8,0:0:0:0:
256,192,16242,1,0,0:0:0:0:
256,192,16331,1,0,0:0:0:0:
256,192,16420,1,8,0:0:0:0:
256,192,16509,1,8,0:0:0:0:
256,192,16597,1,0,0:0:0:0:
256,192,16775,1,8,0:0:0:0:
256,192,16952,1,12,0:0:0:0:
256,192,17307,1,0,0:0:0:0:
256,192,17485,1,8,0:0:0:0:
256,192,17574,1,8,0:0:0:0:
256,192,17662,1,8,0:0:0:0:
256,192,17840,1,4,0:0:0:0:
256,192,18195,1,8,0:0:0:0:
256,192,18550,1,8,0:0:0:0:
256,192,18727,1,0,0:0:0:0:
256,192,18905,1,8,0:0:0:0:
256,192,19083,1,8,0:0:0:0:
256,192,19171,1,8,0:0:0:0:
256,192,19260,1,0,0:0:0:0:
256,192,19438,1,0,0:0:0:0:
256,192,19615,1,8,0:0:0:0:
256,192,19793,1,0,0:0:0:0:
256,192,19881,1,0,0:0:0:0:
256,192,19970,1,8,0:0:0:0:
256,192,20148,1,0,0:0:0:0:
256,192,20325,1,8,0:0:0:0:
256,192,20503,1,8,0:0:0:0:
256,192,20680,1,0,0:0:0:0:
256,192,21035,1,8,0:0:0:0:
256,192,21390,1,8,0:0:0:0:
256,192,21568,1,0,0:0:0:0:
256,192,21745,1,8,0:0:0:0:
256,192,21923,1,0,0:0:0:0:
256,192,22012,1,0,0:0:0:0:
256,192,22100,1,0,0:0:0:0:
256,192,22278,1,0,0:0:0:0:
256,192,22455,1,8,0:0:0:0:
256,192,22633,1,0,0:0:0:0:
256,192,22810,1,8,0:0:0:0:
256,192,22899,1,8,0:0:0:0:
256,192,22988,1,0,0:0:0:0:
256,192,23165,1,8,0:0:0:0:
256,192,23254,1,8,0:0:0:0:
256,192,23343,1,8,0:0:0:0:
256,192,23432,1,8,0:0:0:0:
256,192,23520,1,0,0:0:0:0:
256,192,23875,1,8,0:0:0:0:
256,192,24053,1,8,0:0:0:0:
256,192,24230,1,0,0:0:0:0:
256,192,24408,1,0,0:0:0:0:
256,192,24585,1,8,0:0:0:0:
256,192,24941,1,0,0:0:0:0:
256,192,25296,1,8,0:0:0:0:
256,192,25473,1,8,0:0:0:0:
256,192,25562,1,8,0:0:0:0:
256,192,25651,1,0,0:0:0:0:
256,192,25828,1,0,0:0:0:0:
256,192,26006,1,8,0:0:0:0:
256,192,26183,1,8,0:0:0:0:
256,192,26361,1,0,0:0:0:0:
256,192,26716,1,8,0:0:0:0:
256,192,26893,1,8,0:0:0:0:
256,192,27071,1,0,0:0:0:0:
256,192,27248,1,0,0:0:0:0:
256,192,27337,1,0,0:0:0:0:
256,192,27426,1,8,0:0:0:0:
256,192,27603,1,0,0:0:0:0:
256,192,27781,1,8,0:0:0:0:
256,192,27870,1,8,0:0:0:0:
256,192,27958,1,0,0:0:0:0:
256,192,28047,1,0,0:0:0:0:
256,192,28136,1,8,0:0:0:0:
256,192,28313,1,4,0:0:0:0:
256,192,28668,1,8,0:0:0:0:
256,192,28846,1,8,0:0:0:0:
256,192,28935,1,8,0:0:0:0:
256,192,29023,1,0,0:0:0:0:
256,192,29201,1,4,0:0:0:0:
256,192,29378,1,0,0:0:0:0:
256,192,29556,1,8,0:0:0:0:
256,192,29733,1,0,0:0:0:0:
256,192,29911,1,8,0:0:0:0:
256,192,30266,1,8,0:0:0:0:
256,192,30443,1,0,0:0:0:0:
256,192,30532,1,0,0:0:0:0:
256,192,30621,1,0,0:0:0:0:
256,192,30799,1,0,0:0:0:0:
256,192,30976,1,8,0:0:0:0:
256,192,31154,1,0,0:0:0:0:
256,192,31509,1,0,0:0:0:0:
256,192,31686,1,8,0:0:0:0:
256,192,31864,1,0,0:0:0:0:
256,192,31952,1,0,0:0:0:0:
256,192,32041,1,8,0:0:0:0:
256,192,32219,1,0,0:0:0:0:
256,192,32396,1,8,0:0:0:0:
256,192,32574,1,8,0:0:0:0:
256,192,32662,1,8,0:0:0:0:
256,192,32751,1,0,0:0:0:0:
256,192,32929,1,0,0:0:0:0:
256,192,33106,1,8,0:0:0:0:
256,192,33284,1,0,0:0:0:0:
256,192,33639,1,0,0:0:0:0:
256,192,33816,1,8,0:0:0:0:
256,192,33994,1,0,0:0:0:0:
256,192,34349,1,0,0:0:0:0:
256,192,34526,1,8,0:0:0:0:
256,192,34704,1,0,0:0:0:0:
256,192,34793,1,0,0:0:0:0:
256,192,34881,1,0,0:0:0:0:
256,192,35059,1,0,0:0:0:0:
256,192,35236,1,8,0:0:0:0:
256,192,35414,1,0,0:0:0:0:
256,192,35591,1,8,0:0:0:0:
256,192,35946,1,8,0:0:0:0:
256,192,36124,1,0,0:0:0:0:
256,192,36213,1,0,0:0:0:0:
256,192,36301,1,0,0:0:0:0:
256,192,36479,1,0,0:0:0:0:
256,192,36656,1,8,0:0:0:0:
256,192,36834,1,0,0:0:0:0:
256,192,37189,1,0,0:0:0:0:
256,192,37367,1,8,0:0:0:0:
256,192,37544,1,0,0:0:0:0:
256,192,37633,1,0,0:0:0:0:
256,192,37722,1,8,0:0:0:0:
256,192,37899,1,0,0:0:0:0:
256,192,38077,1,8,0:0:0:0:
256,192,38254,1,8,0:0:0:0:
256,192,38432,1,0,0:0:0:0:
256,192,38787,1,8,0:0:0:0:
256,192,38964,1,0,0:0:0:0:
256,192,39053,1,0,0:0:0:0:
256,192,39142,1,0,0:0:0:0:
256,192,39319,1,8,0:0:0:0:
256,192,39497,1,8,0:0:0:0:
256,192,39674,1,0,0:0:0:0:
256,192,39763,1,0,0:0:0:0:
256,192,39852,1,8,0:0:0:0:
256,192,40029,1,8,0:0:0:0:
256,192,40118,1,0,0:0:0:0:
256,192,40207,1,8,0:0:0:0:
256,192,40296,1,8,0:0:0:0:
256,192,40384,1,0,0:0:0:0:
256,192,40562,1,4,0:0:0:0:
256,192,40917,1,8,0:0:0:0:
256,192,41272,1,8,0:0:0:0:
256,192,41449,1,0,0:0:0:0:
256,192,41627,1,8,0:0:0:0:
256,192,41804,1,8,0:0:0:0:
256,192,41982,1,0,0:0:0:0:
256,192,42337,1,8,0:0:0:0:
256,192,42692,1,8,0:0:0:0:
256,192,42870,1,0,0:0:0:0:
256,192,43047,1,8,0:0:0:0:
256,192,43402,1,8,0:0:0:0:
256,192,43580,1,0,0:0:0:0:
256,192,43668,1,0,0:0:0:0:
256,192,43757,1,8,0:0:0:0:
256,192,43935,1,8,0:0:0:0:
256,192,44112,1,0,0:0:0:0:
256,192,44290,1,0,0:0:0:0:
256,192,44378,1,0,0:0:0:0:
256,192,44467,1,8,0:0:0:0:
256,192,44645,1,0,0:0:0:0:
256,192,44822,1,8,0:0:0:0:
256,192,45000,1,8,0:0:0:0:
256,192,45088,1,8,0:0:0:0:
256,192,45177,1,8,0:0:0:0:
256,192,45355,1,0,0:0:0:0:
256,192,45532,1,8,0:0:0:0:
256,192,45621,1,8,0:0:0:0:
256,192,45710,1,0,0:0:0:0:
256,192,45887,1,8,0:0:0:0:
256,192,45976,1,0,0:0:0:0:
256,192,46065,1,8,0:0:0:0:
256,192,46154,1,8,0:0:0:0:
256,192,46242,1,0,0:0:0:0:
256,192,46597,1,8,0:0:0:0:
256,192,46775,1,8,0:0:0:0:
256,192,47130,1,0,0:0:0:0:
256,192,47307,1,8,0:0:0:0:
256,192,47662,1,0,0:0:0:0:
256,192,48017,1,8,0:0:0:0:
256,192,48195,1,8,0:0:0:0:
256,192,48372,1,0,0:0:0:0:
256,192,48550,1,0,0:0:0:0:
256,192,48727,1,8,0:0:0:0:
256,192,48905,1,0,0:0:0:0:
256,192,48994,1,0,0:0:0:0:
256,192,49083,1,0,0:0:0:0:
256,192,49438,1,8,0:0:0:0:
256,192,49615,1,0,0:0:0:0:
256,192,49970,1,0,0:0:0:0:
256,192,50148,1,8,0:0:0:0:
256,192,50325,1,8,0:0:0:0:
256,192,50414,1,8,0:0:0:0:
256,192,50503,1,0,0:0:0:0:
256,192,50680,1,0,0:0:0:0:
256,192,50858,1,8,0:0:0:0:
256,192,51035,1,0,0:0:0:0:
256,192,51390,1,0,0:0:0:0:
256,192,51568,1,8,0:0:0:0:
256,192,51656,1,8,0:0:0:0:
256,192,51745,1,8,0:0:0:0:
256,192,51923,1,4,0:0:0:0:
256,192,52278,1,8,0:0:0:0:
256,192,52455,1,0,0:0:0:0:
256,192,52633,1,8,0:0:0:0:
256,192,52810,1,0,0:0:0:0:
256,192,52899,1,0,0:0:0:0:
256,192,52988,1,8,0:0:0:0:
256,192,53165,1,8,0:0:0:0:
256,192,53343,1,0,0:0:0:0:
256,192,53698,1,8,0:0:0:0:
256,192,53875,1,0,0:0:0:0:
256,192,53964,1,0,0:0:0:0:
256,192,54053,1,8,0:0:0:0:
256,192,54230,1,0,0:0:0:0:
256,192,54408,1,8,0:0:0:0:
256,192,54585,1,8,0:0:0:0:
256,192,54763,1,4,0:0:0:0:
256,192,55118,1,8,0:0:0:0:
256,192,55207,1,8,0:0:0:0:
256,192,55296,1,0,0:0:0:0:
256,192,55384,1,0,0:0:0:0:
256,192,55473,1,8,0:0:0:0:
256,192,55828,1,0,0:0:0:0:
256,192,55917,1,0,0:0:0:0:
256,192,56006,1,8,0:0:0:0:
256,192,56094,1,8,0:0:0:0:
256,192,56183,1,0,0:0:0:0:
256,192,56361,1,8,0:0:0:0:
256,192,56449,1,0,0:0:0:0:
256,192,56538,1,8,0:0:0:0:
256,192,56716,1,0,0:0:0:0:
256,192,56804,1,0,0:0:0:0:
256,192,56893,1,8,0:0:0:0:
256,192,57071,1,8,0:0:0:0:
256,192,57159,1,8,0:0:0:0:
256,192,57248,1,0,0:0:0:0:
256,192,57426,1,8,0:0:0:0:
256,192,57603,1,4,0:0:0:0:
256,192,57958,1,8,0:0:0:0:
256,192,58136,1,8,0:0:0:0:
256,192,58491,1,0,0:0:0:0:
256,192,58668,1,8,0:0:0:0:
256,192,58846,1,0,0:0:0:0:
256,192,58935,1,0,0:0:0:0:
256,192,59023,1,8,0:0:0:0:
256,192,59201,1,0,0:0:0:0:
256,192,59378,1,8,0:0:0:0:
256,192,59556,1,0,0:0:0:0:
256,192,59645,1,0,0:0:0:0:
256,192,59733,1,0,0:0:0:0:
256,192,59911,1,0,0:0:0:0:
256,192,60088,1,8,0:0:0:0:
256,192,60266,1,8,0:0:0:0:
256,192,60443,1,4,0:0:0:0:
256,192,60976,1,4,0:0:0:0:
256,192,61331,1,0,0:0:0:0:
256,192,61420,1,0,0:0:0:0:
256,192,61509,1,8,0:0:0:0:
256,192,61686,1,8,0:0:0:0:
256,192,61864,1,4,0:0:0:0:
256,192,62574,1,12,0:0:0:0:
256,192,62929,1,12,0:0:0:0:
256,192,63284,1,4,0:0:0:0:
256,192,63639,1,8,0:0:0:0:
256,192,63816,1,8,0:0:0:0:
256,192,63994,1,0,0:0:0:0:
256,192,64171,1,8,0:0:0:0:
256,192,64260,1,8,0:0:0:0:
256,192,64349,1,0,0:0:0:0:
256,192,64526,1,0,0:0:0:0:
256,192,64704,1,8,0:0:0:0:
256,192,65059,1,8,0:0:0:0:
256,192,65236,1,8,0:0:0:0:
256,192,65414,1,0,0:0:0:0:
256,192,65591,1,8,0:0:0:0:
256,192,65680,1,0,0:0:0:0:
256,192,65769,1,8,0:0:0:0:
256,192,65946,1,8,0:0:0:0:
256,192,66124,1,0,0:0:0:0:
256,192,66479,1,8,0:0:0:0:
256,192,66656,1,0,0:0:0:0:
256,192,66745,1,0,0:0:0:0:
256,192,66834,1,0,0:0:0:0:
256,192,67012,1,8,0:0:0:0:
256,192,67189,1,8,0:0:0:0:
256,192,67367,1,0,0:0:0:0:
256,192,67544,1,8,0:0:0:0:
256,192,67899,1,8,0:0:0:0:
256,192,68077,1,0,0:0:0:0:
256,192,68165,1,0,0:0:0:0:
256,192,68254,1,8,0:0:0:0:
256,192,68432,1,0,0:0:0:0:
256,192,68609,1,8,0:0:0:0:
256,192,68787,1,8,0:0:0:0:
256,192,68964,1,0,0:0:0:0:
256,192,69319,1,8,0:0:0:0:
256,192,69497,1,8,0:0:0:0:
256,192,69585,1,8,0:0:0:0:
256,192,69674,1,0,0:0:0:0:
256,192,69852,1,0,0:0:0:0:
256,192,70029,1,8,0:0:0:0:
256,192,70207,1,0,0:0:0:0:
256,192,70296,1,0,0:0:0:0:
256,192,70384,1,8,0:0:0:0:
256,192,70562,1,0,0:0:0:0:
256,192,70739,1,8,0:0:0:0:
256,192,70917,1,0,0:0:0:0:
256,192,71006,1,8,0:0:0:0:
256,192,71094,1,0,0:0:0:0:
256,192,71272,1,0,0:0:0:0:
256,192,71449,1,8,0:0:0:0:
256,192,71804,1,0,0:0:0:0:
256,192,72159,1,8,0:0:0:0:
256,192,72337,1,0,0:0:0:0:
256,192,72426,1,0,0:0:0:0:
256,192,72514,1,0,0:0:0:0:
256,192,72692,1,0,0:0:0:0:
256,192,72870,1,8,0:0:0:0:
256,192,73047,1,8,0:0:0:0:
256,192,73225,1,0,0:0:0:0:
256,192,73580,1,8,0:0:0:0:
256,192,73757,1,0,0:0:0:0:
256,192,73846,1,0,0:0:0:0:
256,192,73935,1,8,0:0:0:0:
256,192,74112,1,0,0:0:0:0:
256,192,74290,1,8,0:0:0:0:
256,192,74378,1,8,0:0:0:0:
256,192,74467,1,8,0:0:0:0:
256,192,74556,1,8,0:0:0:0:
256,192,74645,1,0,0:0:0:0:
256,192,74822,1,0,0:0:0:0:
256,192,75000,1,8,0:0:0:0:
256,192,75177,1,0,0:0:0:0:
256,192,75355,1,0,0:0:0:0:
256,192,75443,1,0,0:0:0:0:
256,192,75532,1,0,0:0:0:0:
256,192,75710,1,8,0:0:0:0:
256,192,75887,1,0,0:0:0:0:
256,192,76065,1,8,0:0:0:0:
256,192,76154,1,8,0:0:0:0:
256,192,76242,1,0,0:0:0:0:
256,192,76420,1,8,0:0:0:0:
256,192,76597,1,0,0:0:0:0:
256,192,76775,1,8,0:0:0:0:
256,192,76952,1,0,0:0:0:0:
256,192,77041,1,0,0:0:0:0:
256,192,77130,1,8,0:0:0:0:
256,192,77307,1,8,0:0:0:0:
256,192,77485,1,0,0:0:0:0:
256,192,77662,1,0,0:0:0:0:
256,192,77751,1,0,0:0:0:0:
256,192,77840,1,8,0:0:0:0:
256,192,78017,1,0,0:0:0:0:
256,192,78372,1,0,0:0:0:0:
256,192,78550,1,8,0:0:0:0:
256,192,78727,1,0,0:0:0:0:
256,192,78816,1,0,0:0:0:0:
256,192,78905,1,0,0:0:0:0:
256,192,79083,1,0,0:0:0:0:
256,192,79260,1,8,0:0:0:0:
256,192,79438,1,0,0:0:0:0:
256,192,79615,1,8,0:0:0:0:
256,192,79704,1,8,0:0:0:0:
256,192,79793,1,0,0:0:0:0:
256,192,79881,1,0,0:0:0:0:
256,192,79970,1,8,0:0:0:0:
256,192,80148,1,0,0:0:0:0:
256,192,80325,1,12,0:0:0:0:
256,192,80680,1,8,0:0:0:0:
256,192,80858,1,8,0:0:0:0:
256,192,81035,1,0,0:0:0:0:
256,192,81213,1,0,0:0:0:0:
256,192,81390,1,8,0:0:0:0:
256,192,81568,1,0,0:0:0:0:
256,192,81656,1,0,0:0:0:0:
256,192,81745,1,8,0:0:0:0:
256,192,81923,1,0,0:0:0:0:
256,192,82100,1,8,0:0:0:0:
256,192,82189,1,8,0:0:0:0:
256,192,82278,1,0,0:0:0:0:
256,192,82455,1,8,0:0:0:0:
256,192,82544,1,8,0:0:0:0:
256,192,82633,1,0,0:0:0:0:
256,192,82722,1,0,0:0:0:0:
256,192,82810,1,8,0:0:0:0:
256,192,82899,1,8,0:0:0:0:
256,192,82988,1,8,0:0:0:0:
256,192,83165,1,4,0:0:0:0:
256,192,84585,1,4,0:0:0:0:
256,192,84852,1,12,0:0:0:0:
256,192,85118,1,4,0:0:0:0:
256,192,85296,1,4,0:0:0:0:
256,192,85562,1,12,0:0:0:0:
256,192,85828,1,4,0:0:0:0:
256,192,86006,1,12,0:0:0:0:
256,192,86361,1,8,0:0:0:0:
256,192,86716,1,8,0:0:0:0:
256,192,86893,1,0,0:0:0:0:
256,192,87071,1,8,0:0:0:0:
256,192,87248,1,8,0:0:0:0:
256,192,87337,1,8,0:0:0:0:
256,192,87426,1,0,0:0:0:0:
256,192,87603,1,0,0:0:0:0:
256,192,87781,1,8,0:0:0:0:
256,192,87958,1,0,0:0:0:0:
256,192,88047,1,0,0:0:0:0:
256,192,88136,1,8,0:0:0:0:
256,192,88313,1,0,0:0:0:0:
256,192,88491,1,8,0:0:0:0:
256,192,88668,1,8,0:0:0:0:
256,192,88846,1,0,0:0:0:0:
256,192,89201,1,8,0:0:0:0:
256,192,89556,1,8,0:0:0:0:
256,192,89733,1,0,0:0:0:0:
256,192,89911,1,8,0:0:0:0:
256,192,90088,1,0,0:0:0:0:
256,192,90177,1,0,0:0:0:0:
256,192,90266,1,0,0:0:0:0:
256,192,90443,1,0,0:0:0:0:
256,192,90621,1,8,0:0:0:0:
256,192,90799,1,0,0:0:0:0:
256,192,90976,1,8,0:0:0:0:
256,192,91065,1,8,0:0:0:0:
256,192,91154,1,0,0:0:0:0:
256,192,91331,1,8,0:0:0:0:
256,192,91420,1,8,0:0:0:0:
256,192,91509,1,8,0:0:0:0:
256,192,91597,1,8,0:0:0:0:
256,192,91686,1,0,0:0:0:0:
256,192,92041,1,8,0:0:0:0:
256,192,92219,1,8,0:0:0:0:
256,192,92396,1,0,0:0:0:0:
256,192,92574,1,0,0:0:0:0:
256,192,92751,1,8,0:0:0:0:
256,192,93106,1,0,0:0:0:0:
256,192,93461,1,8,0:0:0:0:
256,192,93639,1,8,0:0:0:0:
256,192,93727,1,8,0:0:0:0:
256,192,93816,1,0,0:0:0:0:
256,192,93994,1,0,0:0:0:0:
256,192,94171,1,8,0:0:0:0:
256,192,94349,1,8,0:0:0:0:
256,192,94526,1,0,0:0:0:0:
256,192,94881,1,8,0:0:0:0:
256,192,95059,1,8,0:0:0:0:
256,192,95236,1,0,0:0:0:0:
256,192,95414,1,0,0:0:0:0:
256,192,95503,1,0,0:0:0:0:
256,192,95591,1,8,0:0:0:0:
256,192,95769,1,0,0:0:0:0:
256,192,95946,1,8,0:0:0:0:
256,192,96035,1,8,0:0:0:0:
256,192,96124,1,0,0:0:0:0:
256,192,96213,1,0,0:0:0:0:
256,192,96301,1,8,0:0:0:0:
256,192,96479,1,4,0:0:0:0:
256,192,96834,1,8,0:0:0:0:
256,192,97012,1,8,0:0:0:0:
256,192,97100,1,8,0:0:0:0:
256,192,97189,1,0,0:0:0:0:
256,192,97367,1,4,0:0:0:0:
256,192,97722,1,8,0:0:0:0:
256,192,97899,1,8,0:0:0:0:
256,192,98077,1,0,0:0:0:0:
256,192,98254,1,0,0:0:0:0:
256,192,98432,1,8,0:0:0:0:
256,192,98787,1,0,0:0:0:0:
256,192,99142,1,8,0:0:0:0:
256,192,99319,1,0,0:0:0:0:
256,192,99674,1,0,0:0:0:0:
256,192,99852,1,8,0:0:0:0:
256,192,100029,1,0,0:0:0:0:
256,192,100118,1,0,0:0:0:0:
256,192,100207,1,0,0:0:0:0:
256,192,100384,1,0,0:0:0:0:
256,192,100562,1,8,0:0:0:0:
256,192,100739,1,8,0:0:0:0:
256,192,100917,1,0,0:0:0:0:
256,192,101272,1,8,0:0:0:0:
256,192,101627,1,0,0:0:0:0:
256,192,101982,1,8,0:0:0:0:
256,192,102159,1,0,0:0:0:0:
256,192,102337,1,8,0:0:0:0:
256,192,102692,1,8,0:0:0:0:
256,192,103047,1,0,0:0:0:0:
256,192,103402,1,8,0:0:0:0:
256,192,103580,1,8,0:0:0:0:
256,192,103757,1,0,0:0:0:0:
256,192,103935,1,0,0:0:0:0:
256,192,104112,1,8,0:0:0:0:
256,192,104467,1,0,0:0:0:0:
256,192,104822,1,8,0:0:0:0:
256,192,105000,1,0,0:0:0:0:
256,192,105355,1,0,0:0:0:0:
256,192,105532,1,8,0:0:0:0:
256,192,105710,1,0,0:0:0:0:
256,192,105799,1,0,0:0:0:0:
256,192,105887,1,0,0:0:0:0:
256,192,106065,1,0,0:0:0:0:
256,192,106242,1,8,0:0:0:0:
256,192,106420,1,8,0:0:0:0:
256,192,106509,1,8,0:0:0:0:
256,192,106597,1,0,0:0:0:0:
256,192,106775,1,8,0:0:0:0:
256,192,106952,1,0,0:0:0:0:
256,192,107041,1,8,0:0:0:0:
256,192,107130,1,0,0:0:0:0:
256,192,107219,1,0,0:0:0:0:
256,192,107307,1,0,0:0:0:0:
256,192,107485,1,8,0:0:0:0:
256,192,107662,1,8,0:0:0:0:
256,192,107840,1,0,0:0:0:0:
256,192,107929,1,0,0:0:0:0:
256,192,108017,1,8,0:0:0:0:
256,192,108106,1,0,0:0:0:0:
256,192,108195,1,0,0:0:0:0:
256,192,108284,1,0,0:0:0:0:
256,192,108372,1,8,0:0:0:0:
256,192,108461,1,8,0:0:0:0:
256,192,108550,1,0,0:0:0:0:
256,192,108727,1,4,0:0:0:0:
256,192,109083,1,8,0:0:0:0:
256,192,109438,1,8,0:0:0:0:
256,192,109615,1,0,0:0:0:0:
256,192,109793,1,8,0:0:0:0:
256,192,109970,1,8,0:0:0:0:
256,192,110148,1,0,0:0:0:0:
256,192,110503,1,8,0:0:0:0:
256,192,110858,1,8,0:0:0:0:
256,192,111035,1,0,0:0:0:0:
256,192,111213,1,8,0:0:0:0:
256,192,111568,1,8,0:0:0:0:
256,192,111745,1,0,0:0:0:0:
256,192,111834,1,0,0:0:0:0:
256,192,111923,1,8,0:0:0:0:
256,192,112100,1,8,0:0:0:0:
256,192,112278,1,0,0:0:0:0:
256,192,112455,1,0,0:0:0:0:
256,192,112544,1,0,0:0:0:0:
256,192,112633,1,8,0:0:0:0:
256,192,112722,1,8,0:0:0:0:
256,192,112810,1,0,0:0:0:0:
256,192,112988,1,8,0:0:0:0:
256,192,113165,1,8,0:0:0:0:
256,192,113254,1,8,0:0:0:0:
256,192,113343,1,8,0:0:0:0:
256,192,113520,1,0,0:0:0:0:
256,192,113698,1,8,0:0:0:0:
256,192,113787,1,8,0:0:0:0:
256,192,113875,1,0,0:0:0:0:
256,192,113964,1,0,0:0:0:0:
256,192,114053,1,8,0:0:0:0:
256,192,114142,1,0,0:0:0:0:
256,192,114230,1,8,0:0:0:0:
256,192,114319,1,8,0:0:0:0:
256,192,114408,1,0,0:0:0:0:
256,192,114763,1,8,0:0:0:0:
256,192,114941,1,8,0:0:0:0:
256,192,115296,1,0,0:0:0:0:
256,192,115473,1,8,0:0:0:0:
256,192,115651,1,0,0:0:0:0:
256,192,115739,1,0,0:0:0:0:
256,192,115828,1,8,0:0:0:0:
256,192,116006,1,0,0:0:0:0:
256,192,116183,1,8,0:0:0:0:
256,192,116361,1,8,0:0:0:0:
256,192,116449,1,8,0:0:0:0:
256,192,116538,1,0,0:0:0:0:
256,192,116716,1,0,0:0:0:0:
256,192,116893,1,8,0:0:0:0:
256,192,117071,1,0,0:0:0:0:
256,192,117159,1,0,0:0:0:0:
256,192,117248,1,0,0:0:0:0:
256,192,117603,1,8,0:0:0:0:
256,192,117781,1,0,0:0:0:0:
256,192,118136,1,0,0:0:0:0:
256,192,118313,1,8,0:0:0:0:
256,192,118491,1,8,0:0:0:0:
256,192,118580,1,8,0:0:0:0:
256,192,118668,1,0,0:0:0:0:
256,192,118846,1,0,0:0:0:0:
256,192,119023,1,8,0:0:0:0:
256,192,119201,1,0,0:0:0:0:
256,192,119556,1,0,0:0:0:0:
256,192,119733,1,8,0:0:0:0:
256,192,119822,1,8,0:0:0:0:
256,192,119911,1,8,0:0:0:0:
256,192,120088,1,4,0:0:0:0:
256,192,120443,1,8,0:0:0:0:
256,192,120621,1,0,0:0:0:0:
256,192,120799,1,8,0:0:0:0:
256,192,120976,1,0,0:0:0:0:
256,192,121065,1,0,0:0:0:0:
256,192,121154,1,8,0:0:0:0:
256,192,121331,1,8,0:0:0:0:
256,192,121509,1,0,0:0:0:0:
256,192,121864,1,8,0:0:0:0:
256,192,122041,1,0,0:0:0:0:
256,192,122130,1,0,0:0:0:0:
256,192,122219,1,8,0:0:0:0:
256,192,122396,1,0,0:0:0:0:
256,192,122574,1,8,0:0:0:0:
256,192,122751,1,8,0:0:0:0:
256,192,122929,1,4,0:0:0:0:
256,192,123284,1,8,0:0:0:0:
256,192,123372,1,8,0:0:0:0:
256,192,123461,1,0,0:0:0:0:
256,192,123550,1,0,0:0:0:0:
256,192,123639,1,8,0:0:0:0:
256,192,123994,1,0,0:0:0:0:
256,192,124083,1,0,0:0:0:0:
256,192,124171,1,8,0:0:0:0:
256,192,124260,1,8,0:0:0:0:
256,192,124349,1,0,0:0:0:0:
256,192,124526,1,8,0:0:0:0:
256,192,124615,1,0,0:0:0:0:
256,192,124704,1,8,0:0:0:0:
256,192,124881,1,0,0:0:0:0:
256,192,124970,1,0,0:0:0:0:
256,192,125059,1,8,0:0:0:0:
256,192,125148,1,0,0:0:0:0:
256,192,125236,1,8,0:0:0:0:
256,192,125325,1,8,0:0:0:0:
256,192,125414,1,0,0:0:0:0:
256,192,125591,1,8,0:0:0:0:
256,192,125769,1,4,0:0:0:0:
256,192,126124,1,8,0:0:0:0:
256,192,126301,1,8,0:0:0:0:
256,192,126656,1,0,0:0:0:0:
256,192,126834,1,8,0:0:0:0:
256,192,127012,1,0,0:0:0:0:
256,192,127100,1,0,0:0:0:0:
256,192,127189,1,8,0:0:0:0:
256,192,127367,1,0,0:0:0:0:
256,192,127544,1,8,0:0:0:0:
256,192,127722,1,0,0:0:0:0:
256,192,127810,1,0,0:0:0:0:
256,192,127899,1,8,0:0:0:0:
256,192,127988,1,8,0:0:0:0:
256,192,128077,1,0,0:0:0:0:
256,192,128254,1,8,0:0:0:0:
256,192,128432,1,8,0:0:0:0:
256,192,128609,1,4,0:0:0:0:
256,192,129142,1,4,0:0:0:0:
256,192,129497,1,0,0:0:0:0:
256,192,129585,1,0,0:0:0:0:
256,192,129674,1,8,0:0:0:0:
256,192,129852,1,8,0:0:0:0:
256,192,130029,1,4,0:0:0:0:
256,192,130739,1,12,0:0:0:0:
256,192,131094,1,12,0:0:0:0:
256,192,131449,1,4,0:0:0:0:
256,192,131804,1,8,0:0:0:0:
256,192,131982,1,8,0:0:0:0:
256,192,132159,1,0,0:0:0:0:
256,192,132337,1,8,0:0:0:0:
256,192,132426,1,8,0:0:0:0:
256,192,132514,1,0,0:0:0:0:
256,192,132692,1,0,0:0:0:0:
256,192,132870,1,8,0:0:0:0:
256,192,133047,1,0,0:0:0:0:
256,192,133136,1,0,0:0:0:0:
256,192,133225,1,8,0:0:0:0:
256,192,133402,1,8,0:0:0:0:
256,192,133580,1,0,0:0:0:0:
256,192,133757,1,8,0:0:0:0:
256,192,133846,1,0,0:0:0:0:
256,192,133935,1,8,0:0:0:0:
256,192,134112,1,8,0:0:0:0:
256,192,134290,1,0,0:0:0:0:
256,192,134645,1,8,0:0:0:0:
256,192,134822,1,0,0:0:0:0:
256,192,134911,1,0,0:0:0:0:
256,192,135000,1,0,0:0:0:0:
256,192,135177,1,8,0:0:0:0:
256,192,135355,1,8,0:0:0:0:
256,192,135532,1,0,0:0:0:0:
256,192,135710,1,8,0:0:0:0:
256,192,136065,1,8,0:0:0:0:
256,192,136242,1,0,0:0:0:0:
256,192,136331,1,0,0:0:0:0:
256,192,136420,1,8,0:0:0:0:
256,192,136597,1,0,0:0:0:0:
256,192,136775,1,8,0:0:0:0:
256,192,136952,1,8,0:0:0:0:
256,192,137041,1,0,0:0:0:0:
256,192,137130,1,0,0:0:0:0:
256,192,137307,1,0,0:0:0:0:
256,192,137485,1,8,0:0:0:0:
256,192,137662,1,8,0:0:0:0:
256,192,137751,1,8,0:0:0:0:
256,192,137840,1,0,0:0:0:0:
256,192,138017,1,0,0:0:0:0:
256,192,138195,1,8,0:0:0:0:
256,192,138372,1,0,0:0:0:0:
256,192,138461,1,0,0:0:0:0:
256,192,138550,1,8,0:0:0:0:
256,192,138727,1,0,0:0:0:0:
256,192,138905,1,8,0:0:0:0:
256,192,139083,1,0,0:0:0:0:
256,192,139171,1,8,0:0:0:0:
256,192,139260,1,0,0:0:0:0:
256,192,139438,1,0,0:0:0:0:
256,192,139615,1,8,0:0:0:0:
256,192,139970,1,0,0:0:0:0:
256,192,140325,1,8,0:0:0:0:
256,192,140503,1,0,0:0:0:0:
256,192,140591,1,0,0:0:0:0:
256,192,140680,1,0,0:0:0:0:
256,192,140858,1,0,0:0:0:0:
256,192,141035,1,8,0:0:0:0:
256,192,141213,1,8,0:0:0:0:
256,192,141390,1,0,0:0:0:0:
256,192,141745,1,8,0:0:0:0:
256,192,141923,1,0,0:0:0:0:
256,192,142012,1,0,0:0:0:0:
256,192,142100,1,8,0:0:0:0:
256,192,142278,1,0,0:0:0:0:
256,192,142455,1,8,0:0:0:0:
256,192,142544,1,8,0:0:0:0:
256,192,142633,1,8,0:0:0:0:
256,192,142722,1,8,0:0:0:0:
256,192,142810,1,0,0:0:0:0:
256,192,142988,1,0,0:0:0:0:
256,192,143165,1,8,0:0:0:0:
256,192,143343,1,0,0:0:0:0:
256,192,143520,1,0,0:0:0:0:
256,192,143609,1,0,0:0:0:0:
256,192,143698,1,0,0:0:0:0:
256,192,143875,1,8,0:0:0:0:
256,192,144053,1,0,0:0:0:0:
256,192,144230,1,8,0:0:0:0:
256,192,144319,1,8,0:0:0:0:
256,192,144408,1,0,0:0:0:0:
256,192,144585,1,8,0:0:0:0:
256,192,144763,1,0,0:0:0:0:
256,192,144941,1,8,0:0:0:0:
256,192,145118,1,0,0:0:0:0:
256,192,145207,1,0,0:0:0:0:
256,192,145296,1,8,0:0:0:0:
256,192,145473,1,8,0:0:0:0:
256,192,145651,1,0,0:0:0:0:
256,192,145828,1,0,0:0:0:0:
256,192,145917,1,0,0:0:0:0:
256,192,146006,1,8,0:0:0:0:
256,192,146183,1,0,0:0:0:0:
256,192,146538,1,0,0:0:0:0:
256,192,146716,1,8,0:0:0:0:
256,192,146893,1,0,0:0:0:0:
256,192,146982,1,0,0:0:0:0:
256,192,147071,1,0,0:0:0:0:
256,192,147248,1,0,0:0:0:0:
256,192,147426,1,8,0:0:0:0:
256,192,147603,1,0,0:0:0:0:
256,192,147781,1,8,0:0:0:0:
256,192,147870,1,8,0:0:0:0:
256,192,147958,1,0,0:0:0:0:
256,192,148047,1,0,0:0:0:0:
256,192,148136,1,8,0:0:0:0:
256,192,148313,1,0,0:0:0:0:
256,192,148491,1,12,0:0:0:0:
256,192,148846,1,8,0:0:0:0:
256,192,149023,1,8,0:0:0:0:
256,192,149201,1,0,0:0:0:0:
256,192,149378,1,0,0:0:0:0:
256,192,149556,1,8,0:0:0:0:
256,192,149733,1,0,0:0:0:0:
256,192,149822,1,0,0:0:0:0:
256,192,149911,1,8,0:0:0:0:
256,192,150088,1,0,0:0:0:0:
256,192,150266,1,8,0:0:0:0:
256,192,150355,1,8,0:0:0:0:
256,192,150443,1,0,0:0:0:0:
256,192,150621,1,8,0:0:0:0:
256,192,150710,1,8,0:0:0:0:
256,192,150799,1,0,0:0:0:0:
256,192,150887,1,0,0:0:0:0:
256,192,150976,1,8,0:0:0:0:
256,192,151065,1,8,0:0:0:0:
256,192,151154,1,8,0:0:0:0:
256,192,151331,1,4,0:0:0:0:
256,192,152751,1,4,0:0:0:0:
256,192,153017,1,12,0:0:0:0:
256,192,153284,1,4,0:0:0:0:
256,192,153461,1,4,0:0:0:0:
256,192,153727,1,12,0:0:0:0:
256,192,153994,1,4,0:0:0:0:
256,192,154171,1,12,0:0:0:0:
256,192,154526,1,8,0:0:0:0:
256,192,154704,1,8,0:0:0:0:
256,192,155059,1,0,0:0:0:0:
256,192,155236,1,8,0:0:0:0:
256,192,155414,1,8,0:0:0:0:
256,192,155503,1,8,0:0:0:0:
256,192,155591,1,0,0:0:0:0:
256,192,155769,1,0,0:0:0:0:
256,192,155946,1,8,0:0:0:0:
256,192,156124,1,0,0:0:0:0:
256,192,156479,1,0,0:0:0:0:
256,192,156656,1,8,0:0:0:0:
256,192,156834,1,0,0:0:0:0:
256,192,156923,1,0,0:0:0:0:
256,192,157012,1,8,0:0:0:0:
256,192,157189,1,0,0:0:0:0:
256,192,157367,1,8,0:0:0:0:
256,192,157455,1,0,0:0:0:0:
256,192,157544,1,8,0:0:0:0:
256,192,157633,1,8,0:0:0:0:
256,192,157722,1,0,0:0:0:0:
256,192,157899,1,0,0:0:0:0:
256,192,158077,1,8,0:0:0:0:
256,192,158254,1,8,0:0:0:0:
256,192,158609,1,0,0:0:0:0:
256,192,158787,1,8,0:0:0:0:
256,192,158964,1,8,0:0:0:0:
256,192,159319,1,0,0:0:0:0:
256,192,159497,1,8,0:0:0:0:
256,192,159674,1,8,0:0:0:0:
256,192,159852,1,0,0:0:0:0:
256,192,160207,1,8,0:0:0:0:
256,192,160384,1,8,0:0:0:0:
256,192,160739,1,0,0:0:0:0:
256,192,160828,1,0,0:0:0:0:
256,192,160917,1,8,0:0:0:0:
256,192,161094,1,8,0:0:0:0:
256,192,161272,1,0,0:0:0:0:
256,192,161449,1,8,0:0:0:0:
256,192,161538,1,8,0:0:0:0:
256,192,161627,1,0,0:0:0:0:
256,192,161804,1,8,0:0:0:0:
256,192,162159,1,0,0:0:0:0:
256,192,162337,1,8,0:0:0:0:
256,192,162514,1,0,0:0:0:0:
256,192,162692,1,0,0:0:0:0:
256,192,163047,1,8,0:0:0:0:
256,192,163225,1,0,0:0:0:0:
256,192,163313,1,0,0:0:0:0:
256,192,163402,1,0,0:0:0:0:
256,192,163580,1,8,0:0:0:0:
256,192,163757,1,8,0:0:0:0:
256,192,163935,1,0,0:0:0:0:
256,192,164023,1,0,0:0:0:0:
256,192,164112,1,8,0:0:0:0:
256,192,164290,1,0,0:0:0:0:
256,192,164467,1,8,0:0:0:0:
256,192,164645,1,8,0:0:0:0:
256,192,164733,1,8,0:0:0:0:
256,192,164822,1,0,0:0:0:0:
256,192,165000,1,8,0:0:0:0:
256,192,165088,1,0,0:0:0:0:
256,192,165177,1,8,0:0:0:0:
256,192,165266,1,8,0:0:0:0:
256,192,165355,1,0,0:0:0:0:
256,192,165443,1,0,0:0:0:0:
256,192,165532,1,8,0:0:0:0:
256,192,165710,1,0,0:0:0:0:
256,192,165887,1,8,0:0:0:0:
256,192,166065,1,0,0:0:0:0:
256,192,166420,1,0,0:0:0:0:
256,192,166597,1,8,0:0:0:0:
256,192,166775,1,0,0:0:0:0:
256,192,166864,1,0,0:0:0:0:
256,192,166952,1,8,0:0:0:0:
256,192,167130,1,0,0:0:0:0:
256,192,167307,1,8,0:0:0:0:
256,192,167485,1,8,0:0:0:0:
256,192,167840,1,8,0:0:0:0:
256,192,168017,1,0,0:0:0:0:
256,192,168195,1,8,0:0:0:0:
256,192,168372,1,8,0:0:0:0:
256,192,168461,1,8,0:0:0:0:
256,192,168550,1,0,0:0:0:0:
256,192,168727,1,8,0:0:0:0:
256,192,168905,1,0,0:0:0:0:
256,192,169260,1,0,0:0:0:0:
256,192,169349,1,8,0:0:0:0:
256,192,169438,1,8,0:0:0:0:
256,192,169526,1,8,0:0:0:0:
256,192,169615,1,0,0:0:0:0:
256,192,169793,1,0,0:0:0:0:
256,192,169970,1,0,0:0:0:0:
256,192,170148,1,8,0:0:0:0:
256,192,170325,1,0,0:0:0:0:
256,192,170680,1,8,0:0:0:0:
256,192,170858,1,8,0:0:0:0:
256,192,171035,1,0,0:0:0:0:
256,192,171213,1,0,0:0:0:0:
256,192,171568,1,8,0:0:0:0:
256,192,171656,1,0,0:0:0:0:
256,192,171745,1,0,0:0:0:0:
256,192,171834,1,0,0:0:0:0:
256,192,171923,1,8,0:0:0:0:
256,192,172100,1,0,0:0:0:0:
256,192,172278,1,8,0:0:0:0:
256,192,172455,1,8,0:0:0:0:
256,192,172544,1,0,0:0:0:0:
256,192,172633,1,8,0:0:0:0:
256,192,172810,1,0,0:0:0:0:
256,192,172988,1,8,0:0:0:0:
256,192,173165,1,8,0:0:0:0:
256,192,173520,1,0,0:0:0:0:
256,192,173698,1,8,0:0:0:0:
256,192,174053,1,8,0:0:0:0:
256,192,174230,1,0,0:0:0:0:
256,192,174319,1,0,0:0:0:0:
256,192,174408,1,8,0:0:0:0:
256,192,174585,1,0,0:0:0:0:
256,192,174763,1,8,0:0:0:0:
256,192,174852,1,8,0:0:0:0:
256,192,174941,1,0,0:0:0:0:
256,192,175118,1,8,0:0:0:0:
256,192,175296,1,0,0:0:0:0:
256,192,175384,1,8,0:0:0:0:
256,192,175473,1,0,0:0:0:0:
256,192,175651,1,0,0:0:0:0:
256,192,175739,1,0,0:0:0:0:
256,192,175828,1,8,0:0:0:0:
256,192,175917,1,0,0:0:0:0:
256,192,176006,1,8,0:0:0:0:
256,192,176094,1,8,0:0:0:0:
256,192,176183,1,0,0:0:0:0:
256,192,176361,1,0,0:0:0:0:
256,192,176449,1,0,0:0:0:0:
256,192,176538,1,8,0:0:0:0:
256,192,176627,1,8,0:0:0:0:
256,192,176716,1,0,0:0:0:0:
256,192,176893,1,8,0:0:0:0:
256,192,176982,1,0,0:0:0:0:
256,192,177071,1,8,0:0:0:0:
256,192,177159,1,8,0:0:0:0:
256,192,177248,1,0,0:0:0:0:
256,192,177337,1,8,0:0:0:0:
256,192,177426,1,0,0:0:0:0:
256,192,177514,1,0,0:0:0:0:
256,192,177603,1,8,0:0:0:0:
256,192,177692,1,8,0:0:0:0:
256,192,177781,1,0,0:0:0:0:
256,192,177870,1,0,0:0:0:0:
256,192,177958,1,8,0:0:0:0:
256,192,178047,1,0,0:0:0:0:
256,192,178136,1,0,0:0:0:0:
256,192,178225,1,8,0:0:0:0:
256,192,178313,1,0,0:0:0:0:
256,192,179733,1,4,0:0:0:0:
256,192,180088,1,8,0:0:0:0:
256,192,180266,1,8,0:0:0:0:
256,192,180621,1,8,0:0:0:0:
256,192,180799,1,0,0:0:0:0:
256,192,180976,1,0,0:0:0:0:
256,192,181154,1,8,0:0:0:0:
256,192,181509,1,8,0:0:0:0:
256,192,181686,1,8,0:0:0:0:
256,192,182041,1,8,0:0:0:0:
256,192,182219,1,0,0:0:0:0:
256,192,182396,1,8,0:0:0:0:
256,192,182574,1,0,0:0:0:0:
256,192,182929,1,0,0:0:0:0:
256,192,183106,1,0,0:0:0:0:
256,192,183461,1,8,0:0:0:0:
256,192,183816,1,8,0:0:0:0:
256,192,183994,1,0,0:0:0:0:
256,192,184349,1,0,0:0:0:0:
256,192,184526,1,8,0:0:0:0:
256,192,184881,1,0,0:0:0:0:
256,192,185059,1,8,0:0:0:0:
256,192,185236,1,8,0:0:0:0:
256,192,185414,1,0,0:0:0:0:
256,192,185769,1,8,0:0:0:0:
256,192,185946,1,0,0:0:0:0:
256,192,186301,1,0,0:0:0:0:
256,192,186479,1,8,0:0:0:0:
256,192,186656,1,0,0:0:0:0:
256,192,186834,1,8,0:0:0:0:
256,192,187189,1,8,0:0:0:0:
256,192,187367,1,8,0:0:0:0:
256,192,187544,1,0,0:0:0:0:
256,192,187722,1,8,0:0:0:0:
256,192,187899,1,0,0:0:0:0:
256,192,188077,1,0,0:0:0:0:
256,192,188254,1,8,0:0:0:0:
256,192,188609,1,0,0:0:0:0:
256,192,188787,1,8,0:0:0:0:
256,192,189142,1,0,0:0:0:0:
256,192,189319,1,0,0:0:0:0:
256,192,189497,1,0,0:0:0:0:
256,192,189674,1,8,0:0:0:0:
256,192,190029,1,0,0:0:0:0:
256,192,190207,1,8,0:0:0:0:
256,192,190384,1,0,0:0:0:0:
256,192,190562,1,8,0:0:0:0:
256,192,190739,1,0,0:0:0:0:
256,192,190828,1,0,0:0:0:0:
256,192,190917,1,0,0:0:0:0:
256,192,191094,1,4,0:0:0:0:
256,192,191449,1,8,0:0:0:0:
256,192,191538,1,8,0:0:0:0:
256,192,191627,1,0,0:0:0:0:
256,192,191716,1,8,0:0:0:0:
256,192,191804,1,8,0:0:0:0:
256,192,191982,1,0,0:0:0:0:
256,192,192159,1,8,0:0:0:0:
256,192,192337,1,0,0:0:0:0:
256,192,192514,1,4,0:0:0:0:
256,192,192781,1,12,0:0:0:0:
256,192,193047,1,4,0:0:0:0:
256,192,193225,1,4,0:0:0:0:
256,192,193491,1,12,0:0:0:0:
256,192,193757,1,4,0:0:0:0:
256,192,193935,1,8,0:0:0:0:
256,192,194023,1,8,0:0:0:0:
256,192,194112,1,0,0:0:0:0:
256,192,194201,1,0,0:0:0:0:
256,192,194290,1,0,0:0:0:0:
256,192,194645,1,8,0:0:0:0:
256,192,195000,1,8,0:0:0:0:
256,192,195355,1,4,0:0:0:0:
256,192,195710,1,8,0:0:0:0:
256,192,195887,1,8,0:0:0:0:
256,192,196065,1,0,0:0:0:0:
256,192,196242,1,8,0:0:0:0:
256,192,196331,1,8,0:0:0:0:
256,192,196420,1,0,0:0:0:0:
256,192,196597,1,0,0:0:0:0:
256,192,196775,1,8,0:0:0:0:
256,192,196952,1,0,0:0:0:0:
256,192,197041,1,0,0:0:0:0:
256,192,197130,1,8,0:0:0:0:
256,192,197307,1,8,0:0:0:0:
256,192,197485,1,0,0:0:0:0:
256,192,197662,1,8,0:0:0:0:
256,192,197751,1,0,0:0:0:0:
256,192,197840,1,8,0:0:0:0:
256,192,198017,1,8,0:0:0:0:
256,192,198195,1,0,0:0:0:0:
256,192,198372,1,0,0:0:0:0:
256,192,198461,1,0,0:0:0:0:
256,192,198550,1,8,0:0:0:0:
256,192,198727,1,8,0:0:0:0:
256,192,198905,1,0,0:0:0:0:
256,192,199083,1,8,0:0:0:0:
256,192,199171,1,8,0:0:0:0:
256,192,199260,1,8,0:0:0:0:
256,192,199438,1,0,0:0:0:0:
256,192,199615,1,8,0:0:0:0:
256,192,199970,1,8,0:0:0:0:
256,192,200148,1,0,0:0:0:0:
256,192,200236,1,0,0:0:0:0:
256,192,200325,1,8,0:0:0:0:
256,192,200503,1,0,0:0:0:0:
256,192,200680,1,8,0:0:0:0:
256,192,200858,1,8,0:0:0:0:
256,192,200946,1,0,0:0:0:0:
256,192,201035,1,0,0:0:0:0:
256,192,201213,1,0,0:0:0:0:
256,192,201390,1,8,0:0:0:0:
256,192,201568,1,8,0:0:0:0:
256,192,201656,1,8,0:0:0:0:
256,192,201745,1,0,0:0:0:0:
256,192,201923,1,0,0:0:0:0:
256,192,202100,1,8,0:0:0:0:
256,192,202278,1,0,0:0:0:0:
256,192,202367,1,0,0:0:0:0:
256,192,202455,1,8,0:0:0:0:
256,192,202633,1,0,0:0:0:0:
256,192,202810,1,8,0:0:0:0:
256,192,202988,1,0,0:0:0:0:
256,192,203077,1,8,0:0:0:0:
256,192,203165,1,0,0:0:0:0:
256,192,203343,1,0,0:0:0:0:
256,192,203520,1,8,0:0:0:0:
256,192,203698,1,0,0:0:0:0:
256,192,203875,1,0,0:0:0:0:
256,192,204230,1,8,0:0:0:0:
256,192,204408,1,0,0:0:0:0:
256,192,204497,1,0,0:0:0:0:
256,192,204585,1,0,0:0:0:0:
256,192,204763,1,0,0:0:0:0:
256,192,204941,1,8,0:0:0:0:
256,192,205118,1,8,0:0:0:0:
256,192,205296,1,0,0:0:0:0:
256,192,205651,1,8,0:0:0:0:
256,192,205828,1,0,0:0:0:0:
256,192,205917,1,0,0:0:0:0:
256,192,206006,1,8,0:0:0:0:
256,192,206183,1,0,0:0:0:0:
256,192,206361,1,8,0:0:0:0:
256,192,206449,1,8,0:0:0:0:
256,192,206538,1,8,0:0:0:0:
256,192,206627,1,8,0:0:0:0:
256,192,206716,1,0,0:0:0:0:
256,192,206893,1,0,0:0:0:0:
256,192,207071,1,8,0:0:0:0:
256,192,207248,1,0,0:0:0:0:
256,192,207337,1,0,0:0:0:0:
256,192,207426,1,0,0:0:0:0:
256,192,207603,1,0,0:0:0:0:
256,192,207781,1,8,0:0:0:0:
256,192,207958,1,0,0:0:0:0:
256,192,208047,1,0,0:0:0:0:
256,192,208136,1,8,0:0:0:0:
256,192,208225,1,8,0:0:0:0:
256,192,208313,1,0,0:0:0:0:
256,192,208491,1,8,0:0:0:0:
256,192,208668,1,0,0:0:0:0:
256,192,208757,1,0,0:0:0:0:
256,192,208846,1,8,0:0:0:0:
256,192,209023,1,0,0:0:0:0:
256,192,209201,1,8,0:0:0:0:
256,192,209378,1,8,0:0:0:0:
256,192,209556,1,0,0:0:0:0:
256,192,209645,1,0,0:0:0:0:
256,192,209733,1,0,0:0:0:0:
256,192,209822,1,0,0:0:0:0:
256,192,209911,1,8,0:0:0:0:
256,192,210088,1,0,0:0:0:0:
256,192,210443,1,0,0:0:0:0:
256,192,210621,1,8,0:0:0:0:
256,192,210799,1,0,0:0:0:0:
256,192,210887,1,0,0:0:0:0:
256,192,210976,1,0,0:0:0:0:
256,192,211154,1,0,0:0:0:0:
256,192,211331,1,8,0:0:0:0:
256,192,211509,1,0,0:0:0:0:
256,192,211597,1,0,0:0:0:0:
256,192,211686,1,8,0:0:0:0:
256,192,211775,1,8,0:0:0:0:
256,192,211864,1,0,0:0:0:0:
256,192,211952,1,0,0:0:0:0:
256,192,212041,1,8,0:0:0:0:
256,192,212219,1,0,0:0:0:0:
256,192,212396,1,12,0:0:0:0:
256,192,212751,1,8,0:0:0:0:
256,192,212929,1,8,0:0:0:0:
256,192,213106,1,0,0:0:0:0:
256,192,213284,1,0,0:0:0:0:
256,192,213461,1,8,0:0:0:0:
256,192,213639,1,0,0:0:0:0:
256,192,213727,1,0,0:0:0:0:
256,192,213816,1,8,0:0:0:0:
256,192,213994,1,0,0:0:0:0:
256,192,214171,1,8,0:0:0:0:
256,192,214260,1,8,0:0:0:0:
256,192,214349,1,0,0:0:0:0:
256,192,214526,1,8,0:0:0:0:
256,192,214615,1,8,0:0:0:0:
256,192,214704,1,0,0:0:0:0:
256,192,214793,1,0,0:0:0:0:
256,192,214881,1,8,0:0:0:0:
256,192,214970,1,8,0:0:0:0:
256,192,215059,1,8,0:0:0:0:
256,192,215236,1,4,0:0:0:0:
256,192,215769,1,12,0:0:0:0:
256,192,216124,1,0,0:0:0:0:
256,192,216213,1,0,0:0:0:0:
256,192,216301,1,8,0:0:0:0:
256,192,216390,1,0,0:0:0:0:
256,192,216479,1,0,0:0:0:0:
256,192,216656,1,4,0:0:0:0:
256,192,216923,1,12,0:0:0:0:
256,192,217189,1,4,0:0:0:0:
256,192,217367,1,4,0:0:0:0:
256,192,217722,1,12,0:0:0:0:
256,192,218077,1,4,0:0:0:0:
256,192,218432,1,8,0:0:0:0:
256,192,218609,1,8,0:0:0:0:
256,192,218787,1,0,0:0:0:0:
256,192,218964,1,8,0:0:0:0:
256,192,219053,1,8,0:0:0:0:
256,192,219142,1,0,0:0:0:0:
256,192,219230,1,0,0:0:0:0:
256,192,219319,1,8,0:0:0:0:
256,192,219497,1,8,0:0:0:0:
256,192,219674,1,0,0:0:0:0:
256,192,219763,1,0,0:0:0:0:
256,192,219852,1,8,0:0:0:0:
256,192,220029,1,8,0:0:0:0:
256,192,220207,1,0,0:0:0:0:
256,192,220384,1,8,0:0:0:0:
256,192,220473,1,0,0:0:0:0:
256,192,220562,1,8,0:0:0:0:
256,192,220739,1,8,0:0:0:0:
256,192,220917,1,0,0:0:0:0:
256,192,221006,1,8,0:0:0:0:
256,192,221094,1,0,0:0:0:0:
256,192,221183,1,0,0:0:0:0:
256,192,221272,1,8,0:0:0:0:
256,192,221449,1,8,0:0:0:0:
256,192,221627,1,0,0:0:0:0:
256,192,221804,1,8,0:0:0:0:
256,192,221893,1,8,0:0:0:0:
256,192,221982,1,8,0:0:0:0:
256,192,222159,1,0,0:0:0:0:
256,192,222337,1,8,0:0:0:0:
256,192,222692,1,8,0:0:0:0:
256,192,222870,1,0,0:0:0:0:
256,192,222958,1,0,0:0:0:0:
256,192,223047,1,8,0:0:0:0:
256,192,223225,1,0,0:0:0:0:
256,192,223402,1,8,0:0:0:0:
256,192,223580,1,8,0:0:0:0:
256,192,223668,1,0,0:0:0:0:
256,192,223757,1,0,0:0:0:0:
256,192,223935,1,0,0:0:0:0:
256,192,224112,1,8,0:0:0:0:
256,192,224290,1,8,0:0:0:0:
256,192,224378,1,8,0:0:0:0:
256,192,224467,1,0,0:0:0:0:
256,192,224556,1,8,0:0:0:0:
256,192,224645,1,0,0:0:0:0:
256,192,224822,1,8,0:0:0:0:
256,192,225000,1,0,0:0:0:0:
256,192,225088,1,0,0:0:0:0:
256,192,225177,1,8,0:0:0:0:
256,192,225355,1,0,0:0:0:0:
256,192,225532,1,8,0:0:0:0:
256,192,225710,1,0,0:0:0:0:
256,192,225799,1,8,0:0:0:0:
256,192,225887,1,0,0:0:0:0:
256,192,225976,1,0,0:0:0:0:
256,192,226065,1,0,0:0:0:0:
256,192,226242,1,8,0:0:0:0:
256,192,226420,1,0,0:0:0:0:
256,192,226597,1,8,0:0:0:0:
256,192,226952,1,8,0:0:0:0:
256,192,227130,1,0,0:0:0:0:
256,192,227219,1,0,0:0:0:0:
256,192,227307,1,0,0:0:0:0:
256,192,227485,1,0,0:0:0:0:
256,192,227662,1,8,0:0:0:0:
256,192,227840,1,8,0:0:0:0:
256,192,228017,1,0,0:0:0:0:
256,192,228372,1,8,0:0:0:0:
256,192,228550,1,0,0:0:0:0:
256,192,228639,1,0,0:0:0:0:
256,192,228727,1,8,0:0:0:0:
256,192,228905,1,0,0:0:0:0:
256,192,228994,1,0,0:0:0:0:
256,192,229083,1,8,0:0:0:0:
256,192,229171,1,8,0:0:0:0:
256,192,229260,1,8,0:0:0:0:
256,192,229349,1,8,0:0:0:0:
256,192,229438,1,0,0:0:0:0:
256,192,229615,1,0,0:0:0:0:
256,192,229793,1,8,0:0:0:0:
256,192,229970,1,0,0:0:0:0:
256,192,230059,1,0,0:0:0:0:
256,192,230148,1,0,0:0:0:0:
256,192,230325,1,0,0:0:0:0:
256,192,230503,1,8,0:0:0:0:
256,192,230680,1,0,0:0:0:0:
256,192,230769,1,0,0:0:0:0:
256,192,230858,1,8,0:0:0:0:
256,192,230946,1,8,0:0:0:0:
256,192,231035,1,0,0:0:0:0:
256,192,231213,1,8,0:0:0:0:
256,192,231390,1,0,0:0:0:0:
256,192,231479,1,0,0:0:0:0:
256,192,231568,1,8,0:0:0:0:
256,192,231745,1,0,0:0:0:0:
256,192,231923,1,8,0:0:0:0:
256,192,232100,1,8,0:0:0:0:
256,192,232189,1,8,0:0:0:0:
256,192,232278,1,0,0:0:0:0:
256,192,232367,1,0,0:0:0:0:
256,192,232455,1,0,0:0:0:0:
256,192,232544,1,0,0:0:0:0:
256,192,232633,1,8,0:0:0:0:
256,192,232810,1,0,0:0:0:0:
256,192,233165,1,0,0:0:0:0:
256,192,233343,1,8,0:0:0:0:
256,192,233520,1,0,0:0:0:0:
256,192,233609,1,0,0:0:0:0:
256,192,233698,1,0,0:0:0:0:
256,192,233875,1,0,0:0:0:0:
256,192,234053,1,8,0:0:0:0:
256,192,234230,1,0,0:0:0:0:
256,192,234319,1,0,0:0:0:0:
256,192,234408,1,8,0:0:0:0:
256,192,234497,1,8,0:0:0:0:
256,192,234585,1,0,0:0:0:0:
256,192,234674,1,0,0:0:0:0:
256,192,234763,1,8,0:0:0:0:
256,192,234852,1,8,0:0:0:0:
256,192,234941,1,0,0:0:0:0:
256,192,235118,1,12,0:0:0:0:
256,192,235473,1,8,0:0:0:0:
256,192,235651,1,8,0:0:0:0:
256,192,235739,1,8,0:0:0:0:
256,192,235828,1,0,0:0:0:0:
256,192,236006,1,0,0:0:0:0:
256,192,236183,1,8,0:0:0:0:
256,192,236361,1,0,0:0:0:0:
256,192,236449,1,0,0:0:0:0:
256,192,236538,1,8,0:0:0:0:
256,192,236716,1,0,0:0:0:0:
256,192,236804,1,0,0:0:0:0:
256,192,236893,1,8,0:0:0:0:
256,192,236982,1,8,0:0:0:0:
256,192,237071,1,0,0:0:0:0:
256,192,237248,1,8,0:0:0:0:
256,192,237337,1,8,0:0:0:0:
256,192,237426,1,0,0:0:0:0:
256,192,237514,1,0,0:0:0:0:
256,192,237603,1,8,0:0:0:0:
256,192,237692,1,8,0:0:0:0:
256,192,237781,1,8,0:0:0:0:
256,192,237958,1,4,0:0:0:0:
256,192,239378,1,4,0:0:0:0:
256,192,239645,1,12,0:0:0:0:
256,192,239911,1,4,0:0:0:0:
256,192,240088,1,4,0:0:0:0:
256,192,240355,1,12,0:0:0:0:
256,192,240621,1,4,0:0:0:0:
256,192,240799,1,12,0:0:0:0:
256,192,241154,1,8,0:0:0:0:
256,192,241331,1,0,0:0:0:0:
256,192,241686,1,0,0:0:0:0:
256,192,241864,1,8,0:0:0:0:
256,192,242041,1,8,0:0:0:0:
256,192,242130,1,8,0:0:0:0:
256,192,242219,1,0,0:0:0:0:
256,192,242396,1,0,0:0:0:0:
256,192,242574,1,8,0:0:0:0:
256,192,242751,1,0,0:0:0:0:
256,192,243106,1,8,0:0:0:0:
256,192,243284,1,8,0:0:0:0:
256,192,243639,1,0,0:0:0:0:
256,192,243994,1,8,0:0:0:0:
256,192,244171,1,0,0:0:0:0:
256,192,244526,1,0,0:0:0:0:
256,192,244704,1,8,0:0:0:0:
256,192,244881,1,0,0:0:0:0:
256,192,244970,1,0,0:0:0:0:
256,192,245059,1,8,0:0:0:0:
256,192,245236,1,0,0:0:0:0:
256,192,245414,1,8,0:0:0:0:
256,192,245591,1,8,0:0:0:0:
256,192,245946,1,0,0:0:0:0:
256,192,246124,1,8,0:0:0:0:
256,192,246301,1,0,0:0:0:0:
256,192,246479,1,0,0:0:0:0:
256,192,246834,1,8,0:0:0:0:
256,192,247012,1,0,0:0:0:0:
256,192,247100,1,0,0:0:0:0:
256,192,247189,1,0,0:0:0:0:
256,192,247367,1,0,0:0:0:0:
256,192,247544,1,8,0:0:0:0:
256,192,247722,1,8,0:0:0:0:
256,192,247899,1,0,0:0:0:0:
256,192,248254,1,8,0:0:0:0:
256,192,248432,1,8,0:0:0:0:
256,192,248787,1,0,0:0:0:0:
256,192,248964,1,8,0:0:0:0:
256,192,249319,1,0,0:0:0:0:
256,192,249674,1,8,0:0:0:0:
256,192,249852,1,0,0:0:0:0:
256,192,249941,1,0,0:0:0:0:
256,192,250029,1,0,0:0:0:0:
256,192,250207,1,0,0:0:0:0:
256,192,250384,1,8,0:0:0:0:
256,192,250562,1,0,0:0:0:0:
256,192,250651,1,0,0:0:0:0:
256,192,250739,1,8,0:0:0:0:
256,192,250828,1,8,0:0:0:0:
256,192,250917,1,0,0:0:0:0:
256,192,251094,1,8,0:0:0:0:
256,192,251272,1,12,0:0:0:0:
256,192,251627,1,0,0:0:0:0:
256,192,251716,1,0,0:0:0:0:
256,192,251804,1,8,0:0:0:0:
256,192,251893,1,8,0:0:0:0:
256,192,251982,1,8,0:0:0:0:
256,192,252159,1,4,0:0:0:0:
256,192,252514,1,8,0:0:0:0:
256,192,252870,1,8,0:0:0:0:
256,192,253047,1,0,0:0:0:0:
256,192,253225,1,8,0:0:0:0:
256,192,253402,1,8,0:0:0:0:
256,192,253580,1,0,0:0:0:0:
256,192,253668,1,0,0:0:0:0:
256,192,253757,1,0,0:0:0:0:
256,192,253935,1,8,0:0:0:0:
256,192,254112,1,0,0:0:0:0:
256,192,254290,1,8,0:0:0:0:
256,192,254378,1,8,0:0:0:0:
256,192,254467,1,0,0:0:0:0:
256,192,254556,1,0,0:0:0:0:
256,192,254645,1,8,0:0:0:0:
256,192,254822,1,8,0:0:0:0:
256,192,255000,1,0,0:0:0:0:
256,192,255355,1,8,0:0:0:0:
256,192,255710,1,8,0:0:0:0:
256,192,255887,1,0,0:0:0:0:
256,192,256065,1,8,0:0:0:0:
256,192,256242,1,0,0:0:0:0:
256,192,256331,1,0,0:0:0:0:
256,192,256420,1,0,0:0:0:0:
256,192,256597,1,0,0:0:0:0:
256,192,256775,1,8,0:0:0:0:
256,192,256952,1,0,0:0:0:0:
256,192,257130,1,8,0:0:0:0:
256,192,257219,1,8,0:0:0:0:
256,192,257307,1,0,0:0:0:0:
256,192,257485,1,8,0:0:0:0:
256,192,257574,1,8,0:0:0:0:
256,192,257662,1,8,0:0:0:0:
256,192,257751,1,8,0:0:0:0:
256,192,257840,1,0,0:0:0:0:
256,192,258195,1,8,0:0:0:0:
256,192,258372,1,8,0:0:0:0:
256,192,258550,1,0,0:0:0:0:
256,192,258727,1,0,0:0:0:0:
256,192,258905,1,8,0:0:0:0:
256,192,259260,1,0,0:0:0:0:
256,192,259615,1,8,0:0:0:0:
256,192,259793,1,8,0:0:0:0:
256,192,259881,1,8,0:0:0:0:
256,192,259970,1,0,0:0:0:0:
256,192,260148,1,0,0:0:0:0:
256,192,260325,1,8,0:0:0:0:
256,192,260503,1,8,0:0:0:0:
256,192,260680,1,0,0:0:0:0:
256,192,261035,1,8,0:0:0:0:
256,192,261213,1,8,0:0:0:0:
256,192,261390,1,0,0:0:0:0:
256,192,261568,1,0,0:0:0:0:
256,192,261656,1,0,0:0:0:0:
256,192,261745,1,8,0:0:0:0:
256,192,261923,1,0,0:0:0:0:
256,192,262100,1,8,0:0:0:0:
256,192,262189,1,8,0:0:0:0:
256,192,262278,1,0,0:0:0:0:
256,192,262367,1,0,0:0:0:0:
256,192,262455,1,8,0:0:0:0:
256,192,262633,1,4,0:0:0:0:
256,192,262988,1,8,0:0:0:0:
256,192,263077,1,0,0:0:0:0:
256,192,263165,1,8,0:0:0:0:
256,192,263254,1,8,0:0:0:0:
256,192,263343,1,0,0:0:0:0:
256,192,263432,1,0,0:0:0:0:
256,192,263875,1,12,0:0:0:0:
256,192,264408,1,12,0:0:0:0:
256,192,264941,1,12,0:0:0:0:
256,192,265118,12,0,269201,0:0:0:0:
