osu file format v14

[General]
AudioFilename: garasu.mp3
AudioLeadIn: 0
PreviewTime: 63679
Countdown: 0
SampleSet: Soft
StackLeniency: 0.4
Mode: 0
LetterboxInBreaks: 0
WidescreenStoryboard: 0

[Editor]
Bookmarks: 75928
DistanceSpacing: 0.5
BeatDivisor: 8
GridSize: 32
TimelineZoom: 1.6

[Metadata]
Title:Garasu no Hanazono
TitleUnicode:硝子の花園
Artist:Ayase Eli (CV.Nanjou Yoshino) & Tojo Nozomi (CV.Kusuda Aina)
ArtistUnicode:絢瀬絵里 (CV.南條愛乃) & 東條 希 (CV.楠田亜衣奈)
Creator:-Aqua
Version:newqua's Yuri
Source:ラブライブ!School idol project
Tags:LoveLive! µ's u's Muse Garden of Glass NozoEli Eri newton- Kisses Akitoshi
BeatmapID:1304374
BeatmapSetID:614765

[Difficulty]
HPDrainRate:7.5
CircleSize:4.7
OverallDifficulty:8.5
ApproachRate:9.3
SliderMultiplier:1.6
SliderTickRate:1

[Events]
//Background and Video events
0,0,"homozono.jpg",0,0
//Break Periods
//Storyboard Layer 0 (Background)
//Storyboard Layer 1 (Fail)
//Storyboard Layer 2 (Pass)
//Storyboard Layer 3 (Foreground)
//Storyboard Sound Samples

[TimingPoints]
2082,355.029585798817,4,2,1,70,1,0
7762,-100,4,2,1,80,0,0
29596,-100,4,2,1,80,0,0
30484,-100,4,2,1,60,0,0
41845,-100,4,2,1,65,0,0
53206,-100,4,2,1,70,0,0
64034,-95.2380952380952,4,2,1,60,0,0
64212,-90.9090909090909,4,2,1,60,0,0
64389,-86.9565217391304,4,2,1,60,0,0
64567,-83.3333333333333,4,2,1,85,0,1
84537,-100,4,2,1,30,0,1
85868,-100,4,2,1,85,0,1
87289,-100,4,2,1,80,0,0
111519,-100,4,2,1,15,0,0
115691,-100,4,2,1,5,0,0

[Colours]
Combo1 : 121,210,96
Combo2 : 106,206,215
Combo3 : 146,36,255
Combo4 : 234,230,47

[HitObjects]
290,87,2082,6,0,P|284:142|303:179,1,80,4|0,1:0|0:0,0:0:0:0:
323,200,2348,2,0,P|361:189|400:197,1,80,0|0,1:0|0:0,0:0:0:0:
425,238,2614,2,0,P|488:233|422:209,1,160,4|0,1:0|0:0,0:0:0:0:
323,200,3147,1,2,0:0:0:0:
323,200,3502,6,0,P|285:211|246:203,1,80,0|0,0:0|0:0,0:0:0:0:
175,137,3857,1,2,0:0:0:0:
175,137,3945,1,0,0:0:0:0:
175,137,4034,2,0,L|169:73,1,40
153,231,4212,1,0,0:0:0:0:
153,231,4300,1,0,0:0:0:0:
153,231,4389,2,0,L|147:294,1,40
82,165,4567,2,0,L|76:101,2,40,2|0|0,0:0|0:0|0:0,0:0:0:0:
246,203,4922,6,0,P|284:211|322:199,1,80,4|0,1:0|0:0,0:0:0:0:
358,166,5188,2,0,P|396:154|434:162,1,80,0|0,1:0|0:0,0:0:0:0:
460,202,5454,2,0,P|523:197|457:173,1,160,4|0,1:0|0:0,0:0:0:0:
358,166,5898,1,0,0:0:0:0:
358,166,5987,1,2,0:0:0:0:
358,166,6342,6,0,B|324:187|324:187|228:178,2,120,4|2|0,1:0|0:0|0:0,0:0:0:0:
398,264,7052,2,0,B|431:285|431:285|527:276,2,120,4|2|0,1:0|0:0|0:0,0:0:0:0:
357,361,7762,6,0,P|306:305|230:316,1,160,4|8,1:0|0:0,0:0:0:0:
146,360,8295,2,0,B|124:312|144:281|144:276|161:246|137:197,1,160,2|0,0:0|0:0,0:0:0:0:
91,117,8827,2,0,P|129:105|169:111,1,80,8|0,0:0|0:0,0:0:0:0:
372,173,9182,6,0,P|289:210|222:170,1,160,2|8,0:0|0:0,0:0:0:0:
169,111,9715,2,0,P|92:117|48:180,1,160,2|0,0:0|0:0,0:0:0:0:
92,264,10247,2,0,P|122:239|139:203,1,80,8|0,0:0|0:0,0:0:0:0:
0,263,10602,6,0,P|30:332|141:348,1,160,2|8,0:0|0:0,0:0:0:0:
184,303,11135,2,0,B|232:281|263:301|268:301|298:318|347:294,1,160,2|0,0:0|0:0,0:0:0:0:
429,329,11667,2,0,P|434:289|422:251,1,80,8|0,0:0|0:0,0:0:0:0:
331,62,12022,6,0,P|303:134|342:202,1,160,2|8,0:0|0:0,0:0:0:0:
340,297,12555,2,0,B|298:318|268:301|263:301|232:281|184:303,1,160,2|0,0:0|0:0,0:0:0:0:
100,348,13087,2,0,P|88:310|93:270,1,80,8|0,0:0|0:0,0:0:0:0:
160,130,13442,6,0,P|171:167|166:207,1,80,4|0,0:0|0:0,0:0:0:0:
100,348,13797,2,0,P|88:310|93:270,1,80,8|0,0:0|0:0,0:0:0:0:
247,256,14153,2,0,P|220:286|184:302,1,80,2|0,0:0|0:0,0:0:0:0:
94,174,14508,2,0,P|133:182|165:207,1,80,8|0,0:0|0:0,0:0:0:0:
184,302,14863,6,0,P|220:287|243:156,1,160,2|8,0:0|0:0,0:0:0:0:
185,114,15395,2,0,P|255:82|326:114,1,160,2|0,0:0|0:0,0:0:0:0:
387,188,15928,2,0,P|457:220|479:217,1,80,8|0,0:0|0:0,0:0:0:0:
326,114,16283,6,0,P|255:81|234:85,1,80,4|0,0:0|0:0,0:0:0:0:
158,88,16638,2,0,P|120:80|88:56,1,80,8|0,0:0|0:0,0:0:0:0:
6,107,16993,2,0,P|18:144|12:184,1,80,2|0,0:0|0:0,0:0:0:0:
99,230,17348,2,0,P|124:201|161:186,1,80,8|0,0:0|0:0,0:0:0:0:
179,280,17703,5,2,0:0:0:0:
179,280,17880,2,0,P|191:317|186:357,1,80,0|8,0:0|0:0,0:0:0:0:
99,231,18235,2,0,P|125:201|249:217,1,160,2|0,0:0|0:0,0:0:0:0:
300,278,18768,1,8,0:0:0:0:
300,278,18857,1,2,0:0:0:0:
300,278,18945,2,8,L|363:283,1,40,2|2,0:0|0:0,0:0:0:0:
409,180,19123,6,0,P|369:174|331:187,1,80,4|0,1:0|0:0,0:0:0:0:
300,278,19478,5,8,0:0:0:0:
268,113,19655,1,0,0:0:0:0:
206,297,19833,5,2,0:0:0:0:
332,186,20010,1,0,0:0:0:0:
142,225,20188,5,8,0:0:0:0:
300,278,20366,1,0,0:0:0:0:
300,278,20454,1,0,0:0:0:0:
300,278,20543,5,4,1:0:0:0:
172,133,20721,1,2,0:0:0:0:
111,317,20898,5,8,0:0:0:0:
237,205,21075,1,0,0:0:0:0:
46,244,21253,5,2,0:0:0:0:
206,297,21430,1,0,0:0:0:0:
76,151,21608,5,8,0:0:0:0:
111,317,21786,1,0,0:0:0:0:
252,125,21963,6,0,L|156:133,1,80,4|0,1:0|0:0,0:0:0:0:
142,225,22318,5,8,0:0:0:0:
206,41,22495,1,0,0:0:0:0:
332,186,22673,5,2,0:0:0:0:
173,132,22851,1,0,0:0:0:0:
206,297,23029,5,8,0:0:0:0:
173,132,23206,1,0,0:0:0:0:
332,186,23383,6,0,L|412:193,1,80,4|0,1:0|0:0,0:0:0:0:
206,41,23738,2,0,L|126:47,1,80,8|0,0:0|0:0,0:0:0:0:
46,96,24093,1,2,0:0:0:0:
26,130,24181,1,0,0:0:0:0:
24,170,24270,1,0,0:0:0:0:
39,207,24359,1,0,0:0:0:0:
69,233,24448,1,8,0:0:0:0:
159,141,24626,1,0,0:0:0:0:
245,234,24803,6,0,B|293:212|324:232|329:232|359:249|401:228,1,160,2|8,0:0|0:0,0:0:0:0:
450,310,25336,2,0,P|480:284|466:159,1,160,2|0,0:0|0:0,0:0:0:0:
391,132,25868,2,0,P|385:86|400:47,1,80,8|0,0:0|0:0,0:0:0:0:
401,228,26224,6,0,B|359:249|329:232|324:232|293:212|245:234,1,160,2|8,0:0|0:0,0:0:0:0:
168,290,26756,2,0,P|150:214|196:152,1,160,2|0,0:0|0:0,0:0:0:0:
278,102,27289,2,0,P|283:56|268:17,1,80,8|0,0:0|0:0,0:0:0:0:
40,146,27644,6,0,B|82:167|112:150|117:150|148:130|196:152,1,160,2|8,0:0|0:0,0:0:0:0:
278,102,28176,2,0,P|353:84|415:130,1,160,2|0,0:0|0:0,0:0:0:0:
433,225,28709,2,0,P|427:270|442:309,1,80,8|0,0:0|0:0,0:0:0:0:
322,230,29064,5,2,0:0:0:0:
322,230,29241,2,0,P|283:223|245:233,1,80,0|8,0:0|0:0,0:0:0:0:
157,273,29596,2,0,P|97:241|167:214,1,160,2|0,0:0|0:0,0:0:0:0:
245,233,30129,1,8,0:0:0:0:
270,238,30217,1,0,0:0:0:0:
297,237,30306,1,0,0:0:0:0:
322,228,30395,1,0,0:0:0:0:
358,139,30484,6,0,P|319:132|280:143,1,80,4|0,1:0|0:0,0:0:0:0:
418,216,30839,2,0,P|443:186|453:147,1,80,2|0,0:0|0:0,0:0:0:0:
322,229,31194,2,0,P|334:265|363:294,1,80
418,216,31549,1,2,0:0:0:0:
254,319,31726,6,0,B|212:340|182:323|177:323|146:303|98:325,1,160,0|0,0:0|0:0,0:0:0:0:
8,359,32259,1,2,0:0:0:0:
23,264,32437,2,0,B|44:222|27:192|27:187|7:156|29:108,1,160,0|0,0:0|0:0,0:0:0:0:
114,151,32969,2,0,P|153:157|191:147,1,80,2|0,0:0|0:0,0:0:0:0:
276,103,33324,6,0,P|314:92|353:99,1,80,0|0,0:0|0:0,0:0:0:0:
359,255,33679,2,0,P|330:226|317:189,1,80,2|0,0:0|0:0,0:0:0:0:
353,99,34034,1,0,0:0:0:0:
413,176,34212,1,0,0:0:0:0:
317,189,34389,1,2,0:0:0:0:
449,86,34567,6,0,P|509:166|478:249,1,160,0|0,0:0|0:0,0:0:0:0:
413,176,35099,1,2,0:0:0:0:
317,189,35277,2,0,B|275:210|245:193|240:193|209:173|161:195,1,160,0|0,0:0|0:0,0:0:0:0:
72,230,35809,2,0,P|65:190|75:152,1,80,2|0,0:0|0:0,0:0:0:0:
161,194,36164,6,0,P|167:233|157:271,1,80,0|0,0:0|0:0,0:0:0:0:
3,265,36519,2,0,P|33:239|71:229,1,80,2|0,0:0|0:0,0:0:0:0:
144,367,36874,2,0,P|106:353|78:325,1,80,0|0,0:0|0:0,0:0:0:0:
71,229,37229,1,2,0:0:0:0:
244,313,37407,6,0,B|286:334|316:317|321:317|352:297|400:319,1,160,0|0,0:0|0:0,0:0:0:0:
490,353,37939,1,2,0:0:0:0:
475,258,38117,2,0,B|454:216|471:186|471:181|491:150|469:102,1,160,0|0,0:0|0:0,0:0:0:0:
382,145,38650,2,0,P|342:151|304:141,1,80,2|0,0:0|0:0,0:0:0:0:
218,98,39005,6,0,P|208:136|214:175,1,80,0|0,0:0|0:0,0:0:0:0:
369,183,39360,2,0,P|340:155|303:140,1,80,2|0,0:0|0:0,0:0:0:0:
219,271,39715,2,0,P|257:260|288:235,1,80,0|0,0:0|0:0,0:0:0:0:
303,140,40070,1,2,0:0:0:0:
218,271,40247,6,0,B|258:269|288:235|288:235|299:277|335:296,1,160
133,229,40780,2,0,P|123:267|129:306,1,80,2|0,0:0|0:0,0:0:0:0:
213,175,41135,2,0,P|222:136|216:97,1,80,0|0,0:0|0:0,0:0:0:0:
170,25,41490,1,0,0:0:0:0:
142,53,41578,1,0,0:0:0:0:
131,91,41667,1,0,0:0:0:0:
139,130,41756,1,0,0:0:0:0:
216,96,41845,6,0,P|254:86|293:92,1,80,4|0,1:0|0:0,0:0:0:0:
379,136,42200,2,0,P|388:97|382:58,1,80,8|0,0:0|0:0,0:0:0:0:
297,187,42555,1,0,0:0:0:0:
382,58,42732,1,0,0:0:0:0:
297,187,42910,1,8,0:0:0:0:
382,58,43087,1,0,0:0:0:0:
297,187,43265,6,0,P|287:225|293:264,1,80,0|0,0:0|0:0,0:0:0:0:
337,350,43620,2,0,P|298:359|259:353,1,80,8|0,0:0|0:0,0:0:0:0:
197,279,43975,1,0,0:0:0:0:
337,350,44153,1,0,0:0:0:0:
197,279,44330,1,8,0:0:0:0:
337,350,44508,1,0,0:0:0:0:
197,279,44685,6,0,P|157:272|119:282,1,80,4|0,1:0|0:0,0:0:0:0:
47,346,45040,1,8,0:0:0:0:
47,346,45218,2,0,P|83:288|90:181,1,160,0|0,0:0|0:0,0:0:0:0:
55,110,45750,2,0,P|48:70|58:32,1,80,8|0,0:0|0:0,0:0:0:0:
93,198,46105,5,4,1:0:0:0:
93,198,46283,2,0,P|99:237|89:275,1,80,0|8,0:0|0:0,0:0:0:0:
36,356,46638,1,0,0:0:0:0:
132,362,46815,1,0,0:0:0:0:
167,357,46903,1,0,0:0:0:0:
201,352,46992,1,0,0:0:0:0:
236,347,47081,1,0,0:0:0:0:
272,344,47170,2,0,P|311:350|349:340,1,80,8|0,0:0|0:0,0:0:0:0:
424,279,47525,6,0,B|446:231|426:200|426:195|409:165|430:123,1,160,4|8,1:0|0:0,0:0:0:0:
487,46,48058,2,0,P|411:28|347:74,1,160,0|0,0:0|0:0,0:0:0:0:
289,148,48590,2,0,P|250:158|211:152,1,80,8|0,0:0|0:0,0:0:0:0:
125,109,48945,6,0,P|114:147|120:186,1,80,0|0,0:0|0:0,0:0:0:0:
206,230,49300,2,0,P|216:191|211:152,1,80,8|0,0:0|0:0,0:0:0:0:
120,186,49655,2,0,P|81:196|49:220,1,80,0|0,0:0|0:0,0:0:0:0:
125,281,50010,2,0,P|153:309|189:324,1,80,8|0,0:0|0:0,0:0:0:0:
280,291,50366,6,0,B|328:269|359:289|364:289|394:306|436:285,1,160,4|8,1:0|0:0,0:0:0:0:
497,212,50898,2,0,P|529:264|494:361,2,160,2|2|2,0:0|0:0|0:0,0:0:0:0:
418,156,51786,6,0,B|370:134|339:154|334:154|304:171|262:150,1,160,4|8,1:0|0:0,0:0:0:0:
201,77,52318,2,0,P|149:45|52:80,1,160,2|0,0:0|0:0,0:0:0:0:
134,210,52851,2,0,P|139:170|128:132,1,80,8|0,0:0|0:0,0:0:0:0:
62,270,53206,6,0,P|93:294|132:303,1,80,4|0,1:0|0:0,0:0:0:0:
204,242,53561,2,0,P|172:217|133:209,1,80,8|0,0:0|0:0,0:0:0:0:
132,303,53916,5,0,0:0:0:0:
276,181,54093,1,0,0:0:0:0:
99,118,54271,5,8,0:0:0:0:
204,242,54448,1,0,0:0:0:0:
334,108,54626,6,0,P|298:91|258:89,1,80,4|0,1:0|0:0,0:0:0:0:
276,181,54981,2,0,P|311:198|351:200,1,80,8|0,0:0|0:0,0:0:0:0:
334,108,55336,5,0,0:0:0:0:
204,242,55513,1,0,0:0:0:0:
99,118,55691,5,8,0:0:0:0:
276,181,55868,1,0,0:0:0:0:
44,344,56046,6,0,P|43:304|61:269,1,80,4|0,1:0|0:0,0:0:0:0:
170,322,56401,5,8,0:0:0:0:
208,331,56489,1,0,0:0:0:0:
247,325,56578,1,0,0:0:0:0:
287,318,56667,1,0,0:0:0:0:
325,327,56756,2,0,P|365:318|324:296,1,80,4|0,1:0|0:0,0:0:0:0:
147,185,57111,5,8,0:0:0:0:
127,219,57199,1,0,0:0:0:0:
125,259,57288,1,0,0:0:0:0:
140,296,57377,1,0,0:0:0:0:
170,322,57466,1,4,1:0:0:0:
295,209,57644,5,0,0:0:0:0:
263,233,57732,1,0,0:0:0:0:
225,243,57821,1,8,0:0:0:0:
139,107,57999,5,0,0:0:0:0:
139,107,58176,2,0,P|151:145|147:185,1,80,4|0,1:0|0:0,0:0:0:0:
80,260,58531,2,0,P|77:311|99:353,1,80,8|0,0:0|0:0,0:0:0:0:
225,243,58886,6,0,P|282:202|371:237,1,160,4|8,1:0|0:0,0:0:0:0:
447,272,59419,2,0,B|469:224|449:193|449:188|432:158|453:116,1,160
470,22,59951,2,0,P|418:23|379:49,1,80,8|0,0:0|0:0,0:0:0:0:
308,84,60306,6,0,P|256:116|159:81,1,160,4|8,1:0|0:0,0:0:0:0:
76,54,60839,2,0,B|54:102|74:133|74:138|91:168|70:210,1,160
23,292,61371,2,0,P|60:304|100:299,1,80,8|0,0:0|0:0,0:0:0:0:
76,54,61726,5,4,1:0:0:0:
70,209,62259,1,4,1:0:0:0:
76,54,62792,1,0,0:0:0:0:
76,54,63147,5,4,1:0:0:0:
76,54,63857,5,2,0:0:0:0:
99,86,63945,1,0,0:0:0:0:
129,112,64034,1,2,0:0:0:0:
165,131,64123,1,0,0:0:0:0:
199,147,64212,6,0,P|205:173|217:182,1,22.0000006713867,4|0,1:0|0:0,0:0:0:0:
239,151,64300,2,0,P|245:177|257:186,1,22.0000006713867,4|0,1:0|0:0,0:0:0:0:
275,149,64389,2,0,P|290:171|305:175,1,23.0000004386902,2|0,0:0|0:0,0:0:0:0:
312,142,64478,2,0,P|327:164|342:168,1,23.0000004386902,2|0,0:0|0:0,0:0:0:0:
353,132,64567,6,0,P|414:126|478:174,1,143.999995605469,4|0,1:0|0:0,0:0:0:0:
482,196,64922,1,8,0:0:0:0:
392,225,65099,2,0,P|321:221|267:266,1,143.999995605469,2|0,0:0|0:0,0:0:0:0:
258,287,65454,1,2,0:0:0:0:
353,315,65632,1,8,0:0:0:0:
353,132,65809,1,0,0:0:0:0:
202,209,65987,6,0,P|163:268|175:338,1,143.999995605469,2|0,0:0|0:0,0:0:0:0:
187,357,66342,1,8,0:0:0:0:
297,202,66519,2,0,P|265:139|199:114,1,143.999995605469,2|0,0:0|0:0,0:0:0:0:
175,117,66874,1,0,0:0:0:0:
202,209,67052,1,8,0:0:0:0:
288,43,67229,1,0,0:0:0:0:
432,198,67407,6,0,B|416:166|435:126|435:122|448:97|429:57,1,143.999995605469,2|0,0:0|0:0,0:0:0:0:
418,36,67762,1,8,0:0:0:0:
474,274,67939,2,0,B|434:293|409:280|405:280|365:261|330:278,1,143.999995605469,2|0,0:0|0:0,0:0:0:0:
310,284,68295,1,2,0:0:0:0:
364,384,68472,1,8,0:0:0:0:
424,163,68650,1,0,0:0:0:0:
302,280,68827,6,0,B|262:299|237:286|233:286|193:267|158:284,1,143.999995605469,2|0,0:0|0:0,0:0:0:0:
138,290,69182,1,8,0:0:0:0:
42,354,69360,2,0,P|26:284|50:217,1,143.999995605469,2|0,0:0|0:0,0:0:0:0:
64,198,69715,1,2,0:0:0:0:
204,159,69892,2,0,P|216:113|207:66,1,95.9999970703126,8|0,0:0|0:0,0:0:0:0:
12,70,70247,6,0,P|21:141|64:198,1,143.999995605469,4|0,1:0|0:0,0:0:0:0:
85,208,70602,1,8,0:0:0:0:
204,159,70780,2,0,B|244:140|269:153|273:153|313:172|348:155,1,143.999995605469,2|0,0:0|0:0,0:0:0:0:
367,148,71136,1,2,0:0:0:0:
454,79,71312,1,8,0:0:0:0:
351,38,71490,1,2,0:0:0:0:
383,258,71667,6,0,P|419:289|464:302,1,95.9999970703126,2|0,0:0|0:0,0:0:0:0:
472,189,72022,2,0,P|481:143|469:97,1,95.9999970703126,8|0,0:0|0:0,0:0:0:0:
367,148,72377,2,0,P|320:156|274:144,1,95.9999970703126,2|0,0:0|0:0,0:0:0:0:
230,38,72732,2,0,P|276:29|322:41,1,95.9999970703126,8|0,0:0|0:0,0:0:0:0:
367,148,73087,6,0,B|307:173|274:142|266:142|228:118|174:144,1,191.999994140625,2|8,0:0|0:0,0:0:0:0:
133,246,73620,1,0,0:0:0:0:
133,246,73797,2,0,P|179:254|225:242,1,95.9999970703126,2|0,0:0|0:0,0:0:0:0:
180,141,74153,2,0,P|164:96|130:62,1,95.9999970703126,8|0,0:0|0:0,0:0:0:0:
66,153,74508,6,0,P|34:189|23:234,1,95.9999970703126,2|0,0:0|0:0,0:0:0:0:
133,246,74863,2,0,P|179:233|225:242,1,95.9999970703126,8|0,0:0|0:0,0:0:0:0:
333,286,75218,2,0,P|379:294|425:282,1,95.9999970703126,2|0,0:0|0:0,0:0:0:0:
470,176,75573,2,0,P|423:167|377:179,1,95.9999970703126,8|0,0:0|0:0,0:0:0:0:
133,246,75928,5,4,1:0:0:0:
295,195,76105,1,0,0:0:0:0:
85,182,76283,5,8,0:0:0:0:
332,263,76460,1,0,0:0:0:0:
69,302,76638,5,2,0:0:0:0:
378,199,76815,1,0,0:0:0:0:
133,71,76993,5,8,0:0:0:0:
470,176,77170,1,0,0:0:0:0:
216,216,77348,5,4,1:0:0:0:
337,51,77525,1,0,0:0:0:0:
136,192,77703,5,8,0:0:0:0:
406,280,77880,1,0,0:0:0:0:
240,24,78058,5,2,0:0:0:0:
313,249,78235,1,0,0:0:0:0:
40,248,78413,5,8,0:0:0:0:
393,362,78590,1,0,0:0:0:0:
213,174,78768,5,4,1:0:0:0:
339,79,78945,1,0,0:0:0:0:
339,79,79123,1,8,0:0:0:0:
309,180,79300,2,0,P|300:227|312:273,1,95.9999970703126,0|2,0:0|0:0,0:0:0:0:
361,366,79655,2,0,P|314:377|268:368,1,95.9999970703126,0|8,0:0|0:0,0:0:0:0:
476,301,80010,1,0,0:0:0:0:
309,180,80188,6,0,L|213:174,1,95.9999970703126,2|0,0:0|0:0,0:0:0:0:
262,268,80543,2,0,L|357:273,1,95.9999970703126,8|0,0:0|0:0,0:0:0:0:
451,224,80898,1,2,0:0:0:0:
481,198,80987,1,0,0:0:0:0:
496,161,81076,1,0,0:0:0:0:
494,121,81165,1,0,0:0:0:0:
474,87,81253,1,8,0:0:0:0:
378,42,81431,1,0,0:0:0:0:
286,218,81608,6,0,P|211:162|120:184,1,191.999994140625,4|8,1:0|0:0,0:0:0:0:
63,274,82141,1,0,0:0:0:0:
0,214,82318,2,0,L|10:14,1,191.999994140625,2|8,0:0|0:0,0:0:0:0:
80,128,82851,1,0,0:0:0:0:
336,48,83028,5,2,0:0:0:0:
256,256,83206,1,0,0:0:0:0:
176,48,83383,5,8,0:0:0:0:
256,336,83561,1,0,0:0:0:0:
384,160,83738,6,0,P|392:137|392:113,1,47.9999985351563,2|0,0:0|0:0,0:0:0:0:
183,241,83916,2,0,P|183:265|192:288,1,47.9999985351563
320,288,84093,6,0,P|328:265|328:241,1,47.9999985351563,8|0,0:0|0:0,0:0:0:0:
119,113,84271,2,0,P|119:137|128:160,1,47.9999985351563
256,32,84448,5,4,1:0:0:0:
256,192,84537,12,0,85691,0:0:0:0:
318,234,85868,6,0,B|352:213|352:213|448:222,2,120,4|2|0,1:0|0:0|0:0,0:0:0:0:
253,326,86579,2,0,B|173:333|173:333|139:312,2,120,4|2|0,1:0|0:0|0:0,0:0:0:0:
420,179,87289,6,0,P|344:191|291:134,1,160,4|8,1:0|0:0,0:0:0:0:
218,50,87821,2,0,L|58:41,1,160,2|0,0:0|0:0,0:0:0:0:
212,130,88354,2,0,L|291:134,1,80,8|0,0:0|0:0,0:0:0:0:
425,335,88709,6,0,B|403:287|423:256|423:251|440:221|416:172,1,160,2|8,0:0|0:0,0:0:0:0:
317,224,89241,2,0,P|264:279|188:267,1,160,2|0,0:0|0:0,0:0:0:0:
38,293,89774,2,0,P|67:266|106:254,1,80,8|0,0:0|0:0,0:0:0:0:
317,224,90129,6,0,P|400:224|477:215,1,160,2|8,0:0|0:0,0:0:0:0:
480,326,90661,2,0,P|427:381|351:369,1,160,2|0,0:0|0:0,0:0:0:0:
317,224,91194,2,0,P|329:186|323:146,1,80,8|0,0:0|0:0,0:0:0:0:
222,325,91549,6,0,P|297:312|350:368,1,160,2|8,0:0|0:0,0:0:0:0:
462,378,92082,2,0,B|484:330|464:299|464:294|447:264|467:221,1,160,2|0,0:0|0:0,0:0:0:0:
323,146,92614,2,0,P|285:158|245:152,1,80,8|0,0:0|0:0,0:0:0:0:
150,7,92969,6,0,P|144:46|156:84,1,80,4|0,0:0|0:0,0:0:0:0:
245,152,93324,2,0,P|250:191|238:229,1,80,8|0,0:0|0:0,0:0:0:0:
79,274,93679,2,0,L|158:278,1,80,2|0,0:0|0:0,0:0:0:0:
229,364,94034,2,0,L|150:360,1,80,8|0,0:0|0:0,0:0:0:0:
116,195,94389,6,0,P|168:139|244:151,1,160,2|8,0:0|0:0,0:0:0:0:
350,188,94922,2,0,P|425:200|478:144,1,160,2|0,0:0|0:0,0:0:0:0:
507,261,95454,2,0,L|511:340,1,80,8|0,0:0|0:0,0:0:0:0:
350,188,95809,6,0,P|310:182|272:194,1,80,4|0,0:0|0:0,0:0:0:0:
320,296,96164,2,0,P|359:301|397:289,1,80,8|0,0:0|0:0,0:0:0:0:
413,96,96519,2,0,L|417:17,1,80,2|0,0:0|0:0,0:0:0:0:
306,34,96874,2,0,L|302:113,1,80,8|0,0:0|0:0,0:0:0:0:
353,213,97229,5,2,0:0:0:0:
353,213,97407,2,0,P|315:224|275:219,1,80,0|8,0:0|0:0,0:0:0:0:
71,185,97762,2,0,P|123:129|199:141,1,160,2|0,0:0|0:0,0:0:0:0:
249,167,98206,1,0,0:0:0:0:
286,182,98294,1,8,0:0:0:0:
325,179,98383,1,0,0:0:0:0:
359,158,98472,1,0,0:0:0:0:
397,147,98561,1,0,0:0:0:0:
449,166,98650,6,0,L|445:245,1,80,4|0,1:0|0:0,0:0:0:0:
321,349,99005,2,0,L|317:270,1,80,8|0,0:0|0:0,0:0:0:0:
299,96,99360,5,2,0:0:0:0:
454,36,99537,1,0,0:0:0:0:
184,16,99715,5,8,0:0:0:0:
376,66,99892,1,0,0:0:0:0:
219,154,100070,6,0,L|140:150,1,80,4|2,1:0|0:0,0:0:0:0:
237,273,100425,2,0,L|316:269,1,80,8|0,0:0|0:0,0:0:0:0:
441,154,100780,5,2,0:0:0:0:
403,315,100957,1,0,0:0:0:0:
346,51,101135,5,8,0:0:0:0:
422,234,101312,1,0,0:0:0:0:
346,51,101490,6,0,P|357:89|352:129,1,80,4|0,1:0|0:0,0:0:0:0:
237,273,101845,2,0,P|225:236|230:196,1,80,8|0,0:0|0:0,0:0:0:0:
346,51,102200,5,2,0:0:0:0:
190,94,102377,1,0,0:0:0:0:
451,141,102555,5,8,0:0:0:0:
268,72,102732,1,0,0:0:0:0:
351,177,102910,6,0,P|406:124|394:48,1,160,4|8,1:0|0:0,0:0:0:0:
288,14,103442,1,0,0:0:0:0:
228,109,103620,1,2,0:0:0:0:
191,124,103708,1,0,0:0:0:0:
152,121,103797,1,0,0:0:0:0:
118,100,103886,1,0,0:0:0:0:
80,89,103975,1,8,0:0:0:0:
3,170,104153,1,0,0:0:0:0:
96,320,104330,6,0,B|144:342|175:322|180:322|210:305|253:325,1,160,4|8,1:0|0:0,0:0:0:0:
362,303,104863,2,0,P|307:250|319:174,1,160,2|0,0:0|0:0,0:0:0:0:
387,45,105395,2,0,P|399:82|394:122,1,80,8|0,0:0|0:0,0:0:0:0:
159,182,105750,6,0,P|238:182|318:173,1,160,2|8,0:0|0:0,0:0:0:0:
405,243,106283,2,0,P|417:318|362:372,1,160,2|0,0:0|0:0,0:0:0:0:
405,243,106815,2,0,P|442:231|482:236,1,80,8|0,0:0|0:0,0:0:0:0:
340,293,107170,6,0,B|298:312|268:295|263:295|232:275|184:297,1,160,2|8,0:0|0:0,0:0:0:0:
81,251,107703,2,0,P|25:197|38:121,1,160,2|0,0:0|0:0,0:0:0:0:
193,167,108235,2,0,P|232:172|270:160,1,80,8|0,0:0|0:0,0:0:0:0:
367,58,108590,5,2,0:0:0:0:
405,243,108768,1,0,0:0:0:0:
270,159,108945,1,8,0:0:0:0:
206,326,109123,6,0,B|254:348|285:328|290:328|320:311|362:330,1,160,2|0,0:0|0:0,0:0:0:0:
475,194,109655,1,2,0:0:0:0:
491,231,109744,1,0,0:0:0:0:
487,270,109833,1,0,0:0:0:0:
466,304,109922,1,0,0:0:0:0:
64,64,110366,6,0,L|224:73,1,160,4|0,1:0|0:0,0:0:0:0:
405,243,110898,2,0,L|245:252,1,160,4|0,1:0|0:0,0:0:0:0:
32,352,111431,1,4,1:0:0:0:
256,192,111519,12,0,115691,0:0:0:0:
