osu file format v14

[General]
AudioFilename: garasu.mp3
AudioLeadIn: 0
PreviewTime: 63679
Countdown: 0
SampleSet: Soft
StackLeniency: 0.7
Mode: 0
LetterboxInBreaks: 0
WidescreenStoryboard: 0

[Editor]
Bookmarks: 15395,24803,28176
DistanceSpacing: 1.3
BeatDivisor: 4
GridSize: 32
TimelineZoom: 1.6

[Metadata]
Title:Garasu no Hanazono
TitleUnicode:硝子の花園
Artist:Ayase Eli (CV.Nanjou Yoshino) & Tojo Nozomi (CV.Kusuda Aina)
ArtistUnicode:絢瀬絵里 (CV.南條愛乃) & 東條 希 (CV.楠田亜衣奈)
Creator:-Aqua
Version:Normal
Source:ラブライブ!School idol project
Tags:LoveLive! µ's u's Muse Garden of Glass NozoEli Eri newton- Kisses Akitoshi
BeatmapID:1296827
BeatmapSetID:614765

[Difficulty]
HPDrainRate:4
CircleSize:3.5
OverallDifficulty:4
ApproachRate:5
SliderMultiplier:1.2
SliderTickRate:1

[Events]
//Background and Video events
0,0,"homozono.jpg",0,0
//Break Periods
//Storyboard Layer 0 (Background)
//Storyboard Layer 1 (Fail)
//Storyboard Layer 2 (Pass)
//Storyboard Layer 3 (Foreground)
//Storyboard Sound Samples

[TimingPoints]
2082,355.029585798817,4,2,1,65,1,0
7762,-100,4,2,1,70,0,0
29596,-100,4,2,1,65,0,0
30484,-100,4,2,1,55,0,0
63857,-100,4,2,1,55,0,0
64567,-100,4,2,1,75,0,1
87289,-100,4,2,1,65,0,0
111786,-100,4,2,1,15,0,0
115691,-100,4,2,1,5,0,0

[Colours]
Combo1 : 121,210,96
Combo2 : 106,206,215
Combo3 : 146,36,255
Combo4 : 234,230,47

[HitObjects]
64,96,2082,6,0,L|178:106,1,90,4|0,1:0|1:0,0:0:0:0:
269,118,2614,1,4,1:0:0:0:
256,192,2792,12,0,4212,0:0:0:0:
448,288,4922,6,0,L|358:280,1,90,4|0,1:0|1:0,0:0:0:0:
262,346,5454,2,0,L|136:357,1,120,4|0,1:0|0:0,0:0:0:0:
76,320,5987,1,2,0:0:0:0:
14,176,6342,6,0,P|-2:128|14:80,2,90,4|2|0,1:0|0:0|0:0,0:0:0:0:
69,234,7052,2,0,P|85:282|69:330,2,90,4|2|0,1:0|0:0|0:0,0:0:0:0:
14,176,7762,6,0,L|141:164,1,120,4|8,1:0|0:0,0:0:0:0:
192,218,8295,2,0,P|262:232|315:184,1,120,2|0,0:0|0:0,0:0:0:0:
358,155,8827,1,8,0:0:0:0:
424,296,9182,2,0,L|418:355,2,60,2|0|8,0:0|0:0|0:0,0:0:0:0:
455,224,9715,2,0,P|481:171|464:115,1,120,2|0,0:0|0:0,0:0:0:0:
395,78,10247,2,0,P|366:82|331:70,1,60,8|0,0:0|0:0,0:0:0:0:
264,43,10602,6,0,B|235:31|208:43|200:43|175:55|144:43,1,120,4|8,1:0|0:0,0:0:0:0:
70,21,11135,2,0,L|81:148,1,120,2|0,0:0|0:0,0:0:0:0:
135,195,11667,1,8,0:0:0:0:
67,335,12022,2,0,L|7:329,2,60,2|0|8,0:0|0:0|0:0,0:0:0:0:
145,335,12555,2,0,P|197:308|253:325,1,120,2|0,0:0|0:0,0:0:0:0:
327,347,13087,2,0,P|355:355|384:351,1,60,8|0,0:0|0:0,0:0:0:0:
454,314,13442,5,4,0:0:0:0:
364,186,13797,2,0,L|353:59,1,120,8|2,0:0|0:0,0:0:0:0:
222,151,14508,1,8,0:0:0:0:
118,34,14863,2,0,B|89:46|62:34|54:34|29:22|-2:34,1,120,2|8,0:0|0:0,0:0:0:0:
24,107,15395,2,0,P|51:159|34:215,1,120,2|0,0:0|0:0,0:0:0:0:
1,286,15928,1,8,0:0:0:0:
131,372,16283,5,4,0:0:0:0:
204,234,16638,2,0,L|323:244,1,120,8|2,0:0|0:0,0:0:0:0:
437,350,17348,1,8,0:0:0:0:
481,200,17703,1,2,0:0:0:0:
481,200,17880,2,0,P|476:170|484:141,1,60,0|8,0:0|0:0,0:0:0:0:
507,67,18235,2,0,B|478:55|451:67|443:67|418:79|387:67,1,120,2|0,0:0|0:0,0:0:0:0:
315,40,18768,1,8,0:0:0:0:
245,182,19123,6,0,P|193:209|137:192,1,120,4|8,1:0|0:0,0:0:0:0:
8,102,19833,2,0,L|13:38,1,60,2|0,0:0|0:0,0:0:0:0:
89,56,20188,2,0,L|83:119,1,60,8|0,0:0|0:0,0:0:0:0:
57,189,20543,6,0,B|49:229|49:229|65:269|65:269|57:309,1,120,4|8,1:0|0:0,0:0:0:0:
206,353,21253,2,0,P|234:361|264:356,1,60,2|0,0:0|0:0,0:0:0:0:
322,304,21608,2,0,P|351:299|380:307,1,60,8|0,0:0|0:0,0:0:0:0:
452,336,21963,6,0,L|462:217,1,120,4|8,1:0|0:0,0:0:0:0:
356,101,22673,2,0,B|324:93|324:93|292:101,1,60,2|0,0:0|0:0,0:0:0:0:
232,143,23028,2,0,B|205:149|205:149|173:141,1,60,8|0,0:0|0:0,0:0:0:0:
97,123,23383,2,0,L|107:242,1,120,4|8,1:0|0:0,0:0:0:0:
175,280,23916,2,0,P|227:253|283:270,1,120,2|0,0:0|0:0,0:0:0:0:
345,316,24448,1,8,0:0:0:0:
496,278,24803,6,0,B|508:249|496:222|496:214|484:189|496:158,1,120,2|8,0:0|0:0,0:0:0:0:
466,87,25336,2,0,L|347:77,1,120,2|0,0:0|0:0,0:0:0:0:
274,107,25868,1,8,0:0:0:0:
153,206,26224,2,0,L|143:87,1,120,2|8,0:0|0:0,0:0:0:0:
178,17,26756,2,0,P|234:0|285:27,1,120,2|0,0:0|0:0,0:0:0:0:
346,76,27289,1,8,0:0:0:0:
492,23,27644,6,0,B|500:63|500:63|484:103|484:103|492:143,1,120,2|8,0:0|0:0,0:0:0:0:
468,212,28176,2,0,B|439:224|412:212|404:212|379:200|348:212,1,120,2|0,0:0|0:0,0:0:0:0:
283,251,28709,1,8,0:0:0:0:
144,321,29064,2,0,L|85:315,2,60,2|0|8,0:0|0:0|0:0,0:0:0:0:
221,327,29596,1,2,0:0:0:0:
454,340,30129,2,0,P|462:312|457:282,1,60,8|0,0:0|0:0,0:0:0:0:
407,222,30484,6,0,L|417:103,1,120,4|2,1:0|0:0,0:0:0:0:
340,115,31016,2,0,P|288:142|232:125,1,120
174,72,31549,1,2,0:0:0:0:
36,144,31904,2,0,L|30:85,2,60,0|0|2,0:0|0:0|0:0,0:0:0:0:
70,214,32437,2,0,B|99:226|126:214|134:214|159:202|190:214,1,120
256,250,32969,1,2,0:0:0:0:
360,365,33324,6,0,P|387:313|370:257,1,120,0|2,0:0|0:0,0:0:0:0:
316,199,33857,2,0,P|299:142|326:91,1,120
380,35,34389,1,2,0:0:0:0:
224,44,34744,2,0,B|184:52|184:52|144:36|144:36|104:44,1,120,0|2,0:0|0:0,0:0:0:0:
33,64,35277,2,0,L|27:5,2,60
42,141,35809,1,2,0:0:0:0:
179,214,36164,6,0,B|208:226|235:214|243:214|268:202|299:214,1,120,0|2,0:0|0:0,0:0:0:0:
367,247,36697,2,0,P|383:303|356:354,1,120
281,378,37229,1,2,0:0:0:0:
152,289,37584,2,0,L|146:348,2,60,0|0|2,0:0|0:0|0:0,0:0:0:0:
179,214,38117,2,0,B|187:174|187:174|171:134|171:134|179:94,1,120
211,27,38650,1,2,0:0:0:0:
286,163,39005,6,0,P|337:189|393:173,1,120,0|2,0:0|0:0,0:0:0:0:
471,160,39537,2,0,L|461:279,1,120
404,333,40070,1,2,0:0:0:0:
249,356,40425,2,0,B|220:368|193:356|185:356|160:344|129:356,1,120,0|2,0:0|0:0,0:0:0:0:
56,379,40957,1,0,0:0:0:0:
45,301,41135,2,0,L|51:242,2,60,0|0|2,0:0|0:0|0:0,0:0:0:0:
202,278,41845,6,0,L|321:268,1,120,4|8,1:0|0:0,0:0:0:0:
210,158,42555,2,0,L|91:168,1,120,0|8,0:0|0:0,0:0:0:0:
166,31,43265,2,0,P|217:5|273:21,1,120,0|8,0:0|0:0,0:0:0:0:
388,128,43975,1,0,0:0:0:0:
505,26,44330,1,8,0:0:0:0:
501,181,44685,6,0,B|489:210|501:237|501:245|513:270|501:301,1,120,4|8,1:0|0:0,0:0:0:0:
436,341,45218,2,0,B|396:349|396:349|356:333|356:333|316:341,1,120
248,369,45750,1,8,0:0:0:0:
152,245,46105,2,0,L|146:304,2,60,4|0|8,1:0|0:0|0:0,0:0:0:0:
216,201,46638,2,0,P|233:145|207:92,1,120
140,52,47170,1,8,0:0:0:0:
292,19,47525,6,0,L|411:9,1,120,4|8,1:0|0:0,0:0:0:0:
480,46,48058,2,0,B|492:75|480:102|480:110|468:135|480:166,1,120
501,238,48590,1,8,0:0:0:0:
364,161,48945,2,0,P|308:144|255:170,1,120,0|8,0:0|0:0,0:0:0:0:
201,226,49478,2,0,P|148:251|92:234,1,120
37,178,50010,1,8,0:0:0:0:
96,33,50366,6,0,L|215:43,1,120,4|8,1:0|0:0,0:0:0:0:
255,109,50898,2,0,L|374:99,1,120
451,86,51431,1,8,0:0:0:0:
480,239,51786,2,0,L|474:298,2,60,4|0|8,1:0|0:0|0:0,0:0:0:0:
412,201,52318,2,0,B|383:189|356:201|348:201|323:213|292:201,1,120
217,183,52851,1,8,0:0:0:0:
80,259,53206,6,0,L|70:140,1,120,4|8,1:0|0:0,0:0:0:0:
217,183,53916,2,0,L|227:302,1,120,0|8,0:0|0:0,0:0:0:0:
354,212,54626,2,0,L|344:93,1,120,4|8,1:0|0:0,0:0:0:0:
481,165,55336,2,0,L|491:284,1,120,0|8,0:0|0:0,0:0:0:0:
344,338,56046,6,0,B|288:370|228:338|220:338|160:306|104:338,1,240,4|4,1:0|1:0,0:0:0:0:
24,116,57289,1,0,0:0:0:0:
24,116,57466,2,0,P|80:133|133:108,1,120,4|8,1:0|0:0,0:0:0:0:
269,31,58176,2,0,B|304:23|304:23|344:39|344:39|384:31,1,120,4|8,1:0|0:0,0:0:0:0:
483,150,58886,6,0,L|493:269,1,120,4|8,1:0|0:0,0:0:0:0:
416,254,59419,2,0,P|359:236|306:261,1,120
244,307,59951,1,8,0:0:0:0:
106,381,60306,2,0,L|96:262,1,120,4|8,1:0|0:0,0:0:0:0:
141,197,60839,2,0,B|170:185|197:197|205:197|230:209|261:197,1,120
325,156,61371,1,8,0:0:0:0:
208,52,61726,5,4,1:0:0:0:
441,75,62259,1,4,1:0:0:0:
208,52,62792,1,0,0:0:0:0:
325,156,63147,1,4,1:0:0:0:
325,156,63857,6,0,P|343:213|318:266,1,120,4|0,1:0|0:0,0:0:0:0:
242,129,64567,6,0,B|212:140|187:128|179:128|152:116|123:128,1,120,4|8,1:0|0:0,0:0:0:0:
67,180,65099,2,0,P|48:236|74:288,1,120,2|0,0:0|0:0,0:0:0:0:
127,344,65632,1,8,0:0:0:0:
282,327,65987,2,0,L|292:208,1,120,2|8,0:0|0:0,0:0:0:0:
249,142,66519,2,0,B|214:134|214:134|174:150|174:150|134:142,1,120,2|0,0:0|0:0,0:0:0:0:
67,100,67052,1,8,0:0:0:0:
194,9,67407,6,0,P|250:27|302:1,1,120,2|8,0:0|0:0,0:0:0:0:
375,27,67939,2,0,P|427:2|483:20,1,120,2|0,0:0|0:0,0:0:0:0:
511,93,68472,1,8,0:0:0:0:
357,120,68827,2,0,L|367:239,1,120,2|8,0:0|0:0,0:0:0:0:
370,317,69360,1,0,0:0:0:0:
295,346,69537,2,0,L|235:340,1,60,2|0,0:0|0:0,0:0:0:0:
165,305,69892,2,0,L|105:310,1,60,8|0,0:0|0:0,0:0:0:0:
32,339,70247,6,0,B|21:309|33:284|33:276|45:249|33:220,1,120,4|8,1:0|0:0,0:0:0:0:
11,145,70780,2,0,L|130:135,1,120,2|0,0:0|0:0,0:0:0:0:
208,130,71312,1,8,0:0:0:0:
289,262,71667,2,0,P|345:280|397:254,1,120,2|8,0:0|0:0,0:0:0:0:
261,176,72377,2,0,P|205:158|153:184,1,120,2|8,0:0|0:0,0:0:0:0:
29,279,73087,6,0,B|18:249|30:224|30:216|42:189|30:160,1,120,2|8,0:0|0:0,0:0:0:0:
11,85,73620,1,0,0:0:0:0:
88,93,73797,2,0,L|207:83,1,120,2|8,0:0|0:0,0:0:0:0:
323,188,74508,2,0,P|341:243|314:296,1,120,2|8,0:0|0:0,0:0:0:0:
200,190,75218,2,0,P|181:134|208:81,1,120,2|8,0:0|0:0,0:0:0:0:
360,59,75928,6,0,L|423:64,2,60,4|0|8,1:0|0:0|0:0,0:0:0:0:
301,109,76460,1,0,0:0:0:0:
291,186,76638,2,0,P|309:241|282:294,1,120,2|8,0:0|0:0,0:0:0:0:
135,240,77348,6,0,L|71:245,2,60,4|0|8,1:0|0:0|0:0,0:0:0:0:
209,261,77880,1,0,0:0:0:0:
282,293,78058,2,0,P|337:311|390:284,1,120,2|8,0:0|0:0,0:0:0:0:
511,186,78768,6,0,P|515:215|503:250,1,60,4|0,1:0|0:0,0:0:0:0:
436,209,79123,1,8,0:0:0:0:
376,158,79300,2,0,L|257:168,1,120,2|0,0:0|0:0,0:0:0:0:
212,232,79833,1,8,0:0:0:0:
56,223,80188,6,0,B|45:193|57:168|57:160|69:133|57:104,1,120,2|8,0:0|0:0,0:0:0:0:
108,45,80721,2,0,P|163:27|216:54,1,120,2|0,0:0|0:0,0:0:0:0:
261,116,81253,1,8,0:0:0:0:
347,247,81608,2,0,B|387:255|387:255|427:239|427:239|462:247,1,120,4|8,1:0|0:0,0:0:0:0:
509,309,82141,1,0,0:0:0:0:
450,360,82318,2,0,P|394:377|342:351,1,120,2|8,0:0|0:0,0:0:0:0:
218,254,83028,6,0,L|223:313,2,60,2|0|8,0:0|0:0|0:0,0:0:0:0:
143,277,83561,2,0,L|148:336,2,60,0|2|0,0:0|0:0|0:0,0:0:0:0:
69,302,84093,2,0,L|74:361,1,60,8|0,0:0|0:0,0:0:0:0:
256,192,84448,12,4,85868,1:0:0:0:
74,361,87289,6,0,P|47:308|65:253,1,120,4|8,1:0|0:0,0:0:0:0:
128,209,87821,2,0,L|138:90,1,120,2|0,0:0|0:0,0:0:0:0:
203,46,88354,1,8,0:0:0:0:
316,152,88709,2,0,L|322:93,2,60,2|0|8,0:0|0:0|0:0,0:0:0:0:
304,228,89241,2,0,P|356:254|411:236,1,120,2|0,0:0|0:0,0:0:0:0:
451,167,89774,2,0,P|480:163|515:175,1,60,8|0,0:0|0:0,0:0:0:0:
505,249,90129,6,0,B|493:278|505:305|505:313|517:338|505:369,1,120,2|8,0:0|0:0,0:0:0:0:
432,339,90661,2,0,B|392:331|392:331|352:347|352:347|312:339,1,120,2|0,0:0|0:0,0:0:0:0:
242,316,91194,1,8,0:0:0:0:
158,186,91549,2,0,L|152:127,2,60,2|0|8,0:0|0:0|0:0,0:0:0:0:
111,249,92082,2,0,P|58:222|40:166,1,120,2|0,0:0|0:0,0:0:0:0:
78,100,92614,2,0,P|86:71|82:41,1,60,8|0,0:0|0:0,0:0:0:0:
8,15,92969,5,4,0:0:0:0:
162,37,93324,2,0,B|197:44|197:44|237:28|237:28|277:36,1,120,8|2,0:0|0:0,0:0:0:0:
429,70,94034,1,8,0:0:0:0:
318,179,94389,2,0,P|291:231|309:286,1,120,2|8,0:0|0:0,0:0:0:0:
339,358,94922,2,0,B|310:370|283:358|275:358|250:346|219:358,1,120,2|0,0:0|0:0,0:0:0:0:
145,376,95454,2,0,P|115:379|86:371,1,60,8|0,0:0|0:0,0:0:0:0:
21,327,95809,5,4,0:0:0:0:
29,171,96164,2,0,L|39:52,1,120,8|0,0:0|0:0,0:0:0:0:
154,156,96874,1,8,0:0:0:0:
293,86,97229,1,2,0:0:0:0:
293,86,97407,2,0,L|356:91,1,60,0|8,0:0|0:0,0:0:0:0:
399,153,97762,2,0,B|406:188|406:188|390:228|390:228|398:268,1,120,2|0,0:0|0:0,0:0:0:0:
418,343,98295,1,8,0:0:0:0:
277,275,98650,6,0,P|224:248|169:266,1,120,4|8,1:0|0:0,0:0:0:0:
18,305,99360,2,0,B|11:278|11:278|19:246,1,60,2|0,0:0|0:0,0:0:0:0:
65,183,99715,2,0,B|71:156|71:156|63:124,1,60,8|0,0:0|0:0,0:0:0:0:
35,51,100070,2,0,B|64:39|89:51|97:51|124:63|153:51,1,120,4|8,1:0|0:0,0:0:0:0:
307,30,100780,2,0,L|312:93,1,60,2|0,0:0|0:0,0:0:0:0:
368,143,101135,2,0,L|373:202,1,60,8|0,0:0|0:0,0:0:0:0:
337,272,101490,6,0,B|301:279|301:279|261:263|261:263|221:271,1,120,4|8,1:0|0:0,0:0:0:0:
72,226,102200,2,0,P|63:254|67:284,1,60,2|0,0:0|0:0,0:0:0:0:
115,345,102555,2,0,P|143:353|173:349,1,60,8|0,0:0|0:0,0:0:0:0:
251,350,102910,2,0,L|370:360,1,120,4|8,1:0|0:0,0:0:0:0:
434,315,103442,2,0,P|416:259|442:207,1,120,2|0,0:0|0:0,0:0:0:0:
497,151,103975,1,8,0:0:0:0:
401,27,104330,6,0,B|372:15|345:27|337:27|312:39|282:27,1,120,4|8,1:0|0:0,0:0:0:0:
223,77,104863,2,0,P|240:132|214:184,1,120,2|0,0:0|0:0,0:0:0:0:
159,241,105395,1,8,0:0:0:0:
293,320,105750,2,0,B|328:327|328:327|368:311|368:311|408:319,1,120,2|8,0:0|0:0,0:0:0:0:
473,275,106283,2,0,L|483:156,1,120,2|0,0:0|0:0,0:0:0:0:
453,83,106815,1,8,0:0:0:0:
318,161,107170,6,0,P|262:178|210:152,1,120,2|8,0:0|0:0,0:0:0:0:
150,100,107703,2,0,P|97:73|42:91,1,120,2|0,0:0|0:0,0:0:0:0:
0,156,108235,1,8,0:0:0:0:
83,287,108590,2,0,L|89:228,2,60,2|0|8,0:0|0:0|0:0,0:0:0:0:
73,365,109123,1,2,0:0:0:0:
83,287,110366,5,4,1:0:0:0:
256,128,110898,5,4,1:0:0:0:
429,287,111431,5,4,1:0:0:0:
256,192,111786,12,0,115691,0:0:0:0:
