osu file format v14

[General]
AudioFilename: garasu.mp3
AudioLeadIn: 0
PreviewTime: 63679
Countdown: 0
SampleSet: Soft
StackLeniency: 0.7
Mode: 0
LetterboxInBreaks: 0
WidescreenStoryboard: 1

[Editor]
Bookmarks: 7762,30484,87289,101490
DistanceSpacing: 1.1
BeatDivisor: 2
GridSize: 32
TimelineZoom: 1.9

[Metadata]
Title:Garasu no Hanazono
TitleUnicode:硝子の花園
Artist:Ayase Eli (CV.Nanjou Yoshino) & Tojo Nozomi (CV.Kusuda Aina)
ArtistUnicode:絢瀬絵里 (CV.南條愛乃) & 東條 希 (CV.楠田亜衣奈)
Creator:-Aqua
Version:Kisses' Hard
Source:ラブライブ!School idol project
Tags:LoveLive! µ's u's Muse Garden of Glass NozoEli Eri newton- Kisses Akitoshi
BeatmapID:1310812
BeatmapSetID:614765

[Difficulty]
HPDrainRate:5.5
CircleSize:4
OverallDifficulty:6
ApproachRate:8
SliderMultiplier:1.5
SliderTickRate:1

[Events]
//Background and Video events
0,0,"homozono.jpg",0,0
//Break Periods
//Storyboard Layer 0 (Background)
//Storyboard Layer 1 (Fail)
//Storyboard Layer 2 (Pass)
//Storyboard Layer 3 (Foreground)
//Storyboard Sound Samples

[TimingPoints]
2082,355.029585798817,4,2,0,65,1,0
2082,-125,4,2,0,65,0,0
6342,-100,4,2,0,65,0,0
7762,-100,4,2,0,70,0,0
29596,-100,4,2,0,65,0,0
30484,-100,4,2,0,55,0,0
63857,-125,4,2,0,55,0,0
64567,-100,4,2,0,75,0,1
84448,-142.857142857143,4,2,0,75,0,1
85868,-100,4,2,0,75,0,1
87289,-100,4,2,0,65,0,0
111786,-100,4,2,0,55,0,0
114271,-100,4,2,0,35,0,0
114981,-100,4,2,0,23,0,0
115691,-100,4,2,0,15,0,0

[Colours]
Combo1 : 121,210,96
Combo2 : 106,206,215
Combo3 : 146,36,255
Combo4 : 234,230,47

[HitObjects]
224,207,2082,5,4,0:3:0:0:
224,207,2348,1,4,0:3:0:0:
224,207,2614,1,4,0:3:0:0:
256,192,2792,12,0,4567,0:0:0:0:
432,146,4922,5,4,0:3:0:0:
432,146,5188,1,4,0:3:0:0:
432,146,5454,2,0,P|379:116|313:131,1,120,4|0,0:3|0:0,0:0:0:0:
259,76,5987,1,0,1:0:0:0:
363,217,6342,6,0,L|370:329,2,112.5,4|4|4,0:3|0:3|0:3,0:0:0:0:
285,170,7052,2,0,L|277:282,2,112.5,4|4|4,0:3|0:3|0:3,0:0:0:0:
226,101,7762,6,0,P|169:67|90:98,1,150,6|0,0:0|1:0,0:0:0:0:
8,134,8295,2,0,L|156:155,1,150,2|0,0:0|0:0,0:0:0:0:
274,225,8827,2,0,L|199:232,1,75,0|0,1:0|0:0,0:0:0:0:
135,359,9182,6,0,P|122:324|128:287,1,75,2|0,0:0|0:0,0:0:0:0:
212,317,9537,1,2,1:2:0:0:
212,317,9715,2,0,L|364:301,1,150,2|0,0:0|0:0,0:0:0:0:
442,361,10247,1,0,1:0:0:0:
442,361,10602,6,0,P|475:306|446:229,1,150,2|0,0:0|1:0,0:0:0:0:
362,199,11135,2,0,L|536:179,1,150,2|0,0:0|0:0,0:0:0:0:
502,92,11667,2,0,P|466:80|427:82,1,75,0|0,1:0|0:0,0:0:0:0:
343,111,12022,6,0,L|337:34,1,75,2|0,0:0|0:0,0:0:0:0:
251,9,12377,1,2,1:2:0:0:
251,8,12555,2,0,P|210:58|228:139,1,150,2|0,0:0|0:0,0:0:0:0:
175,224,13087,1,0,1:0:0:0:
175,224,13442,6,0,L|332:210,1,150,6|0,0:0|1:0,0:0:0:0:
405,251,13975,2,0,B|389:360|389:360|365:357|342:335,1,150,2|0,0:0|0:0,0:0:0:0:
257,254,14508,2,0,L|263:329,1,75,0|0,1:0|0:0,0:0:0:0:
170,384,14863,6,0,L|164:309,1,75,2|0,0:0|0:0,0:0:0:0:
99,246,15218,1,0,1:0:0:0:
99,246,15395,2,0,P|179:269|232:223,1,150,2|0,0:0|0:0,0:0:0:0:
183,134,15928,1,0,1:0:0:0:
183,134,16283,6,0,B|357:121,1,150,2|0,0:0|1:0,0:0:0:0:
389,191,16815,2,0,B|378:288|378:288|396:311|443:297,1,150,2|0,0:0|0:0,0:0:0:0:
496,244,17348,2,0,L|487:169,1,75,2|0,1:2|1:0,1:0:0:0:
415,83,17703,5,2,0:0:0:0:
415,83,17880,1,2,0:0:0:0:
273,205,18235,2,0,P|234:141|260:64,1,150,2|0,0:0|0:0,0:0:0:0:
325,19,18768,2,0,L|385:12,2,37.5,0|0|0,1:0|1:0|1:0,0:0:0:0:
377,106,19123,6,0,L|451:114,1,75,4|0,1:2|0:0,0:0:0:0:
332,213,19478,2,0,L|406:204,1,75,0|0,1:0|0:0,0:0:0:0:
475,336,19833,2,0,P|488:301|483:265,1,75,0|0,1:0|0:0,0:0:0:0:
377,300,20188,2,0,P|364:335|370:372,1,75,0|0,1:0|0:0,0:0:0:0:
332,213,20543,5,0,1:0:0:0:
154,248,20898,1,0,1:0:0:0:
307,100,21253,5,0,1:0:0:0:
109,58,21608,1,0,1:0:0:0:
25,217,21963,6,0,L|34:310,1,75,0|0,1:0|0:0,0:0:0:0:
132,181,22318,2,0,L|124:255,1,75,0|0,1:0|0:0,0:0:0:0:
218,377,22673,2,0,P|223:340|210:305,1,75,0|0,1:0|0:0,0:0:0:0:
277,236,23028,2,0,P|263:201|269:164,1,75,0|0,1:0|0:0,0:0:0:0:
338,107,23383,6,0,L|182:125,1,150,2|0,1:2|1:0,0:0:0:0:
21,38,23916,2,0,P|87:8|152:41,1,150,2|0,0:0|0:0,0:0:0:0:
247,1,24448,1,0,1:0:0:0:
246,1,24803,6,0,L|237:155,1,150,6|0,0:0|1:0,0:0:0:0:
280,229,25336,1,2,0:0:0:0:
280,229,25513,2,0,P|314:215|351:218,1,75,2|0,0:0|0:0,0:0:0:0:
418,278,25868,2,0,L|423:352,1,75,0|0,1:0|0:0,0:0:0:0:
494,219,26224,6,0,L|499:144,1,75,2|0,0:0|0:0,0:0:0:0:
425,93,26579,1,2,1:2:0:0:
425,93,26756,2,0,B|328:107|328:107|304:90|317:42,1,150,2|0,0:0|0:0,0:0:0:0:
393,11,27289,1,0,1:0:0:0:
393,11,27644,6,0,L|228:0,1,150,2|0,0:0|1:0,0:0:0:0:
150,69,28176,2,0,P|207:108|283:88,1,150,2|0,0:0|0:0,0:0:0:0:
360,133,28709,2,0,L|366:207,1,75,2|0,1:2|0:0,0:0:0:0:
295,294,29064,5,2,0:0:0:0:
295,294,29241,1,2,0:0:0:0:
456,384,29596,2,0,P|399:353|315:384,1,150,2|0,0:0|0:0,0:0:0:0:
233,334,30129,2,0,L|229:291,2,37.5,0|0|0,1:0|1:0|1:0,0:0:0:0:
152,384,30484,6,0,B|125:336|125:336|151:232,1,150,6|0,0:0|1:0,0:0:0:0:
231,194,31016,2,0,B|77:212|77:212|64:166|112:147,1,225,2|0,0:0|1:0,0:0:0:0:
222,322,31904,6,0,L|403:335,1,150,2|0,0:0|1:0,0:0:0:0:
446,270,32437,2,0,P|376:289|322:243,1,150,2|2,0:0|0:0,0:0:0:0:
357,149,32969,1,0,1:0:0:0:
357,149,33324,6,0,L|193:164,1,150,2|0,0:0|1:0,0:0:0:0:
160,77,33857,2,0,B|179:225|179:225|141:248|99:216,1,225,2|0,0:0|1:0,0:0:0:0:
249,355,34744,6,0,P|315:316|398:335,1,150,2|0,0:0|1:0,0:0:0:0:
454,266,35277,2,0,B|417:265|402:286|402:286|415:383,1,150,2|2,0:0|0:0,0:0:0:0:
511,357,35809,1,0,1:0:0:0:
511,357,36164,6,0,L|524:195,1,150,2|0,0:0|1:0,0:0:0:0:
348,139,36697,2,0,P|406:98|479:117,1,150,2|0,0:0|0:0,0:0:0:0:
423,183,37229,2,0,L|428:257,1,75,0|0,1:0|0:0,0:0:0:0:
348,367,37584,6,0,L|337:217,1,150,2|0,0:0|1:0,0:0:0:0:
351,120,38117,2,0,B|242:145|242:145|231:127|233:102,1,150,2|2,0:0|0:0,0:0:0:0:
303,39,38650,1,0,1:0:0:0:
303,39,39005,6,0,P|244:9|162:39,1,150,2|0,0:0|1:0,0:0:0:0:
75,123,39537,2,0,B|53:13|53:13|72:2|97:5,1,150,2|0,0:0|0:0,0:0:0:0:
180,44,40070,2,0,L|171:118,1,75,0|0,1:0|0:0,0:0:0:0:
214,214,40425,5,2,0:0:0:0:
307,166,40602,1,2,0:0:0:0:
319,270,40780,1,0,1:0:0:0:
399,210,40957,2,0,P|419:282|386:346,1,150,2|0,0:0|0:0,0:0:0:0:
294,378,41490,2,0,L|247:368,3,37.5,0|0|0|0,1:0|0:0|0:0|0:0,0:0:0:0:
215,348,41845,6,0,L|120:360,1,75,4|0,1:2|0:0,0:0:0:0:
29,276,42200,2,0,L|104:266,1,75,0|0,1:0|0:0,0:0:0:0:
239,203,42555,2,0,P|205:189|168:192,1,75,0|0,1:0|0:0,0:0:0:0:
13,150,42910,2,0,P|50:153|85:139,1,75,0|0,1:0|0:0,0:0:0:0:
170,91,43265,5,0,1:0:0:0:
195,284,43620,1,0,1:0:0:0:
309,51,43975,5,0,1:0:0:0:
289,204,44330,1,0,1:0:0:0:
456,104,44685,6,0,L|465:187,1,75,2|0,0:0|0:0,0:0:0:0:
370,281,45040,1,2,1:2:0:0:
370,281,45218,2,0,B|369:303|388:320|388:320|491:300,1,150,2|0,0:0|0:0,0:0:0:0:
464,178,45750,1,0,1:0:0:0:
464,178,46105,6,0,L|474:93,2,75,2|2|0,0:0|0:0|1:0,0:0:0:0:
400,252,46638,2,0,P|335:218|264:239,1,150,2|0,0:0|0:0,0:0:0:0:
181,172,47170,2,0,L|184:135,2,37.5,0|0|0,1:0|1:0|1:0,0:0:0:0:
90,276,47525,6,0,L|164:269,1,75,2|0,0:0|0:0,0:0:0:0:
311,349,47880,1,0,1:2:0:0:
311,349,48058,2,0,B|309:378|288:387|288:387|188:360,1,150,2|0,0:0|0:0,0:0:0:0:
164,268,48590,2,0,L|238:260,1,75,0|0,1:0|0:0,0:0:0:0:
372,191,48945,6,0,L|298:183,1,75,2|0,0:0|0:0,0:0:0:0:
224,118,49300,1,0,1:0:0:0:
223,117,49478,2,0,P|212:82|217:45,2,75,2|0|0,0:0|0:0|0:0,0:0:0:0:
297,2,50010,1,0,1:0:0:0:
297,2,50366,6,0,L|133:19,1,150,2|0,0:0|1:0,0:0:0:0:
74,81,50898,2,0,P|151:57|199:104,1,150,2|0,0:0|0:0,0:0:0:0:
255,177,51431,2,0,L|357:162,1,75,0|0,1:0|0:0,0:0:0:0:
416,210,51786,6,0,P|427:174|422:137,2,75,2|2|0,0:0|0:0|1:0,0:0:0:0:
353,284,52318,2,0,B|356:256|374:241|374:241|489:259,1,150,2|0,0:0|1:0,0:0:0:0:
512,168,52851,2,0,L|507:111,3,37.5,0|0|0|0,1:0|1:0|1:0|1:0,0:0:0:0:
478,96,53206,6,0,L|403:108,1,75,4|0,1:2|0:0,0:0:0:0:
269,172,53561,2,0,L|344:185,1,75,0|0,1:0|0:0,0:0:0:0:
196,236,53916,2,0,P|176:201|174:167,1,75,0|0,1:0|0:0,0:0:0:0:
76,159,54271,2,0,P|85:119|108:94,1,75,0|0,1:0|0:0,0:0:0:0:
188,38,54626,5,0,1:0:0:0:
112,246,54981,1,0,1:0:0:0:
307,119,55336,5,0,1:0:0:0:
332,288,55691,1,0,1:0:0:0:
443,67,56046,6,0,B|473:71|487:85|487:85|466:184,1,150,4|0,1:2|1:0,0:0:0:0:
464,197,56490,1,0,1:0:0:0:
462,208,56579,1,0,1:0:0:0:
366,167,56756,2,0,P|330:229|363:302,1,150,4|0,0:0|1:0,0:0:0:0:
366,306,57200,1,0,1:0:0:0:
375,315,57289,1,0,1:0:0:0:
296,379,57466,5,2,0:0:0:0:
247,294,57644,1,2,0:0:0:0:
174,359,57821,2,0,L|83:353,1,75,0|0,1:0|0:0,0:0:0:0:
33,281,58176,2,0,L|28:233,3,37.5,8|8|8|8,0:3|0:3|0:3|0:3,0:3:0:0:
59,205,58531,2,0,L|64:157,3,37.5,8|8|8|8,0:3|0:3|0:3|0:3,0:3:0:0:
32,129,58886,6,0,L|117:118,1,75,4|0,0:0|0:0,0:0:0:0:
273,45,59241,1,2,1:2:0:0:
273,45,59419,2,0,P|211:6|142:28,1,150,2|0,0:0|0:0,0:0:0:0:
200,95,59951,2,0,L|208:196,1,75,0|0,1:0|0:0,0:0:0:0:
156,254,60306,6,0,B|130:260|109:239|109:239|118:140,1,150,2|0,0:0|1:0,0:0:0:0:
22,206,60839,2,0,L|36:362,1,150,2|0,0:0|0:0,0:0:0:0:
181,341,61371,1,0,1:0:0:0:
221,133,61726,5,2,0:0:0:0:
221,133,62259,1,8,3:0:0:0:
181,341,62792,1,2,0:0:0:0:
221,133,63147,5,0,1:0:0:0:
457,258,63857,6,0,P|419:237|359:244,1,90,2|0,0:0|0:0,0:0:0:0:
362,275,64212,2,0,P|401:296|445:294,1,90,2|0,0:0|0:0,0:0:0:0:
474,228,64567,6,0,L|466:135,1,75,4|0,0:0|0:0,0:0:0:0:
381,80,64922,1,2,1:2:0:0:
381,80,65099,2,0,B|376:106|398:126|398:126|495:112,1,150,2|0,0:0|0:0,0:0:0:0:
495,13,65632,2,0,L|410:-2,1,75,0|0,1:0|0:0,0:0:0:0:
301,15,65987,6,0,P|282:51|282:98,1,75,2|0,0:0|0:0,0:0:0:0:
219,179,66342,1,2,1:2:0:0:
219,179,66519,2,0,L|69:152,1,150,2|0,0:0|0:0,0:0:0:0:
0,226,67052,1,2,1:2:0:0:
26,327,67229,1,2,0:0:0:0:
120,280,67407,6,0,L|127:357,1,75,2|0,0:0|0:0,0:0:0:0:
227,383,67762,1,2,1:2:0:0:
227,383,67939,2,0,P|263:367|314:369,1,75,2|0,0:0|0:0,0:0:0:0:
443,294,68295,2,0,L|369:286,1,75,2|0,0:0|1:0,0:0:0:0:
318,193,68650,1,2,0:0:0:0:
217,281,68827,6,0,P|181:224|198:137,1,150,2|0,0:0|1:0,0:0:0:0:
272,76,69360,2,0,L|422:92,1,150,2|0,0:0|0:0,0:0:0:0:
501,159,69892,2,0,P|469:185|426:193,1,75,0|0,1:0|0:0,0:0:0:0:
335,226,70247,6,0,L|346:324,1,75,2|0,0:0|0:0,0:0:0:0:
269,375,70602,1,0,1:0:0:0:
269,375,70780,2,0,P|335:343|399:387,1,150,2|0,0:0|0:0,0:0:0:0:
491,338,71312,2,0,L|499:263,1,75,0|0,1:0|0:0,0:0:0:0:
494,139,71667,6,0,P|459:152|434:179,1,75,2|0,0:0|0:0,0:0:0:0:
337,169,72022,2,0,P|346:133|370:105,1,75,0|0,1:0|0:0,0:0:0:0:
244,203,72377,2,0,P|261:236|292:258,1,75,2|0,0:0|0:0,0:0:0:0:
162,258,72732,2,0,P|146:224|147:187,1,75,0|0,1:0|0:0,0:0:0:0:
72,315,73087,6,0,B|68:349|87:359|87:359|193:331,1,150,2|0,0:0|1:0,0:0:0:0:
279,273,73620,2,0,P|222:227|141:229,1,150,2|0,0:0|0:0,0:0:0:0:
74,301,74153,2,0,L|64:217,1,75,0|0,1:0|0:0,0:0:0:0:
31,125,74508,6,0,P|119:136|160:81,1,150,2|0,0:0|1:0,0:0:0:0:
227,19,75040,1,2,0:0:0:0:
297,97,75218,2,0,P|300:72|306:44,2,37.5,0|0|0,1:0|1:0|1:0,0:0:0:0:
392,52,75573,2,0,P|389:30|383:5,2,37.5,0|0|0,1:0|1:0|1:0,0:0:0:0:
483,118,75928,6,0,L|476:202,1,75,4|0,1:2|0:0,0:0:0:0:
376,252,76283,2,0,L|383:336,1,75,0|0,1:0|0:0,0:0:0:0:
278,374,76638,2,0,P|243:360|193:363,1,75,0|0,1:0|0:0,0:0:0:0:
40,323,76993,2,0,P|77:322|112:309,1,75,0|0,1:0|0:0,0:0:0:0:
226,266,77348,5,0,1:0:0:0:
4,225,77703,1,0,1:0:0:0:
261,125,78058,5,0,1:0:0:0:
123,150,78413,1,0,1:0:0:0:
258,384,78768,6,0,L|357:374,1,75,2|0,0:0|0:0,0:0:0:0:
496,304,79123,1,2,1:2:0:0:
496,304,79300,2,0,P|436:262|369:288,1,150,2|0,0:0|0:0,0:0:0:0:
284,351,79833,2,0,L|278:276,1,75,0|0,1:0|0:0,0:0:0:0:
98,235,80188,6,0,B|193:246|193:246|216:228|207:198,1,150,2|0,0:0|1:0,0:0:0:0:
136,119,80721,1,0,0:0:0:0:
215,51,80898,2,0,L|318:42,1,75,2|0,0:0|0:0,0:0:0:0:
439,123,81253,2,0,L|365:117,1,75,0|0,1:0|0:0,0:0:0:0:
236,180,81608,6,0,P|291:229|375:207,1,150,2|0,0:0|1:0,0:0:0:0:
459,257,82141,2,0,L|446:331,1,75,2|0,0:0|0:0,0:0:0:0:
276,362,82496,1,2,0:0:0:0:
276,362,82673,2,0,L|358:351,1,75,0|0,1:0|0:0,0:0:0:0:
344,253,83028,5,0,1:0:0:0:
344,253,83206,1,0,1:0:0:0:
199,236,83383,1,0,1:0:0:0:
199,236,83561,1,0,1:0:0:0:
293,139,83738,2,0,L|289:95,3,37.5,8|8|8|8,0:3|0:3|0:3|0:3,0:3:0:0:
262,79,84093,2,0,L|266:35,3,37.5,8|8|8|8,0:3|0:3|0:3|0:3,0:3:0:0:
286,10,84448,6,0,B|206:83|139:-42|68:48|68:48|96:93|84:136,1,314.999990386963,4|0,0:0|0:0,0:0:0:0:
216,286,85868,6,0,L|204:149,2,112.5,0|0|0,1:0|1:0|1:0,0:0:0:0:
302,224,86579,2,0,L|314:91,2,112.5,0|0|0,1:0|1:0|1:0,0:0:0:0:
352,342,87289,6,0,P|411:308|497:334,1,150,6|0,0:0|1:0,0:0:0:0:
508,223,87821,2,0,B|475:230|457:204|457:204|476:96,1,150,2|0,0:0|0:0,0:0:0:0:
361,21,88354,2,0,L|368:96,1,75,0|0,1:0|0:0,0:0:0:0:
280,154,88709,6,0,P|265:121|265:75,1,75,2|0,0:0|0:0,0:0:0:0:
181,17,89064,1,2,1:2:0:0:
181,17,89241,2,0,L|25:32,1,150,2|0,0:0|0:0,0:0:0:0:
59,149,89774,1,0,1:0:0:0:
59,149,90129,6,0,P|133:173|190:124,1,150,2|0,0:0|1:0,0:0:0:0:
273,75,90661,2,0,L|286:231,1,150,2|0,0:0|0:0,0:0:0:0:
430,304,91194,2,0,P|394:296|357:300,1,75,0|0,1:0|0:0,0:0:0:0:
376,196,91549,6,0,L|383:121,1,75,2|0,0:0|0:0,0:0:0:0:
324,33,91904,1,2,1:2:0:0:
324,33,92082,2,0,P|270:74|189:43,1,150,2|0,0:0|0:0,0:0:0:0:
147,178,92614,1,0,1:0:0:0:
147,178,92969,6,0,B|114:186|95:161|95:161|108:52,1,150,2|0,0:0|1:0,0:0:0:0:
0,119,93502,2,0,L|14:278,1,150,2|0,0:0|0:0,0:0:0:0:
147,341,94034,2,0,L|72:352,1,75,0|0,1:0|0:0,0:0:0:0:
139,251,94389,6,0,P|184:258|210:277,1,75,2|0,0:0|0:0,0:0:0:0:
326,384,94744,1,2,1:2:0:0:
326,384,94922,2,0,B|293:392|274:367|274:367|287:258,1,150,2|0,0:0|0:0,0:0:0:0:
427,295,95454,1,0,1:0:0:0:
427,295,95809,6,0,L|410:142,1,150,2|0,0:0|1:0,0:0:0:0:
342,65,96342,2,0,P|274:88|211:35,1,150,2|0,0:0|0:0,0:0:0:0:
132,107,96874,2,0,L|141:183,1,75,0|0,1:0|0:0,0:0:0:0:
12,114,97229,5,2,0:0:0:0:
12,114,97407,1,2,0:0:0:0:
94,300,97762,2,0,P|149:261|229:282,1,150,2|0,0:0|0:0,0:0:0:0:
318,231,98295,2,0,L|324:180,2,37.5,0|0|0,1:0|1:0|1:0,0:0:0:0:
369,330,98650,6,0,L|443:323,1,75,0|0,1:0|0:0,0:0:0:0:
274,376,99005,2,0,L|199:382,1,75,0|0,1:0|0:0,0:0:0:0:
127,255,99360,2,0,P|114:289|116:327,1,75,0|0,1:0|0:0,0:0:0:0:
186,176,99715,2,0,P|199:141|197:104,1,75,0|0,1:0|0:0,0:0:0:0:
106,31,100070,5,0,1:0:0:0:
337,5,100425,1,0,1:0:0:0:
186,176,100780,5,0,1:0:0:0:
374,197,101135,1,0,1:0:0:0:
105,339,101490,6,0,L|114:246,1,75,0|0,1:0|0:0,0:0:0:0:
211,380,101845,2,0,L|203:306,1,75,0|0,1:0|0:0,0:0:0:0:
260,223,102200,2,0,P|296:206|341:210,1,75,0|0,1:0|0:0,0:0:0:0:
385,296,102555,2,0,P|418:312|455:312,1,75,0|0,1:0|0:0,0:0:0:0:
481,108,102910,6,0,B|448:100|429:125|429:125|442:234,1,150,2|0,1:2|1:0,0:0:0:0:
338,178,103442,2,0,B|318:11,1,150,2|0,0:0|0:0,0:0:0:0:
449,0,103975,1,0,1:0:0:0:
449,0,104330,6,0,P|481:64|448:130,1,150,6|0,0:0|1:0,0:0:0:0:
389,202,104863,1,2,0:0:0:0:
389,202,105040,2,0,L|397:282,1,75,2|0,0:0|0:0,0:0:0:0:
299,383,105395,2,0,L|307:309,1,75,0|0,1:0|0:0,0:0:0:0:
226,241,105750,6,0,P|190:229|153:231,1,75,2|0,0:0|0:0,0:0:0:0:
75,307,106105,1,2,1:2:0:0:
75,307,106283,2,0,L|59:144,1,150,2|0,0:0|0:0,0:0:0:0:
161,68,106815,2,0,L|155:143,1,75,0|0,1:0|0:0,0:0:0:0:
189,234,107170,6,0,P|263:259|315:217,1,150,2|0,0:0|1:0,0:0:0:0:
418,241,107703,2,0,B|429:151|429:151|410:126|377:134,1,150,2|0,0:0|0:0,0:0:0:0:
281,90,108235,2,0,L|273:15,1,75,0|0,1:0|0:0,0:0:0:0:
102,24,108590,5,2,0:0:0:0:
102,24,108768,2,0,L|183:15,1,75,2|0,0:0|0:0,0:0:0:0:
163,147,109123,2,0,P|112:110|25:135,1,150,2|0,0:0|0:0,0:0:0:0:
88,210,109655,1,8,0:3:0:0:
86,228,109744,1,8,0:3:0:0:
84,246,109833,1,8,0:3:0:0:
82,264,109922,1,8,0:3:0:0:
257,360,110366,6,0,B|290:373|310:351|310:351|292:256,1,150,2|0,0:0|0:0,0:0:0:0:
439,285,110898,2,0,B|406:298|386:276|386:276|404:181,1,150,2|0,0:0|0:0,0:0:0:0:
319,106,111431,5,6,0:0:0:0:
256,192,111519,12,0,115691,0:0:0:0:
