osu file format v14

[General]
AudioFilename: garasu.mp3
AudioLeadIn: 0
PreviewTime: 63679
Countdown: 0
SampleSet: Soft
StackLeniency: 0.7
Mode: 0
LetterboxInBreaks: 0
WidescreenStoryboard: 0

[Editor]
Bookmarks: 2082,7762,13442,19123,20543,21963,23383,24803,30484,36164,41845,47525,53206,58886,64567,70247,75928,81608,87289,92969,98650,100070,101490,102910,104330,110010,111431,115691
DistanceSpacing: 1.3
BeatDivisor: 4
GridSize: 32
TimelineZoom: 1.6

[Metadata]
Title:Garasu no Hanazono
TitleUnicode:硝子の花園
Artist:Ayase Eli (CV.Nanjou Yoshino) & Tojo Nozomi (CV.Kusuda Aina)
ArtistUnicode:絢瀬絵里 (CV.南條愛乃) & 東條 希 (CV.楠田亜衣奈)
Creator:-Aqua
Version:Akitoshi's Insane
Source:ラブライブ!School idol project
Tags:LoveLive! µ's u's Muse Garden of Glass NozoEli Eri newton- Kisses Akitoshi
BeatmapID:1313540
BeatmapSetID:614765

[Difficulty]
HPDrainRate:6
CircleSize:3.8
OverallDifficulty:7
ApproachRate:9
SliderMultiplier:1.6
SliderTickRate:1

[Events]
//Background and Video events
0,0,"homozono.jpg",0,0
//Break Periods
//Storyboard Layer 0 (Background)
//Storyboard Layer 1 (Fail)
//Storyboard Layer 2 (Pass)
//Storyboard Layer 3 (Foreground)
//Storyboard Sound Samples

[TimingPoints]
2082,355.029585798817,4,2,1,70,1,0
19123,-100,4,2,1,75,0,0
24803,-100,4,2,1,60,0,0
30484,-111.111111111111,4,2,1,60,0,0
64567,-90.9090909090909,4,2,1,80,0,1
84448,-142.857142857143,4,2,1,80,0,1
85691,-142.857142857143,4,2,1,40,0,1
85868,-90.9090909090909,4,2,1,80,0,1
87289,-100,4,2,1,70,0,0
98650,-100,4,2,1,75,0,0
104330,-100,4,2,1,70,0,0
110010,-100,4,2,1,25,0,0
110366,-100,4,2,1,70,0,0
114626,-100,4,2,1,50,0,0
114981,-100,4,2,1,30,0,0
115336,-100,4,2,1,10,0,0
115691,-100,4,2,1,5,0,0

[Colours]
Combo1 : 121,210,96
Combo2 : 106,206,215
Combo3 : 146,36,255
Combo4 : 234,230,47

[HitObjects]
154,311,2082,6,0,L|285:300,1,120,0|0,1:0|3:0,0:0:0:0:
449,264,2614,2,0,P|449:205|383:123,1,160,0|0,1:0|3:0,0:0:0:0:
271,106,3147,2,0,L|278:26,1,80,2|0,0:0|0:0,0:0:0:0:
390,126,3502,5,0,3:0:0:0:
259,202,3679,1,0,1:0:0:0:
168,79,3857,1,0,3:0:0:0:
168,79,3945,2,0,P|116:70|67:87,1,80,0|0,3:0|3:0,0:0:0:0:
88,160,4212,1,8,3:0:0:0:
88,160,4300,2,0,P|140:169|189:152,1,80,8|8,3:0|3:0,0:0:0:0:
242,126,4567,1,8,3:0:0:0:
262,113,4655,1,8,3:0:0:0:
282,99,4744,1,0,3:0:0:0:
398,152,4922,6,0,L|391:288,1,120,0|0,1:0|1:0,0:0:0:0:
232,355,5454,2,0,P|162:373|90:318,1,160,0|0,1:0|3:0,0:0:0:0:
166,197,5987,2,0,L|176:277,1,80,0|0,1:0|0:0,0:0:0:0:
256,138,6342,6,0,P|215:101|142:92,2,120,0|4|4,1:0|3:0|3:0,0:0:0:0:
330,252,7052,2,0,L|461:237,2,120,0|4|4,1:0|3:0|3:0,0:0:0:0:
198,329,7762,6,0,B|148:319|148:319|86:336|86:336|18:325,1,160,6|0,0:0|1:0,0:0:0:0:
12,203,8295,2,0,P|15:143|105:79,1,160,2|0,0:0|0:0,0:0:0:0:
182,188,8827,2,0,P|143:188|104:177,1,80,0|0,1:0|0:0,0:0:0:0:
247,72,9182,6,0,B|346:65|309:128|406:114,1,160,2|0,0:0|1:0,0:0:0:0:
502,236,9715,2,0,P|483:204|478:156,1,80,2|0,0:0|0:0,0:0:0:0:
512,46,10070,1,2,0:0:0:0:
395,115,10247,2,0,P|356:129|320:162,1,80,0|0,1:0|0:0,0:0:0:0:
213,267,10602,6,0,P|141:250|54:237,1,160,2|0,0:0|1:0,0:0:0:0:
1,112,11135,2,0,P|73:95|160:82,1,160,2|0,0:0|0:0,0:0:0:0:
181,240,11667,2,0,P|145:231|101:225,1,80,0|0,1:0|0:0,0:0:0:0:
252,318,12022,6,0,P|282:269|257:168,1,160,2|0,0:0|1:0,0:0:0:0:
158,81,12555,2,0,P|162:42|167:2,1,80,2|0,0:0|0:0,0:0:0:0:
272,77,12910,1,0,0:0:0:0:
119,163,13087,2,0,P|85:134|70:94,1,80,0|0,1:0|0:0,0:0:0:0:
272,77,13442,5,6,0:0:0:0:
272,77,13797,2,0,L|361:71,1,80,0|0,1:0|0:0,0:0:0:0:
415,183,14153,2,0,L|375:263,1,80,2|0,0:0|0:0,0:0:0:0:
251,254,14508,2,0,L|201:179,1,80,0|0,1:0|0:0,0:0:0:0:
79,89,14863,6,0,P|75:171|65:261,1,160,2|0,0:0|1:0,0:0:0:0:
166,373,15395,2,0,P|168:332|173:287,1,80,0|0,1:0|0:0,0:0:0:0:
207,187,15750,1,0,0:0:0:0:
326,268,15928,2,0,P|367:270|412:275,1,80,0|0,1:0|0:0,0:0:0:0:
374,108,16283,5,6,0:0:0:0:
374,108,16638,2,0,P|336:95|288:98,1,80,0|0,1:0|0:0,0:0:0:0:
207,187,16993,2,0,P|214:226|241:266,1,80,2|0,0:0|0:0,0:0:0:0:
359,292,17348,2,0,P|389:265|410:222,1,80,0|0,1:0|0:0,0:0:0:0:
373,107,17703,5,6,0:0:0:0:
309,201,17880,1,0,0:0:0:0:
211,73,18058,1,0,1:0:0:0:
309,201,18235,2,0,P|387:192|474:183,1,160,4|0,0:0|1:0,0:0:0:0:
403,330,18768,1,0,1:0:0:0:
403,330,18857,1,0,1:0:0:0:
403,330,18945,2,0,P|363:333|343:333,1,40,0|0,1:0|0:0,0:0:0:0:
286,307,19123,6,0,P|242:299|194:292,1,80,6|0,0:0|0:0,1:0:0:0:
78,161,19478,2,0,P|122:153|170:146,1,80,0|0,1:0|0:0,1:0:0:0:
284,291,19833,2,0,P|240:283|192:276,1,80,0|0,1:0|0:0,1:0:0:0:
76,145,20188,2,0,P|120:137|168:130,1,80,0|0,1:0|0:0,1:0:0:0:
322,120,20543,5,0,1:0:0:0:
240,42,20721,1,0,0:0:0:0:
411,77,20898,2,0,P|420:127|408:170,1,80,0|0,1:0|0:0,0:0:0:0:
276,252,21253,1,0,1:0:0:0:
358,330,21431,1,0,0:0:0:0:
187,295,21608,2,0,P|178:245|190:202,1,80,0|0,1:0|0:0,0:0:0:0:
283,95,21963,5,0,1:0:0:0:
275,252,22141,1,0,0:0:0:0:
186,118,22318,1,0,1:0:0:0:
335,176,22496,1,0,0:0:0:0:
183,216,22673,1,0,1:0:0:0:
283,95,22851,1,0,0:0:0:0:
275,252,23028,1,0,1:0:0:0:
186,118,23206,1,0,0:0:0:0:
196,303,23383,6,0,P|262:345|340:321,1,160,0|2,1:0|1:2,0:0:0:0:
441,249,23916,1,0,3:0:0:0:
359,150,24093,1,0,3:0:0:0:
345,136,24182,1,0,3:0:0:0:
332,121,24271,1,0,3:0:0:0:
317,108,24360,1,0,3:0:0:0:
304,93,24448,1,0,3:0:0:0:
459,159,24626,1,0,3:0:0:0:
299,219,24803,6,0,P|216:204|122:192,1,160,6|0,0:0|1:0,0:0:0:0:
60,283,25336,1,0,1:0:0:0:
2,178,25513,2,0,P|7:137|10:80,1,80,2|0,0:0|0:0,0:0:0:0:
133,10,25868,2,0,P|135:49|140:89,1,80,0|0,1:0|0:0,0:0:0:0:
250,218,26224,6,0,P|327:232|395:172,1,160,2|0,0:0|1:0,0:0:0:0:
309,58,26756,2,0,P|299:96|305:136,1,80,2|0,0:0|0:0,0:0:0:0:
401,103,27111,1,2,0:0:0:0:
212,138,27289,2,0,P|170:133|126:130,1,80,0|0,1:0|0:0,0:0:0:0:
49,265,27644,6,0,P|91:270|135:273,1,80,2|0,0:0|0:0,0:0:0:0:
288,278,27999,1,0,1:0:0:0:
212,138,28176,2,0,P|208:82|286:11,1,160,0|0,1:0|0:0,0:0:0:0:
379,108,28709,2,0,L|300:105,1,80,0|0,1:0|0:0,0:0:0:0:
429,28,29064,5,0,1:0:0:0:
413,190,29241,2,0,P|454:194|501:184,1,80,0|0,1:0|0:0,0:0:0:0:
299,105,29596,2,0,P|308:189|316:270,1,160,0|0,1:0|1:0,0:0:0:0:
200,361,30129,1,0,3:0:0:0:
200,361,30218,1,0,3:0:0:0:
200,361,30306,2,0,L|144:358,1,40,0|0,3:0|0:0,3:0:0:0:
149,259,30484,6,0,L|220:253,1,71.9999978027344,6|0,0:0|0:0,0:0:0:0:
180,153,30839,1,0,1:0:0:0:
78,188,31016,2,0,P|51:238|74:325,1,143.999995605469,2|0,0:0|0:0,0:0:0:0:
180,153,31549,1,0,1:0:0:0:
180,153,31904,6,0,P|179:116|170:59,1,71.9999978027344,2|0,0:0|0:0,0:0:0:0:
258,13,32259,1,0,1:0:0:0:
362,43,32437,2,0,P|363:114|372:193,1,143.999995605469,2|0,0:0|0:0,0:0:0:0:
272,291,32969,1,0,1:0:0:0:
272,291,33324,6,0,P|304:281|347:276,1,71.9999978027344,2|0,0:0|0:0,0:0:0:0:
449,285,33679,1,0,1:0:0:0:
492,185,33857,2,0,P|483:111|477:36,1,143.999995605469,2|0,0:0|0:0,0:0:0:0:
355,118,34389,1,0,1:0:0:0:
355,118,34744,6,0,P|316:116|276:109,1,71.9999978027344,2|0,0:0|0:0,0:0:0:0:
178,84,35099,1,0,1:0:0:0:
103,162,35277,2,0,P|109:227|117:312,1,143.999995605469,2|0,0:0|0:0,0:0:0:0:
227,214,35809,1,0,1:0:0:0:
227,214,36164,6,0,P|267:202|304:195,1,71.9999978027344,2|0,0:0|0:0,0:0:0:0:
404,193,36519,1,0,1:0:0:0:
391,85,36697,2,0,P|354:55|254:41,1,143.999995605469,2|0,0:0|0:0,0:0:0:0:
134,107,37229,2,0,P|98:105|49:100,1,71.9999978027344,0|0,1:0|0:0,0:0:0:0:
165,240,37584,6,0,P|235:236|330:226,1,143.999995605469,2|0,0:0|1:0,0:0:0:0:
414,205,38117,2,0,P|454:258|442:356,1,143.999995605469,2|0,0:0|0:0,0:0:0:0:
316,379,38650,1,0,1:0:0:0:
316,379,38827,1,0,0:0:0:0:
236,276,39005,6,0,L|239:190,1,71.9999978027344,2|0,0:0|0:0,0:0:0:0:
248,96,39360,1,0,1:0:0:0:
350,62,39537,2,0,P|415:63|475:135,1,143.999995605469,2|0,0:0|0:0,0:0:0:0:
385,227,40070,2,0,L|380:156,1,71.9999978027344,0|0,1:0|0:0,0:0:0:0:
480,260,40425,5,2,0:0:0:0:
320,303,40602,1,0,1:0:0:0:
472,368,40780,1,0,1:0:0:0:
386,227,40957,1,0,0:0:0:0:
386,227,41046,1,0,0:0:0:0:
385,227,41135,2,0,L|380:156,1,71.9999978027344,2|0,0:0|1:0,0:0:0:0:
278,52,41490,1,0,1:0:0:0:
261,45,41579,1,0,1:0:0:0:
243,41,41667,1,0,1:0:0:0:
225,44,41756,1,0,1:0:0:0:
208,49,41845,6,0,L|111:43,1,71.9999978027344,0|0,1:0|0:0,0:0:0:0:
14,122,42200,1,0,1:0:0:0:
14,122,42377,1,0,0:0:0:0:
118,221,42555,2,0,L|215:227,1,71.9999978027344,0|0,1:0|0:0,0:0:0:0:
312,148,42910,1,0,1:0:0:0:
312,148,43087,1,0,0:0:0:0:
403,259,43265,6,0,P|401:292|393:342,1,71.9999978027344,0|0,1:0|0:0,0:0:0:0:
312,148,43620,2,0,P|310:115|302:65,1,71.9999978027344,0|0,1:0|0:0,0:0:0:0:
425,154,43975,1,0,1:0:0:0:
310,242,44153,1,0,0:0:0:0:
206,141,44330,2,0,P|173:143|123:151,1,71.9999978027344,0|0,1:0|0:0,0:0:0:0:
13,262,44685,6,0,P|66:263|171:273,1,143.999995605469,4|0,1:2|3:0,0:0:0:0:
316,315,45218,2,0,P|270:308|199:381,1,143.999995605469,4|0,1:2|3:0,0:0:0:0:
395,363,45750,2,0,P|406:324|398:275,1,71.9999978027344,0|0,1:0|0:0,0:0:0:0:
346,144,46105,5,4,1:2:0:0:
207,221,46283,2,0,L|109:212,1,71.9999978027344,4|0,1:2|3:0,0:0:0:0:
233,118,46638,1,4,1:2:0:0:
309,264,46815,1,0,3:0:0:0:
308,282,46904,1,0,3:0:0:0:
306,299,46993,1,0,3:0:0:0:
304,317,47082,1,0,3:0:0:0:
303,334,47170,1,0,1:0:0:0:
397,234,47348,1,0,1:0:0:0:
207,221,47525,6,0,P|152:238|86:230,1,107.999996704102,2|0,0:0|0:0,0:0:0:0:
76,222,47880,1,0,1:0:0:0:
139,108,48058,2,0,L|127:25,1,71.9999978027344,0|0,1:0|0:0,0:0:0:0:
46,106,48413,1,0,0:0:0:0:
225,106,48590,2,0,L|213:23,1,71.9999978027344,0|0,1:0|0:0,0:0:0:0:
343,115,48945,6,0,P|338:178|333:236,1,107.999996704102,2|0,0:0|0:0,0:0:0:0:
332,251,49300,1,0,1:0:0:0:
472,210,49478,2,0,P|476:157|480:108,1,71.9999978027344,0|0,1:0|0:0,0:0:0:0:
488,30,49833,1,0,0:0:0:0:
358,37,50010,2,0,P|322:33|284:30,1,71.9999978027344,0|0,1:0|0:0,0:0:0:0:
171,130,50366,6,0,P|207:126|245:123,1,71.9999978027344,2|0,0:0|0:0,0:0:0:0:
120,33,50721,1,0,1:0:0:0:
19,114,50898,2,0,P|17:154|17:193,1,71.9999978027344,2|0,0:0|0:0,0:0:0:0:
70,279,51253,1,0,0:0:0:0:
207,235,51431,2,0,P|240:244|275:269,1,71.9999978027344,0|0,1:0|0:0,0:0:0:0:
400,329,51786,6,0,P|389:236|385:175,1,143.999995605469,2|0,0:0|1:0,0:0:0:0:
288,79,52318,2,0,P|282:125|280:155,1,71.9999978027344,2|0,0:0|0:0,0:0:0:0:
375,41,52673,1,0,3:0:0:0:
210,19,52851,1,0,1:0:0:0:
210,19,52939,1,0,3:0:0:0:
210,19,53028,2,0,L|147:26,1,35.9999989013672,0|0,3:0|0:0,0:0:0:0:
112,101,53206,6,0,L|202:113,1,71.9999978027344,0|0,1:0|0:0,0:0:0:0:
246,240,53561,1,0,1:0:0:0:
143,206,53738,1,0,0:0:0:0:
280,150,53916,2,0,P|322:144|360:135,1,71.9999978027344,0|0,1:0|0:0,0:0:0:0:
468,54,54271,2,0,P|426:48|388:39,1,71.9999978027344,0|0,1:0|0:0,0:0:0:0:
245,48,54626,5,0,1:0:0:0:
280,150,54803,1,0,0:0:0:0:
151,83,54981,2,0,P|145:43|152:6,1,71.9999978027344,0|0,1:0|0:0,0:0:0:0:
280,150,55336,2,0,P|286:190|279:227,1,71.9999978027344,0|0,1:0|0:0,0:0:0:0:
151,153,55691,2,0,P|145:113|152:76,1,71.9999978027344,0|0,1:0|0:0,0:0:0:0:
281,221,56046,6,0,P|287:261|280:298,1,71.9999978027344,6|0,0:2|0:0,0:0:0:0:
128,355,56401,1,0,3:0:0:0:
110,352,56490,1,0,3:0:0:0:
92,348,56579,1,0,3:0:0:0:
74,344,56667,1,0,3:0:0:0:
56,340,56756,6,0,P|50:304|45:265,1,71.9999978027344,6|0,0:0|0:0,0:0:0:0:
29,125,57111,1,0,3:0:0:0:
46,129,57200,1,0,3:0:0:0:
63,132,57289,1,0,3:0:0:0:
80,131,57377,1,0,3:0:0:0:
97,128,57466,5,6,0:0:0:0:
190,73,57644,1,0,1:0:0:0:
191,180,57821,1,0,1:0:0:0:
284,126,57999,1,0,3:0:0:0:
284,126,58087,1,0,3:0:0:0:
284,126,58176,2,0,L|335:121,3,35.9999989013672,0|0|0|0,3:0|3:0|3:0|3:0,3:0:0:0:
342,150,58531,2,0,L|430:143,1,71.9999978027344,0|0,3:0|0:0,0:0:0:0:
318,262,58886,6,0,L|230:255,1,71.9999978027344,2|0,0:0|0:0,0:0:0:0:
123,247,59241,1,0,1:0:0:0:
189,143,59419,2,0,P|197:95|116:16,1,143.999995605469,0|0,1:0|0:0,0:0:0:0:
28,65,59951,2,0,L|37:155,1,71.9999978027344,0|0,1:0|0:0,0:0:0:0:
123,247,60306,6,0,P|155:242|202:237,1,71.9999978027344,2|0,0:0|0:0,0:0:0:0:
186,360,60661,1,0,1:0:0:0:
294,303,60839,2,0,P|297:241|290:154,1,143.999995605469,2|0,0:0|0:0,0:0:0:0:
406,121,61371,2,0,P|404:152|407:195,1,71.9999978027344,0|0,1:0|0:0,0:0:0:0:
477,42,61726,6,0,P|426:16|332:46,1,143.999995605469,6|0,0:0|3:0,0:0:0:0:
291,160,62259,2,0,P|240:186|146:156,1,143.999995605469,6|0,0:0|3:0,0:0:0:0:
51,81,62792,2,0,P|43:129|33:154,1,71.9999978027344,6|0,0:0|0:0,0:0:0:0:
164,24,63147,1,6,0:0:0:0:
246,93,63857,6,0,L|329:85,1,71.9999978027344,0|0,1:0|0:0,0:0:0:0:
425,76,64212,1,0,1:0:0:0:
483,174,64389,1,0,0:0:0:0:
483,174,64478,1,0,0:0:0:0:
483,174,64567,6,0,P|487:215|487:264,1,88.000002685547,6|0,0:0|0:0,0:0:0:0:
367,351,64922,1,0,1:0:0:0:
247,261,65099,2,0,B|197:251|197:251|131:269|131:269|64:255,1,176.000005371094,0|0,1:0|0:0,0:0:0:0:
202,353,65632,1,0,1:0:0:0:
202,353,65809,1,0,0:0:0:0:
342,262,65987,6,0,P|338:220|334:169,1,88.000002685547,2|0,0:0|0:0,0:0:0:0:
320,24,66342,1,0,1:0:0:0:
201,114,66519,2,0,B|162:134|162:134|70:112|70:112|109:88,1,176.000005371094,0|0,1:0|0:0,0:0:0:0:
231,14,67052,1,0,1:0:0:0:
231,14,67229,1,0,0:0:0:0:
259,179,67407,6,0,P|251:226|245:270,1,88.000002685547,2|0,0:0|0:0,0:0:0:0:
354,150,67762,1,0,1:0:0:0:
200,113,67939,2,0,P|154:114|96:109,1,88.000002685547,0|0,1:0|0:0,0:0:0:0:
231,14,68295,1,2,0:0:0:0:
35,64,68472,2,0,P|22:103|40:165,1,88.000002685547,0|0,1:0|0:0,0:0:0:0:
158,281,68827,6,0,P|166:236|171:180,1,88.000002685547,2|0,0:0|0:0,0:0:0:0:
62,344,69182,1,0,1:0:0:0:
245,372,69360,2,0,P|319:358|431:346,1,176.000005371094,0|0,1:0|0:0,0:0:0:0:
510,186,69892,2,0,P|473:179|417:173,1,88.000002685547,0|0,1:0|0:0,0:0:0:0:
240,140,70247,6,0,P|228:96|222:49,1,88.000002685547,6|0,0:0|0:0,0:0:0:0:
348,117,70602,1,0,1:0:0:0:
295,248,70780,2,0,P|209:245|106:239,1,176.000005371094,0|0,1:0|0:0,0:0:0:0:
29,120,71312,2,0,P|72:118|123:115,1,88.000002685547,0|0,1:0|0:0,0:0:0:0:
255,20,71667,6,0,P|212:18|160:15,1,88.000002685547,2|0,0:0|0:0,0:0:0:0:
305,111,72022,2,0,P|348:109|399:106,1,88.000002685547,0|0,1:0|0:0,0:0:0:0:
512,100,72377,1,2,0:0:0:0:
416,8,72555,1,0,0:0:0:0:
450,180,72732,2,0,P|395:200|353:192,1,88.000002685547,0|0,1:0|0:0,0:0:0:0:
201,134,73087,6,0,P|135:143|42:152,1,132.00000402832,2|0,0:0|0:0,0:0:0:0:
34,151,73442,1,0,1:0:0:0:
6,298,73620,1,0,1:0:0:0:
135,372,73797,2,0,P|179:367|247:354,1,88.000002685547,2|0,0:0|0:0,0:0:0:0:
331,255,74153,2,0,P|287:250|219:237,1,88.000002685547,0|0,1:0|0:0,0:0:0:0:
412,191,74508,6,0,P|434:247|409:323,1,132.00000402832,2|0,0:0|0:0,0:0:0:0:
391,339,74863,1,0,1:0:0:0:
244,242,75040,2,0,L|252:56,1,176.000005371094,0|0,1:0|0:0,0:0:0:0:
109,17,75573,1,0,1:0:0:0:
87,20,75661,1,0,3:0:0:0:
65,25,75750,1,0,3:0:0:0:
47,37,75839,1,0,3:0:0:0:
35,56,75928,6,0,P|60:87|113:108,1,88.000002685547,6|0,0:0|0:0,0:0:0:0:
255,32,76283,1,0,1:0:0:0:
227,155,76460,1,0,0:0:0:0:
373,93,76638,2,0,P|382:135|391:195,1,88.000002685547,0|0,1:0|0:0,0:0:0:0:
244,242,76993,2,0,P|235:200|226:140,1,88.000002685547,0|0,1:0|0:0,0:0:0:0:
91,66,77348,5,0,1:0:0:0:
149,219,77525,1,0,0:0:0:0:
192,61,77703,1,0,1:0:0:0:
64,164,77880,1,0,0:0:0:0:
228,155,78058,2,0,P|273:159|324:160,1,88.000002685547,0|0,1:0|0:0,0:0:0:0:
474,147,78413,1,0,1:0:0:0:
376,58,78590,1,0,0:0:0:0:
376,234,78768,6,0,P|331:254|272:245,1,88.000002685547,6|0,0:0|0:0,0:0:0:0:
143,200,79123,1,0,1:0:0:0:
278,87,79300,2,0,B|306:122|306:122|291:265,1,176.000005371094,4|0,0:0|0:0,0:0:0:0:
166,375,79833,2,0,L|155:273,1,88.000002685547,0|0,1:0|0:0,0:0:0:0:
147,96,80188,6,0,P|217:94|286:86,1,132.00000402832,4|0,0:0|0:0,0:0:0:0:
299,58,80543,2,0,P|338:53|413:49,1,88.000002685547,0|0,1:0|0:0,0:0:0:0:
495,177,80898,1,0,1:0:0:0:
495,177,80987,1,0,3:0:0:0:
495,177,81076,1,0,3:0:0:0:
370,135,81253,1,0,3:0:0:0:
469,47,81431,1,0,3:0:0:0:
396,235,81608,6,0,P|351:231|288:236,1,88.000002685547,6|0,0:0|0:0,0:0:0:0:
149,309,81963,1,0,1:0:0:0:
38,171,82141,2,0,B|45:42|45:42|95:97,1,176.000005371094,0|0,1:0|0:0,0:0:0:0:
195,166,82673,2,0,P|234:152|306:140,1,88.000002685547,0|0,1:0|0:0,0:0:0:0:
423,184,83028,5,0,3:0:0:0:
325,324,83206,1,0,3:0:0:0:
487,268,83383,1,0,1:0:0:0:
323,218,83561,1,0,1:0:0:0:
427,354,83738,2,0,L|471:348,3,44.0000013427735,0|0|0|0,1:0|3:0|3:0|3:0,0:0:0:0:
505,341,84093,1,0,1:0:0:0:
502,305,84182,1,0,3:0:0:0:
495,270,84271,1,0,3:0:0:0:
486,235,84360,1,0,3:0:0:0:
479,200,84448,6,0,B|439:184|439:184|355:231|264:188|264:188|295:152|300:76|244:36,1,391.99998803711,6|0,0:0|0:0,0:0:0:0:
184,121,85868,6,0,L|49:103,2,132.00000402832,6|4|4,0:0|3:0|3:0,0:0:0:0:
268,256,86579,2,0,L|403:238,2,132.00000402832,6|4|4,0:0|3:0|3:0,0:0:0:0:
110,285,87289,6,0,P|79:253|66:216,1,80,6|0,0:0|0:0,0:0:0:0:
113,67,87644,1,0,1:0:0:0:
228,138,87821,2,0,P|284:126|390:111,1,160,2|0,0:0|3:0,0:0:0:0:
490,24,88354,2,0,P|462:18|409:10,1,80,0|0,1:0|0:0,0:0:0:0:
269,37,88709,6,0,P|241:43|188:50,1,80,2|0,0:0|0:0,0:0:0:0:
33,16,89064,1,0,1:0:0:0:
86,140,89241,2,0,B|107:179|107:179|87:300,1,160,2|0,0:0|3:0,0:0:0:0:
212,366,89774,2,0,L|227:275,1,80,0|0,1:0|0:0,0:0:0:0:
324,160,90129,6,0,P|373:162|432:162,1,80,2|0,0:0|0:0,0:0:0:0:
301,38,90484,1,0,1:0:0:0:
224,177,90661,2,0,P|258:239|363:254,1,160,2|0,0:0|0:0,0:0:0:0:
497,231,91194,2,0,P|501:190|509:129,1,80,0|0,1:0|0:0,0:0:0:0:
358,40,91549,6,0,P|362:81|370:142,1,80,2|0,0:0|0:0,0:0:0:0:
425,268,91904,1,0,1:0:0:0:
290,246,92082,2,0,P|193:236|122:224,1,160,2|0,0:0|0:0,0:0:0:0:
26,105,92614,2,0,P|74:100|110:94,1,80,0|0,1:0|0:0,0:0:0:0:
278,31,92969,5,6,0:0:0:0:
278,31,93324,2,0,P|300:67|300:117,1,80,0|0,1:0|0:0,0:0:0:0:
225,206,93679,2,0,P|182:207|139:182,1,80,2|0,0:0|0:0,0:0:0:0:
102,71,94034,2,0,P|122:33|165:8,1,80,0|0,1:0|0:0,0:0:0:0:
278,31,94389,6,0,B|318:50|318:50|440:32,1,160,2|0,0:0|1:0,0:0:0:0:
509,173,94922,2,0,L|405:186,1,80,0|0,1:0|0:0,0:0:0:0:
310,203,95277,1,2,0:0:0:0:
436,300,95454,2,0,P|441:346|441:382,1,80,0|0,1:0|0:0,0:0:0:0:
271,329,95809,5,6,0:0:0:0:
271,329,96164,2,0,L|178:343,1,80,0|0,1:0|0:0,0:0:0:0:
88,264,96519,2,0,L|122:176,1,80,2|0,0:0|0:0,0:0:0:0:
235,139,96874,2,0,L|293:212,1,80,0|0,1:0|0:0,0:0:0:0:
402,311,97229,5,2,0:0:0:0:
385,183,97407,1,0,0:0:0:0:
271,329,97584,1,0,1:0:0:0:
160,171,97762,2,0,B|108:155|108:155|-2:170,1,160,2|0,0:0|3:0,0:0:0:0:
159,56,98295,1,0,1:0:0:0:
159,56,98383,1,0,3:0:0:0:
159,56,98472,2,0,L|217:47,1,40,0|0,3:0|3:0,0:0:0:0:
291,21,98650,6,0,L|395:27,1,80,6|0,0:0|0:0,0:0:0:0:
484,181,99005,2,0,L|380:187,1,80,0|0,1:0|0:0,0:0:0:0:
268,48,99360,2,0,L|372:54,1,80,0|0,1:0|0:0,0:0:0:0:
461,208,99715,2,0,L|357:214,1,80,0|0,1:0|0:0,0:0:0:0:
189,228,100070,6,0,P|177:270|193:324,1,80,0|0,1:0|0:0,0:0:0:0:
276,139,100425,1,0,1:0:0:0:
117,152,100602,1,0,0:0:0:0:
266,273,100780,2,0,P|272:306|251:363,1,80,0|0,1:0|0:0,0:0:0:0:
77,248,101135,1,0,1:0:0:0:
195,95,101312,1,0,0:0:0:0:
266,273,101490,5,0,1:0:0:0:
338,111,101667,1,0,0:0:0:0:
376,285,101845,1,0,1:0:0:0:
244,166,102022,1,0,0:0:0:0:
419,184,102200,1,0,1:0:0:0:
266,273,102377,1,0,0:0:0:0:
338,111,102555,1,0,1:0:0:0:
376,285,102732,1,0,0:0:0:0:
244,166,102910,6,0,B|164:144|161:206|73:173,1,160,0|2,1:0|1:2,0:0:0:0:
118,83,103442,1,0,0:0:0:0:
10,232,103620,1,0,3:0:0:0:
16,251,103709,1,0,3:0:0:0:
21,269,103797,1,0,3:0:0:0:
26,288,103886,1,0,3:0:0:0:
32,306,103975,1,0,3:0:0:0:
138,362,104153,1,0,3:0:0:0:
225,279,104330,6,0,B|278:271|278:271|331:281|331:281|409:270,1,160,6|0,0:0|1:0,0:0:0:0:
471,192,104863,1,0,1:0:0:0:
393,100,105040,2,0,P|351:96|295:116,1,80,2|0,0:0|0:0,0:0:0:0:
205,155,105395,2,0,P|163:159|107:139,1,80,0|0,1:0|0:0,0:0:0:0:
27,44,105750,6,0,P|19:110|-1:228,1,160,2|0,0:0|1:0,0:0:0:0:
93,344,106283,2,0,P|97:311|107:252,1,80,2|0,0:0|0:0,0:0:0:0:
128,149,106638,1,0,0:0:0:0:
249,252,106815,2,0,P|295:246|345:244,1,80,0|0,1:0|0:0,0:0:0:0:
438,86,107170,6,0,P|392:80|342:78,1,80,2|0,0:0|0:0,0:0:0:0:
198,73,107525,1,0,1:0:0:0:
325,169,107703,2,0,B|349:212|349:212|329:337,1,160,0|0,1:0|0:0,0:0:0:0:
182,379,108235,2,0,L|167:286,1,80,0|0,1:0|0:0,0:0:0:0:
138,126,108590,5,0,1:0:0:0:
255,258,108768,1,0,1:0:0:0:
95,246,108945,1,0,0:0:0:0:
236,115,109123,2,0,P|211:59|121:27,1,160,0|0,1:0|3:0,0:0:0:0:
8,149,109655,1,0,3:0:0:0:
11,176,109744,1,0,3:0:0:0:
13,203,109833,1,0,3:0:0:0:
14,231,109922,1,0,3:0:0:0:
17,258,110010,1,4,0:0:0:0:
207,173,110366,6,0,P|260:149|367:197,1,160,0|0,1:0|0:0,0:0:0:0:
498,185,110898,2,0,P|445:209|338:161,1,160,0|0,1:0|0:0,0:0:0:0:
221,17,111431,5,4,1:2:0:0:
256,192,111519,12,0,115691,0:0:0:0:
