osu file format v13

[General]
AudioFilename: Ideal White.mp3
AudioLeadIn: 1000
PreviewTime: 48197
Countdown: 0
SampleSet: Soft
StackLeniency: 0.7
Mode: 0
LetterboxInBreaks: 0
WidescreenStoryboard: 0

[Editor]
DistanceSpacing: 1
BeatDivisor: 4
GridSize: 4
TimelineZoom: 2.4

[Metadata]
Title:ideal white (TV size)
TitleUnicode:ideal white (TV size)
Artist:Ayano Mashiro
ArtistUnicode:綾野ましろ
Creator:xChippy
Version:Easy
Source:Fate/stay night [Unlimited Blade Works]
Tags:フェイト/ステイナイト CXu koreapenguin icemixxa ufotable opening TYPE MOON
BeatmapID:514820
BeatmapSetID:219926

[Difficulty]
HPDrainRate:2
CircleSize:3
OverallDifficulty:2
ApproachRate:3
SliderMultiplier:0.899999999999999
SliderTickRate:1

[Events]
//Background and Video events
0,0,"FSNUBW.jpg.jpg",0,0
Video,0,"Fate - Stay Night - Unlimited Blade Works OP.avi"
//Break Periods
//Storyboard Layer 0 (Background)
//Storyboard Layer 1 (Fail)
//Storyboard Layer 2 (Pass)
//Storyboard Layer 3 (Foreground)
//Storyboard Sound Samples
//Background Colour Transformations
3,100,163,162,255

[TimingPoints]
448,333.333333333333,4,2,1,50,1,0
8447,-100,4,2,1,60,0,0
11114,-100,4,2,1,40,0,0
21781,-100,4,2,2,60,0,0
21947,-100,4,2,1,40,0,0
22781,-100,4,2,2,60,0,0
22947,-100,4,2,1,40,0,0
24447,-100,4,2,2,60,0,0
24614,-100,4,2,1,40,0,0
25447,-100,4,2,2,60,0,0
25614,-100,4,2,1,40,0,0
27114,-100,4,2,2,60,0,0
27281,-100,4,2,1,40,0,0
28114,-100,4,2,2,60,0,0
28281,-100,4,2,1,40,0,0
32447,-100,4,2,2,60,0,0
33781,-100,4,2,1,60,0,0
34447,-100,4,2,2,60,0,0
36447,-100,4,2,2,60,0,0
36947,-100,4,2,1,60,0,0
37114,-100,4,2,2,60,0,0
37364,-100,4,2,1,60,0,0
37781,-100,4,2,2,60,0,0
39114,-100,4,2,1,60,0,0
39781,-100,4,2,2,60,0,0
40447,-100,4,2,1,60,0,0
48447,-100,4,2,1,85,0,1
57781,-100,4,2,1,85,0,1
59114,-100,4,2,1,85,0,0
69781,-100,4,2,1,85,0,1
83114,-100,4,2,1,70,0,0
88447,-100,4,2,1,15,0,0

[Colours]
Combo1 : 255,55,55
Combo2 : 125,0,0
Combo3 : 255,159,113

[HitObjects]
353,160,448,6,0,P|450:203|305:271,1,360,4|2,0:0|0:0,0:0:0:0:
256,103,2447,1,2,0:0:0:0:
204,276,3114,6,0,P|60:265|158:159,1,360,2|2,0:0|0:0,0:0:0:0:
334,198,5114,1,2,0:0:0:0:
256,35,5781,5,4,0:0:0:0:
256,192,6114,12,4,8447,0:0:0:0:
111,151,9614,6,0,L|207:143,1,89.9999999999999,6|6,0:0|0:0,0:0:0:0:
290,143,10281,2,0,B|297:197|297:197|291:227|291:227|301:278,1,135,12|8,0:0|0:0,0:0:0:0:
364,339,11114,6,0,P|446:315|452:226,1,180,2|2,0:0|0:0,0:0:0:0:
412,151,12114,1,2,0:0:0:0:
347,214,12447,2,0,P|305:228|261:226,1,89.9999999999999,2|2,0:0|0:0,0:0:0:0:
182,182,13114,6,0,P|94:166|6:198,2,180,2|2|2,0:0|0:0|0:0,0:0:0:0:
220,263,14781,1,2,0:0:0:0:
283,199,15114,2,0,P|332:187|378:194,1,89.9999999999999,2|2,0:0|0:0,0:0:0:0:
419,267,15781,6,0,P|392:212|417:91,1,180,2|2,0:0|0:0,0:0:0:0:
245,25,17114,2,0,L|236:131,1,89.9999999999999,2|2,0:0|0:0,0:0:0:0:
284,191,17781,2,0,P|212:152|111:174,1,180,2|2,0:0|0:0,0:0:0:0:
55,232,18781,1,2,0:0:0:0:
100,309,19114,6,0,P|178:349|265:331,1,180,2|2,0:0|0:0,0:0:0:0:
392,203,20447,2,0,L|201:180,1,180,2|2,0:0|0:0,0:0:0:0:
123,177,21447,1,2,0:0:0:0:
172,100,21781,6,0,L|160:296,1,180,12|2,0:0|0:0,0:0:0:0:
240,324,22781,2,0,L|252:128,1,180,8|2,0:0|0:0,0:0:0:0:
324,87,23781,2,0,P|366:77|432:87,1,89.9999999999999,2|2,0:0|0:0,0:0:0:0:
420,172,24447,6,0,P|348:164|349:253,1,180,8|2,0:0|0:0,0:0:0:0:
410,314,25447,2,0,B|365:301|365:301|233:316,1,180,8|2,0:0|0:0,0:0:0:0:
142,316,26447,1,2,0:0:0:0:
64,269,26781,1,2,0:0:0:0:
64,179,27114,6,0,P|138:129|239:149,1,180,8|2,0:0|0:0,0:0:0:0:
287,203,28114,2,0,P|374:213|447:163,1,180,8|2,0:0|0:0,0:0:0:0:
410,80,29114,1,2,0:0:0:0:
324,49,29447,1,2,0:0:0:0:
238,76,29781,6,0,L|57:56,1,180,4|2,0:0|0:0,0:0:0:0:
27,140,30781,1,2,0:0:0:0:
105,184,31114,2,0,P|113:244|111:291,1,89.9999999999999,2|2,0:0|0:0,0:0:0:0:
200,283,31781,2,0,P|192:223|194:176,1,89.9999999999999,2|2,0:0|0:0,0:0:0:0:
281,202,32447,6,0,P|363:216|442:153,1,180,6|10,0:0|0:0,0:0:0:0:
294,51,33781,2,0,P|212:37|133:100,1,180,0|8,0:0|0:0,0:0:0:0:
113,178,34781,1,0,0:0:0:0:
196,211,35114,6,0,B|226:231|265:218|265:218|256:291|328:309,1,180,2|10,0:0|0:0,0:0:0:0:
425,166,36447,2,0,B|411:109|338:118|338:118|351:79|333:51,1,180,0|8,0:0|0:0,0:0:0:0:
245,29,37447,1,2,0:0:0:0:
216,114,37781,6,0,B|139:120|139:120|114:133|114:133|26:138,1,180,6|10,0:0|0:0,0:0:0:0:
99,307,39114,2,0,B|176:301|176:301|201:288|201:288|289:283,1,180,0|8,0:0|0:0,0:0:0:0:
365,283,40114,1,0,0:0:0:0:
324,202,40447,6,0,P|317:146|319:101,1,89.9999999999999,2|0,0:0|0:0,0:0:0:0:
231,86,41114,2,0,P|238:142|236:187,1,89.9999999999999,8|0,0:0|0:0,0:0:0:0:
185,249,41781,2,0,B|52:260|52:260|1:241,1,180,0|8,0:0|0:0,0:0:0:0:
44,160,42781,1,8,0:0:0:0:
107,96,43114,6,0,B|240:85|240:85|291:104,1,180,6|2,0:0|0:0,0:0:0:0:
314,185,44114,1,8,0:0:0:0:
361,261,44447,2,0,L|465:245,1,89.9999999999999,2|8,0:0|0:0,0:0:0:0:
430,335,45114,2,0,L|334:346,1,89.9999999999999,2|8,0:0|0:0,0:0:0:0:
253,323,45781,6,0,B|270:281|241:250|241:250|258:222|258:222|232:193|262:151,1,180,6|2,0:0|0:0,0:0:0:0:
256,68,46781,2,0,L|256:7,1,45,6|2,0:0|0:0,0:0:0:0:
329,221,48447,6,0,L|480:202,2,135,4|0|8,1:0|0:0|0:0,0:0:0:0:
238,221,49781,1,0,0:0:0:0:
276,139,50114,2,0,P|285:95|275:41,1,89.9999999999999,8|2,0:0|0:0,0:0:0:0:
198,92,50781,1,8,0:0:0:0:
161,174,51114,6,0,L|18:166,2,135,2|0|8,0:0|0:0|0:0,0:0:0:0:
238,221,52447,2,0,L|334:221,1,89.9999999999999,0|8,0:0|0:0,0:0:0:0:
377,296,53114,2,0,L|287:302,1,89.9999999999999,2|8,0:0|0:0,0:0:0:0:
204,337,53781,6,0,B|147:337|147:337|126:329|126:329|63:329,2,135,4|0|8,1:0|0:0|0:0,0:0:0:0:
287,302,55114,1,0,0:0:0:0:
223,238,55447,2,0,L|219:133,1,89.9999999999999,8|2,0:0|0:0,0:0:0:0:
216,58,56114,1,8,0:0:0:0:
299,91,56447,6,0,P|385:99|471:50,1,180,4|2,0:0|0:0,0:0:0:0:
508,231,57781,2,0,P|422:223|336:272,1,180,4|2,2:0|0:0,0:0:0:0:
169,309,59114,6,0,B|116:299|97:260|97:260|123:211|181:210,1,180,4|2,1:0|0:0,0:0:0:0:
244,164,60114,1,8,0:0:0:0:
326,199,60447,2,0,P|393:197|436:136,2,135,0|0|8,0:0|0:0|0:0,0:0:0:0:
281,120,61781,6,0,P|323:69|388:68,2,135,2|0|8,0:0|0:0|0:0,0:0:0:0:
241,200,63114,2,0,L|142:192,1,89.9999999999999,0|8,0:0|0:0,0:0:0:0:
72,235,63781,1,2,0:0:0:0:
108,317,64114,1,8,0:0:0:0:
197,317,64447,6,0,B|287:305|287:305|382:331,1,180,4|2,0:0|0:0,0:0:0:0:
456,362,65447,2,0,P|480:311|470:186,1,180,8|8,0:0|0:0,0:0:0:0:
425,113,66447,1,2,0:0:0:0:
346,157,66781,1,8,0:0:0:0:
326,247,67114,6,0,B|259:218|258:153|258:153|230:235|162:261,1,270,2|8,0:0|0:0,0:0:0:0:
80,295,68447,2,0,B|72:224|72:224|84:196|84:196|77:111,1,180,8|2,0:0|0:0,0:0:0:0:
241,48,69781,6,0,L|348:43,1,89.9999999999999,4|8,1:0|0:0,0:0:0:0:
419,52,70447,1,2,0:0:0:0:
382,134,70781,2,0,P|383:198|390:283,2,135,8|2|2,0:0|0:0|0:0,0:0:0:0:
318,70,72114,1,8,0:0:0:0:
291,155,72447,6,0,P|298:222|295:303,2,135,2|0|8,0:0|0:0|0:0,0:0:0:0:
208,118,73781,1,0,0:0:0:0:
177,202,74114,2,0,P|112:255|23:217,1,180,8|8,0:0|0:0,0:0:0:0:
95,162,75114,6,0,L|123:349,1,180,4|2,1:0|0:0,0:0:0:0:
209,361,76114,2,0,B|270:351|270:351|298:355|298:355|398:336,1,180,8|8,0:0|0:0,0:0:0:0:
450,274,77114,2,0,P|456:224|449:166,1,89.9999999999999,2|8,0:0|0:0,0:0:0:0:
364,200,77781,6,0,P|286:208|248:120,1,180,4|2,1:0|0:0,0:0:0:0:
212,42,78781,1,8,0:0:0:0:
148,105,79114,2,0,L|0:97,2,135,0|0|8,0:0|0:0|0:0,0:0:0:0:
193,182,80447,6,0,P|191:245|197:330,2,135,4|6|6,0:0|0:0|0:0,0:0:0:0:
256,118,81781,2,0,L|316:121,1,45,8|6,0:0|0:0,0:0:0:0:
274,252,82447,2,0,L|168:248,1,89.9999999999999,2|8,0:0|0:0,0:0:0:0:
102,208,83114,6,0,P|125:72|256:118,1,315,4|2,1:0|0:0,0:0:0:0:
325,234,84781,2,0,L|425:234,2,89.9999999999999,8|2|8,0:0|0:0|0:0,0:0:0:0:
261,170,85781,6,0,B|248:118|248:118|261:22,2,135,12|12|12,0:0|0:0|0:0,0:0:0:0:
289,255,87114,2,0,B|218:253|218:253|197:263|197:263|103:259,2,180,8|8|0,0:0|0:0|0:0,0:0:0:0:
