osu file format v14

[General]
AudioFilename: Ayano Mashiro - ideal white.mp3
AudioLeadIn: 2000
PreviewTime: 48084
Countdown: 0
SampleSet: Soft
StackLeniency: 0.7
Mode: 0
LetterboxInBreaks: 0
EpilepsyWarning: 1
WidescreenStoryboard: 1

[Editor]
DistanceSpacing: 1.3
BeatDivisor: 4
GridSize: 4
TimelineZoom: 1

[Metadata]
Title:ideal white
TitleUnicode:ideal white
Artist:Ayano Mashiro
ArtistUnicode:綾野ましろ
Creator:Modem
Version:Easy
Source:Fate/stay night [Unlimited Blade Works]
Tags:opening TYPE MOON ufotable 綾野ましろ visual novel saber emiya shirou archer tohsaka rin VINXIS 10nya -_t_e_n_n_y_a_- canadian tire
BeatmapID:554865
BeatmapSetID:240028

[Difficulty]
HPDrainRate:2
CircleSize:3
OverallDifficulty:2
ApproachRate:2
SliderMultiplier:0.7
SliderTickRate:1

[Events]
//Background and Video events
0,0,"bg1.jpg",0,0
//Break Periods
2,84251,86857
2,150917,158857
2,171284,174191
2,183084,192191
2,204617,205857
//Storyboard Layer 0 (Background)
//Storyboard Layer 1 (Fail)
//Storyboard Layer 2 (Pass)
//Storyboard Layer 3 (Foreground)
//Storyboard Sound Samples

[TimingPoints]
418,333.333333333333,4,2,1,80,1,0
751,-100,4,2,3,60,0,0
1084,-100,4,2,1,60,0,0
1417,-100,4,2,3,60,0,0
1751,-100,4,2,1,60,0,0
3417,-100,4,2,3,60,0,0
3751,-100,4,2,1,60,0,0
4084,-100,4,2,3,60,0,0
4417,-100,4,2,1,60,0,0
5417,-100,4,2,3,60,0,0
5751,-100,4,2,1,60,0,0
6417,-100,4,2,1,10,0,0
7084,-100,4,2,1,20,0,0
7417,-100,4,2,1,30,0,0
7751,-100,4,2,1,40,0,0
8084,-100,4,2,1,50,0,0
8417,-100,4,2,1,70,0,0
10584,-100,4,2,3,100,0,0
10751,-100,4,2,1,60,0,0
11084,-100,4,2,2,60,0,0
11417,-100,4,2,3,60,0,0
11751,-100,4,2,1,60,0,0
12751,-100,4,2,3,60,0,0
13084,-100,4,2,1,60,0,0
13417,-100,4,2,3,60,0,0
13751,-100,4,2,2,60,0,0
14084,-100,4,2,1,60,0,0
15417,-100,4,2,3,60,0,0
15751,-100,4,2,1,60,0,0
16084,-100,4,2,3,60,0,0
16417,-100,4,2,2,60,0,0
16751,-100,4,2,1,60,0,0
18084,-100,4,2,3,60,0,0
18417,-100,4,2,1,60,0,0
18751,-100,4,2,3,60,0,0
19084,-100,4,2,2,60,0,0
19417,-100,4,2,1,60,0,0
20084,-100,4,2,3,60,0,0
20417,-100,4,2,2,60,0,0
21751,-100,4,2,2,70,0,0
22084,-100,4,2,3,70,0,0
22417,-100,4,2,1,70,0,0
22751,-100,4,2,2,70,0,0
23084,-100,4,2,3,70,0,0
23417,-100,4,2,1,70,0,0
24417,-100,4,2,2,70,0,0
24751,-100,4,2,3,70,0,0
25084,-100,4,2,1,70,0,0
25417,-100,4,2,2,70,0,0
25751,-100,4,2,3,70,0,0
26084,-100,4,2,1,70,0,0
27084,-100,4,2,2,70,0,0
27417,-100,4,2,3,70,0,0
27751,-100,4,2,1,70,0,0
28084,-100,4,2,2,70,0,0
28417,-100,4,2,1,70,0,0
29417,-100,4,2,1,80,0,0
30084,-100,4,2,3,80,0,0
30417,-100,4,2,2,60,0,0
30751,-100,4,2,1,80,0,0
31417,-100,4,2,3,80,0,0
31751,-100,4,2,1,80,0,0
32084,-100,4,2,1,90,0,0
32417,-100,4,2,1,80,0,0
33084,-100,4,2,2,80,0,0
35084,-100,4,2,1,80,0,0
35751,-100,4,2,2,80,0,0
37751,-100,4,2,1,80,0,0
38417,-100,4,2,2,80,0,0
40417,-100,4,2,1,80,0,0
41084,-100,4,2,2,80,0,0
43084,-100,4,2,1,100,0,0
43417,-100,4,2,4,100,0,0
43751,-100,4,2,1,100,0,0
44751,-100,4,2,4,100,0,0
45084,-100,4,2,1,100,0,0
45751,-100,4,2,2,80,0,0
46751,-100,4,2,2,100,0,0
48417,-100,4,2,1,100,0,1
48751,-100,4,2,4,100,0,1
49084,-100,4,2,3,100,0,1
49417,-100,4,2,1,100,0,1
50417,-100,4,2,3,100,0,1
50751,-100,4,2,1,100,0,1
51417,-100,4,2,4,100,0,1
51751,-100,4,2,3,100,0,1
52084,-100,4,2,1,100,0,1
52751,-100,4,2,4,100,0,1
53084,-100,4,2,3,100,0,1
53417,-100,4,2,1,100,0,1
54084,-100,4,2,4,100,0,1
54417,-100,4,2,3,100,0,1
54751,-100,4,2,1,100,0,1
55751,-100,4,2,3,100,0,1
56084,-100,4,2,1,100,0,1
56751,-100,4,2,4,100,0,1
57084,-100,4,2,1,100,0,1
58084,-100,4,2,4,100,0,1
58417,-100,4,2,3,100,0,1
58751,-100,4,2,1,100,0,1
59417,-100,4,2,4,100,0,1
59751,-100,4,2,3,100,0,1
60084,-100,4,2,1,100,0,1
60417,-100,4,2,3,100,0,1
60751,-100,4,2,4,100,0,1
61084,-100,4,2,1,100,0,1
62084,-100,4,2,4,100,0,1
62417,-100,4,2,3,100,0,1
62751,-100,4,2,1,100,0,1
63417,-100,4,2,4,100,0,1
63751,-100,4,2,1,100,0,1
64751,-100,4,2,4,100,0,1
65084,-100,4,2,1,100,0,1
67084,-100,4,2,1,10,0,1
68417,-100,4,2,1,20,0,1
68751,-100,4,2,1,30,0,1
69084,-100,4,2,1,40,0,0
69417,-100,4,2,1,50,0,0
69751,-100,4,2,1,100,0,1
72751,-100,4,2,4,100,0,1
73084,-100,4,2,3,100,0,1
73417,-100,4,2,1,100,0,1
74084,-100,4,2,4,100,0,1
74417,-100,4,2,3,100,0,1
74751,-100,4,2,4,100,0,1
75084,-100,4,2,1,100,0,1
75751,-100,4,2,3,100,0,1
76084,-100,4,2,1,100,0,1
78084,-100,4,2,4,100,0,1
78417,-100,4,2,3,100,0,1
78751,-100,4,2,1,100,0,1
79417,-100,4,2,4,100,0,1
79584,-100,4,2,1,100,0,1
80751,-100,4,2,4,100,0,1
80917,-100,4,2,1,100,0,1
83084,-100,4,2,1,100,0,0
88417,-100,4,2,2,80,0,0
93751,-100,4,2,1,100,0,0
94417,-100,4,2,3,100,0,0
94751,-100,4,2,1,100,0,0
96751,-100,4,2,4,100,0,0
97084,-100,4,2,1,100,0,0
98084,-100,4,2,4,100,0,0
98417,-100,4,2,1,100,0,0
98751,-100,4,2,4,100,0,0
99084,-100,4,2,1,100,0,0
99751,-100,4,2,2,70,0,0
101751,-100,4,2,1,70,0,0
102417,-100,4,2,2,70,0,0
104417,-100,4,2,1,70,0,0
105084,-100,4,2,2,70,0,0
107084,-100,4,2,1,70,0,0
107751,-100,4,2,2,70,0,0
109751,-100,4,2,1,100,0,0
110084,-100,4,2,4,100,0,0
110417,-100,4,2,1,100,0,0
111417,-100,4,2,4,100,0,0
111751,-100,4,2,1,100,0,0
112417,-100,4,2,2,100,0,0
115084,-100,4,2,1,100,0,1
115417,-100,4,2,4,100,0,1
115751,-100,4,2,3,100,0,1
116084,-100,4,2,1,100,0,1
117084,-100,4,2,3,100,0,1
117417,-100,4,2,1,100,0,1
119417,-100,4,2,4,100,0,1
119751,-100,4,2,3,100,0,1
120084,-100,4,2,1,100,0,1
120751,-100,4,2,4,100,0,1
121084,-100,4,2,3,100,0,1
121417,-100,4,2,1,100,0,1
123417,-100,4,2,4,100,0,1
123751,-100,4,2,3,100,0,1
124084,-100,4,2,1,100,0,1
124751,-100,4,2,4,100,0,1
125084,-100,4,2,3,100,0,1
125417,-100,4,2,1,100,0,1
126084,-100,4,2,4,100,0,1
126417,-100,4,2,3,100,0,1
126751,-100,4,2,1,100,0,1
127417,-100,4,2,4,100,0,1
127751,-100,4,2,1,100,0,1
128751,-100,4,2,4,100,0,1
129084,-100,4,2,3,100,0,1
129417,-100,4,2,1,100,0,1
130084,-100,4,2,4,100,0,1
130417,-100,4,2,1,100,0,1
131417,-100,4,2,4,100,0,1
131751,-100,4,2,3,100,0,1
132084,-100,4,2,1,100,0,1
132751,-100,4,2,4,100,0,1
133084,-100,4,2,1,100,0,1
133751,-100,4,2,1,10,0,1
135084,-100,4,2,1,20,0,1
135417,-100,4,2,1,30,0,1
135751,-100,4,2,1,40,0,0
136084,-100,4,2,1,50,0,0
136417,-100,4,2,1,100,0,1
140751,-100,4,2,4,100,0,1
141084,-100,4,2,3,100,0,1
141417,-100,4,2,1,100,0,1
142417,-100,4,2,3,100,0,1
142751,-100,4,2,1,100,0,1
144751,-100,4,2,4,100,0,1
145084,-100,4,2,3,100,0,1
145417,-100,4,2,1,100,0,1
146084,-100,4,2,4,100,0,1
146251,-100,4,2,1,100,0,1
147417,-100,4,2,4,100,0,1
147584,-100,4,2,1,100,0,1
149751,-100,4,2,1,100,0,0
160417,-100,4,2,1,80,0,0
160751,-100,4,2,4,80,0,0
161084,-100,4,2,1,80,0,0
161417,-100,4,2,4,80,0,0
161751,-100,4,2,1,80,0,0
162751,-100,4,2,4,80,0,0
163084,-100,4,2,1,85,0,0
165751,-100,4,2,1,90,0,0
168751,-100,4,2,4,90,0,0
169084,-100,4,2,1,90,0,0
170084,-100,4,2,4,90,0,0
170417,-100,4,2,1,90,0,0
170751,-100,4,2,4,90,0,0
171084,-100,4,2,1,90,0,0
177417,-100,4,2,4,100,0,0
177751,-100,4,2,1,100,0,0
179417,-100,4,2,4,100,0,0
179751,-100,4,2,1,100,0,0
181084,-100,4,2,3,100,0,0
181417,-100,4,2,4,100,0,0
181751,-100,4,2,1,100,0,0
193751,-100,4,2,2,100,0,0
194751,-100,4,2,2,60,0,0
195084,-100,4,2,2,100,0,0
196084,-100,4,2,2,60,0,0
196417,-100,4,2,2,100,0,0
196917,-100,4,2,2,60,0,0
197751,-100,4,2,2,100,0,0
198417,-100,4,2,2,60,0,0
198751,-100,4,2,2,90,0,0
199084,-100,4,2,2,100,0,0
199751,-100,4,2,2,60,0,0
200417,-100,4,2,2,100,0,0
201084,-100,4,2,2,60,0,0
201751,-100,4,2,2,10,0,0
202751,-100,4,2,1,15,0,0
203084,-100,4,2,1,20,0,0
203417,-100,4,2,1,30,0,0
203751,-100,4,2,1,40,0,0
204084,-100,4,2,1,50,0,0
204417,-100,4,2,1,70,0,0
207417,-100,4,2,1,100,0,1
207751,-100,4,2,3,100,0,1
208084,-100,4,2,1,100,0,1
209084,-100,4,2,3,100,0,1
209417,-100,4,2,1,100,0,1
210084,-100,4,2,4,100,0,1
210417,-100,4,2,1,100,0,1
211417,-100,4,2,4,100,0,1
211751,-100,4,2,1,100,0,1
212751,-100,4,2,4,100,0,1
213084,-100,4,2,1,100,0,1
214084,-100,4,2,4,100,0,1
214417,-100,4,2,1,100,0,1
215417,-100,4,2,4,100,0,1
215751,-100,4,2,3,100,0,1
216084,-100,4,2,1,100,0,1
216751,-100,4,2,4,100,0,1
217084,-100,4,2,3,100,0,1
217417,-100,4,2,1,100,0,1
218084,-100,4,2,4,100,0,1
218417,-100,4,2,1,100,0,1
219417,-100,4,2,4,100,0,1
219751,-100,4,2,1,100,0,1
220751,-100,4,2,4,100,0,1
221084,-100,4,2,3,100,0,1
221417,-100,4,2,1,100,0,1
222084,-100,4,2,4,100,0,1
222417,-100,4,2,3,100,0,1
222751,-100,4,2,1,100,0,1
223417,-100,4,2,4,100,0,1
223751,-100,4,2,3,100,0,1
224084,-100,4,2,1,100,0,1
224751,-100,4,2,4,100,0,1
225084,-100,4,2,1,100,0,1
225751,-100,4,2,1,10,0,1
227084,-100,4,2,1,20,0,1
227417,-100,4,2,1,30,0,1
227751,-100,4,2,1,40,0,0
228084,-100,4,2,1,50,0,0
228417,-100,4,2,1,100,0,1
231417,-100,4,2,4,100,0,1
231751,-100,4,2,3,100,0,1
232084,-100,4,2,1,100,0,1
232751,-100,4,2,4,100,0,1
233084,-100,4,2,1,100,0,1
234084,-100,4,2,4,100,0,1
234417,-100,4,2,1,100,0,1
235417,-100,4,2,4,100,0,1
235751,-100,4,2,1,100,0,1
236751,-100,4,2,4,100,0,1
237084,-100,4,2,3,100,0,1
237417,-100,4,2,1,100,0,1
238084,-100,4,2,4,100,0,1
238417,-100,4,2,3,100,0,1
238751,-100,4,2,1,100,0,1
239417,-100,4,2,4,100,0,1
239584,-100,4,2,1,100,0,1
240417,-100,4,2,4,100,0,1
240584,-100,4,2,1,100,0,1
242751,-100,4,2,4,100,0,1
242917,-100,4,2,1,100,0,1
244084,-100,4,2,4,100,0,1
244417,-100,4,2,1,100,0,1
247084,-100,4,2,2,45,0,0
248417,-100,4,2,2,20,0,0
253084,-100,4,2,2,10,0,0

[Colours]
Combo1 : 170,32,32
Combo2 : 13,134,255
Combo3 : 255,147,147
SliderBorder : 192,192,192

[HitObjects]
112,144,418,6,0,P|96:216|136:264,2,140,6|2|2,0:0|0:0|0:0,0:0:0:0:
256,32,2417,1,2,0:0:0:0:
400,144,3084,6,0,P|416:216|376:264,2,140,6|2|6,0:0|0:0|0:0,0:0:0:0:
224,188,5084,2,0,B|168:228|168:228|96:180,1,140,2|6,0:0|0:0,0:0:0:0:
256,192,6417,12,6,8417,0:0:0:0:
256,192,9584,6,0,L|288:272,1,70,6|6,0:0|0:0,0:0:0:0:
280,348,10251,2,0,P|336:336|368:288,1,105,6|6,0:0|0:0,0:0:0:0:
456,272,11084,6,0,B|432:208|432:208|384:224|352:192,1,140,6|2,0:0|0:0,0:0:0:0:
400,120,12084,1,2,0:0:0:0:
352,48,12417,2,0,P|428:38|480:88,2,140,2|2|2,0:0|0:0|0:0,0:0:0:0:
296,120,14084,6,0,L|248:176,1,70,2|2,0:0|0:0,0:0:0:0:
160,152,14751,1,2,0:0:0:0:
184,64,15084,2,0,P|112:72|72:124,2,140,2|2|2,0:0|0:0|0:0,0:0:0:0:
160,152,16751,6,0,L|160:224,1,70,2|2,0:0|0:0,0:0:0:0:
244,256,17417,1,2,0:0:0:0:
332,248,17751,2,0,P|300:328|248:348,2,140,2|2|2,0:0|0:0|0:0,0:0:0:0:
412,204,19417,5,2,0:0:0:0:
384,116,19751,2,0,B|360:52|360:52|312:68|280:36,1,140,2|2,0:0|0:0,0:0:0:0:
112,80,21084,2,0,L|32:80,1,70,2|2,0:0|0:0,0:0:0:0:
48,168,21751,6,0,P|32:232|72:296,1,140,8|2,0:0|0:3,0:0:0:0:
144,344,22751,2,0,P|160:280|120:216,1,140,8|2,0:0|0:0,0:0:0:0:
168,140,23751,1,2,0:3:0:0:
256,300,24417,6,0,B|312:252|312:252|312:180,1,140,8|2,0:0|0:3,0:0:0:0:
404,172,25417,2,0,B|404:105|404:105|460:57,1,140,8|2,0:0|0:0,0:0:0:0:
376,16,26417,1,2,0:3:0:0:
232,104,27084,6,0,B|160:104|160:104|152:144|112:160,1,140,8|2,0:0|0:3,0:0:0:0:
32,184,28084,2,0,L|56:256,1,70,8|2,0:0|0:0,0:0:0:0:
144,248,28751,2,0,L|168:320,1,70,2|2,0:0|0:3,0:0:0:0:
240,264,29417,1,2,0:0:0:0:
200,184,29751,6,0,P|264:176|324:232,1,140,6|8,0:0|0:0,0:0:0:0:
368,300,30751,1,2,0:0:0:0:
416,224,31084,2,0,P|457:169|454:101,1,140,2|2,0:0|0:0,0:0:0:0:
384,40,32084,1,2,0:0:0:0:
304,80,32417,5,6,0:0:0:0:
120,80,33084,1,10,0:0:0:0:
248,212,33751,2,0,P|289:267|286:335,2,140,2|10|6,0:0|0:0|0:0,0:0:0:0:
120,80,35751,5,10,0:0:0:0:
304,72,36417,2,0,P|384:96|448:72,2,140,2|10|6,0:0|0:0|0:0,0:0:0:0:
256,248,38417,5,10,0:0:0:0:
424,320,39084,2,0,P|448:264|416:184,1,140,2|10,0:0|0:0,0:0:0:0:
252,128,40417,6,0,P|204:176|124:168,1,140,6|10,0:0|0:0,0:0:0:0:
200,344,41751,2,0,P|248:296|328:304,1,140,2|10,0:0|0:0,0:0:0:0:
384,360,42751,1,10,0:0:0:0:
448,296,43084,6,0,P|472:224|436:160,1,140,6|2,0:0|0:0,0:0:0:0:
384,232,44084,1,8,0:0:0:0:
312,184,44417,2,0,P|288:104|320:48,1,140,2|2,0:0|0:0,0:0:0:0:
376,120,45417,1,8,0:0:0:0:
440,56,45751,6,0,P|464:96|456:160,2,105,12|12|12,0:0|0:0|0:0,0:0:0:0:
72,312,48417,6,0,B|152:328|192:272|192:272|264:304,1,210,6|8,0:0|0:0,0:0:0:0:
344,272,49751,1,2,0:0:0:0:
432,280,50084,2,0,P|416:224|336:184,1,140,8|8,0:0|0:0,0:0:0:0:
256,184,51084,2,0,P|208:168|176:112,2,105,2|0|8,0:0|0:0|0:0,0:0:0:0:
264,96,52417,2,0,P|224:48|92:92,1,210,2|8,0:0|0:0,0:0:0:0:
178,124,53751,6,0,B|144:184|64:168|64:168|64:256,1,210,6|8,0:0|0:0,0:0:0:0:
152,248,55084,1,2,0:0:0:0:
136,336,55417,2,0,P|208:320|240:256,1,140,8|8,0:0|0:0,0:0:0:0:
248,176,56417,6,0,P|296:196|328:280,1,140,6|2,0:0|0:0,0:0:0:0:
416,312,57417,1,8,0:0:0:0:
464,232,57751,2,0,B|448:168|448:168|376:144|376:144|352:72,1,210,6|8,0:0|0:0,0:0:0:0:
264,88,59084,6,0,B|219:58|163:90|163:90|160:32|107:10,2,210,6|8|2,0:0|0:0|0:0,0:0:0:0:
216,168,61417,1,8,0:0:0:0:
176,248,61751,6,0,B|123:226|120:168|120:168|64:200|19:170,1,210,6|8,0:0|0:0,0:0:0:0:
32,264,63084,2,0,P|72:320|144:352,1,140,2|2,0:0|0:0,0:0:0:0:
224,352,64084,1,8,0:0:0:0:
312,352,64417,6,0,P|374:321|414:265,1,140,6|2,0:0|0:0,0:0:0:0:
448,176,65417,1,8,0:0:0:0:
400,96,65751,2,0,L|344:32,2,70,2|8|2,0:0|0:0|0:0,0:0:0:0:
448,176,66751,1,8,0:0:0:0:
256,192,67084,12,6,69751,0:0:0:0:
336,344,71084,5,2,0:0:0:0:
248,328,71417,2,0,L|208:264,1,70,8|2,0:0|0:0,0:0:0:0:
168,192,72084,1,8,0:0:0:0:
88,144,72417,2,0,P|120:112|192:104,2,105,2|0|8,0:0|0:0|0:0,0:0:0:0:
168,192,73751,2,0,B|120:248|40:224|40:224|116:260|128:344,1,280,2|6,0:0|0:0,0:0:0:0:
216,344,75417,6,0,P|256:304|256:224,1,140,8|8,0:0|0:0,0:0:0:0:
312,152,76417,1,2,0:0:0:0:
256,80,76751,2,0,L|208:16,2,70,8|2|8,0:0|0:0|0:0,0:0:0:0:
312,152,77751,6,0,B|328:192|360:200|360:200|336:248|352:304|408:328,1,210,6|8,0:0|0:0,0:0:0:0:
440,240,79084,2,0,P|448:184|424:136,2,105,2|2|8,0:0|0:0|0:0,0:0:0:0:
394,321,80417,6,0,P|352:344|288:336,2,105,6|6|6,0:0|0:0|0:0,0:0:0:0:
476,212,81917,2,0,P|416:180|344:204,1,140,6|0,0:0|0:0,0:0:0:0:
212,208,83084,1,6,0:0:0:0:
64,320,88417,5,8,0:0:0:0:
432,56,90084,6,0,P|432:120|400:152,2,105,8|8|8,0:0|0:0|0:0,0:0:0:0:
16,240,92751,6,0,P|16:296|48:336,2,105,8|8|6,0:0|0:0|0:0,0:0:0:0:
104,264,94084,6,0,P|176:232|200:168,1,140,8|8,0:0|0:0,0:0:0:0:
152,104,95084,1,2,0:0:0:0:
64,120,95417,2,0,L|64:40,2,70,8|2|8,0:0|0:0|0:0,0:0:0:0:
152,104,96417,6,0,P|232:96|280:144,1,140,6|2,0:0|0:0,0:0:0:0:
360,104,97417,1,8,0:0:0:0:
384,192,97751,2,0,B|384:264|384:264|336:312,2,140,2|2|6,0:0|0:0|0:0,0:0:0:0:
256,64,99751,5,10,0:0:0:0:
104,168,100417,2,0,B|104:96|104:96|56:48,2,140,2|10|6,0:0|0:0|0:0,0:0:0:0:
56,344,102417,1,10,0:0:0:0:
192,224,103084,6,0,P|256:248|328:216,1,140,2|10,0:0|0:0,0:0:0:0:
256,72,104417,1,6,0:0:0:0:
76,48,105084,5,10,0:0:0:0:
68,232,105751,2,0,B|68:304|68:304|124:344,2,140,2|10|6,0:0|0:0|0:0,0:0:0:0:
248,272,107751,1,10,0:0:0:0:
248,184,108084,2,0,L|248:112,1,70,6|6,0:0|0:0,0:0:0:0:
424,152,109084,1,10,0:0:0:0:
424,240,109417,1,8,0:0:0:0:
496,296,109751,6,0,P|432:328|360:304,1,140,6|2,0:0|0:0,0:0:0:0:
424,240,110751,1,8,0:0:0:0:
424,152,111084,2,0,B|424:80|424:80|360:48,1,140,2|2,0:0|0:0,0:0:0:0:
336,136,112084,1,8,0:0:0:0:
248,160,112417,6,0,P|224:232|192:248,2,105,12|12|12,0:0|0:0|0:0,0:0:0:0:
248,160,115084,6,0,B|188:132|136:160|136:160|100:60,1,210,6|8,0:0|0:0,0:0:0:0:
16,88,116417,1,2,0:0:0:0:
28,180,116751,2,0,P|28:248|84:296,1,140,8|8,0:0|0:0,0:0:0:0:
144,232,117751,1,2,0:0:0:0:
236,244,118084,2,0,L|284:308,2,70,8|2|8,0:0|0:0|0:0,0:0:0:0:
144,232,119084,2,0,P|204:160|312:192,1,210,2|8,0:0|0:0,0:0:0:0:
388,148,120417,6,0,B|348:100|348:100|276:68|276:68|228:4,1,210,6|8,0:0|0:0,0:0:0:0:
168,76,121751,2,0,L|126:20,1,70,2|8,0:0|0:0,0:0:0:0:
52,76,122417,2,0,L|94:132,1,70,2|8,0:0|0:0,0:0:0:0:
32,200,123084,6,0,B|72:248|72:248|152:248|152:248|216:288,1,210,6|8,0:0|0:0,0:0:0:0:
236,192,124417,2,0,B|300:232|300:232|332:208|380:200|436:224,1,210,6|8,0:0|0:0,0:0:0:0:
412,128,125751,6,0,B|364:112|308:128|308:128|316:72|292:24,1,210,6|8,0:0|0:0,0:0:0:0:
204,40,127084,2,0,P|172:64|68:48,1,140,2|2,0:0|0:0,0:0:0:0:
8,112,128084,1,8,0:0:0:0:
68,180,128417,6,0,B|92:228|76:280|76:280|136:256|186:281,1,210,6|8,0:0|0:0,0:0:0:0:
244,344,129751,2,0,P|272:276|244:212,1,140,2|2,0:0|0:0,0:0:0:0:
256,128,130751,1,8,0:0:0:0:
344,116,131084,6,0,P|280:44|176:84,1,210,6|8,0:0|0:0,0:0:0:0:
256,128,132417,2,0,P|188:164|120:136,1,140,2|2,0:0|0:0,0:0:0:0:
76,76,133417,1,8,0:0:0:0:
256,192,133751,12,6,136417,0:0:0:0:
112,240,137751,5,2,0:0:0:0:
192,280,138084,2,0,L|248:224,1,70,8|2,0:0|0:0,0:0:0:0:
328,240,138751,1,8,0:0:0:0:
400,192,139084,2,0,L|480:192,2,70,2|8|2,0:0|0:0|0:0,0:0:0:0:
328,240,140084,1,8,0:0:0:0:
324,148,140417,2,0,B|276:92|276:92|212:132|140:116,1,210,2|8,0:0|0:0,0:0:0:0:
56,96,141751,5,6,0:0:0:0:
64,184,142084,2,0,P|136:208|208:208,1,140,8|8,0:0|0:0,0:0:0:0:
184,300,143084,1,2,0:0:0:0:
264,340,143417,2,0,L|328:300,1,70,8|2,0:0|0:0,0:0:0:0:
408,332,144084,1,8,0:0:0:0:
392,244,144417,6,0,B|400:212|440:196|440:196|416:148|432:92|488:68,1,210,6|8,0:0|0:0,0:0:0:0:
396,28,145751,2,0,P|340:20|288:52,2,105,2|2|8,0:0|0:0|0:0,0:0:0:0:
356,112,147084,6,0,P|309:133|258:124,2,105,6|6|6,0:0|0:0|0:0,0:0:0:0:
364,248,148584,2,0,B|308:288|308:288|240:240,1,140,6|2,0:0|0:0,0:0:0:0:
140,168,149751,1,6,0:0:0:0:
256,232,160417,6,0,B|256:304|256:304|320:352,2,140,6|8|8,0:0|0:0|0:0,0:0:0:0:
344,256,162084,1,8,0:0:0:0:
432,280,162417,2,0,B|432:208|432:208|377:167,1,140,8|6,0:0|0:0,0:0:0:0:
304,112,163417,6,0,L|376:72,2,70,8|8|8,0:0|0:0|0:0,0:0:0:0:
264,192,164417,1,8,0:0:0:0:
216,116,164751,2,0,L|152:76,2,70,8|8|8,0:0|0:0|0:0,0:0:0:0:
264,192,165751,5,6,0:0:0:0:
176,192,166084,2,0,L|106:192,2,70,8|8|8,0:0|0:0|0:0,0:0:0:0:
184,280,167084,2,0,L|138:333,2,70,8|8|8,0:0|0:0|0:0,0:0:0:0:
264,320,168084,1,8,0:0:0:0:
352,344,168417,6,0,P|344:272|288:232,1,140,6|8,0:0|0:0,0:0:0:0:
240,160,169417,1,4,0:3:0:0:
160,120,169751,2,0,P|211:76|284:84,2,140,6|6|8,0:0|0:0|0:3,0:0:0:0:
256,192,175751,6,0,L|256:120,2,70,6|6|6,0:0|0:0|0:0,0:0:0:0:
168,224,176751,1,8,0:0:0:0:
80,200,177084,2,0,P|80:256|144:312,1,140,2|2,0:0|0:0,0:0:0:0:
168,224,178084,1,8,0:0:0:0:
144,136,178417,2,0,L|112:72,1,70,2|8,0:0|0:0,0:0:0:0:
200,56,179084,6,0,P|264:48|352:64,1,140,6|2,0:0|0:0,0:0:0:0:
352,152,180084,2,0,P|392:160|432:144,1,70,8|2,0:0|0:0,0:0:0:0:
480,216,180751,2,0,P|384:248|280:208,1,210,8|2,0:0|0:0,0:0:0:0:
256,192,193751,6,0,P|284:284|392:292,1,210,4|2,0:0|0:0,0:0:0:0:
344,216,195084,2,0,P|316:124|212:112,1,210,4|2,0:0|0:0,0:0:0:0:
256,192,196417,2,0,P|200:204|152:172,2,105,4|2|2,0:0|0:0|0:0,0:0:0:0:
214,110,197751,2,0,B|156:72|156:72|92:112,2,140,4|2|4,0:0|0:0|0:0,0:0:0:0:
368,212,199751,5,2,0:0:0:0:
228,328,200417,2,0,P|159:329|108:284,1,140,4|2,0:0|0:0,0:0:0:0:
256,192,201751,12,8,204417,0:3:0:0:
256,192,207417,6,0,P|240:256|280:312,1,140,6|8,0:0|0:0,0:0:0:0:
328,240,208417,1,2,0:0:0:0:
416,256,208751,2,0,B|416:184|416:184|352:152,1,140,8|8,0:0|0:0,0:0:0:0:
304,80,209751,2,0,P|240:64|160:80,1,140,2|2,0:0|0:0,0:0:0:0:
80,96,210751,1,8,0:0:0:0:
88,184,211084,2,0,P|88:256|144:304,1,140,2|2,0:0|0:0,0:0:0:0:
224,296,212084,1,8,0:0:0:0:
264,216,212417,6,0,B|320:256|320:256|392:216,1,140,6|2,0:0|0:0,0:0:0:0:
328,152,213417,1,8,0:0:0:0:
288,72,213751,2,0,P|216:56|152:72,1,140,2|2,0:0|0:0,0:0:0:0:
80,128,214751,1,8,0:0:0:0:
88,216,215084,6,0,P|112:296|232:296,1,210,6|8,0:0|0:0,0:0:0:0:
312,320,216417,2,0,P|288:240|168:236,1,210,6|8,0:0|0:0,0:0:0:0:
136,152,217751,6,0,B|136:80|136:80|200:48,1,140,6|2,0:0|0:0,0:0:0:0:
224,136,218751,1,8,0:0:0:0:
288,72,219084,2,0,P|352:96|424:72,1,140,2|2,0:0|0:0,0:0:0:0:
472,152,220084,1,8,0:0:0:0:
416,224,220417,6,0,P|392:280|352:296,2,105,6|0|8,0:0|0:0|0:0,0:0:0:0:
328,216,221751,2,0,B|264:240|268:312|268:312|176:312,1,210,2|8,0:0|0:0,0:0:0:0:
192,224,223084,6,0,B|208:176|272:136|272:136|208:112|176:96,1,210,6|8,0:0|0:0,0:0:0:0:
112,152,224417,2,0,P|96:88|144:24,1,140,2|2,0:0|0:0,0:0:0:0:
224,16,225417,1,8,0:0:0:0:
256,192,225751,12,6,228417,0:0:0:0:
368,272,229751,5,2,0:0:0:0:
288,312,230084,2,0,L|208:312,1,70,8|2,0:0|0:0,0:0:0:0:
176,232,230751,1,8,0:0:0:0:
96,192,231084,2,0,L|48:96,2,105,2|0|8,0:0|0:0|0:0,0:0:0:0:
168,144,232417,2,0,P|224:128|256:48,1,140,2|2,0:0|0:0,0:0:0:0:
344,48,233417,1,8,0:0:0:0:
412,108,233751,6,0,P|420:188|396:252,1,140,6|2,0:0|0:0,0:0:0:0:
328,296,234751,1,8,0:0:0:0:
264,232,235084,2,0,P|192:256|136:232,1,140,2|2,0:0|0:0,0:0:0:0:
200,168,236084,1,8,0:0:0:0:
120,120,236417,6,0,B|145:77|201:61|249:85|249:85|265:45|304:40,1,210,6|8,0:0|0:0,0:0:0:0:
336,120,237751,2,0,P|376:176|368:224,2,105,2|0|8,0:0|0:0|0:0,0:0:0:0:
288,192,239084,6,0,P|264:256|224:280,1,105,6|6,0:0|0:0,0:0:0:0:
144,176,240084,2,0,P|96:200|48:192,1,105,6|6,0:0|0:0,0:0:0:0:
352,112,241751,6,0,L|432:112,1,70,6|8,0:0|0:0,0:0:0:0:
456,192,242417,2,0,P|464:248|432:296,2,105,2|6|8,0:0|0:0|0:0,0:0:0:0:
372,228,243751,2,0,P|308:248|244:212,1,140,2|6,0:0|0:0,0:0:0:0:
176,100,244917,6,0,P|224:76|280:92,2,105,6|6|6,0:0|0:0|0:0,0:0:0:0:
96,212,246417,2,0,P|48:172|40:92,1,140,2|2,0:0|0:0,0:0:0:0:
256,192,248417,12,0,253084,0:0:0:0:
