osu file format v13

[General]
AudioFilename: idealwhite.mp3
AudioLeadIn: 0
PreviewTime: 48352
Countdown: 1
SampleSet: Soft
StackLeniency: 0.7
Mode: 0
LetterboxInBreaks: 1
WidescreenStoryboard: 1

[Editor]
Bookmarks: 11269,21936,28602,32602,43269,48602,62019
DistanceSpacing: 0.5
BeatDivisor: 4
GridSize: 4
TimelineZoom: 3.099999

[Metadata]
Title:ideal white
TitleUnicode:ideal white
Artist:Ayano Mashiro
ArtistUnicode:Ayano Mashiro
Creator:Irreversible
Version:Insane
Source:Fate/stay night: Unlimited Blade Works
Tags:type moon tp ufotable 綾野ましろ visual novel saber emiya shirou archer tohsaka rin ubw route remake 2014 takeuchi takashi debut Gero koreapenguin Mao Desperate-Kun
BeatmapID:515023
BeatmapSetID:219528

[Difficulty]
HPDrainRate:7
CircleSize:4
OverallDifficulty:7.5
ApproachRate:9
SliderMultiplier:1.78
SliderTickRate:1

[Events]
//Background and Video events
0,0,"c90ca83463edd86d41f3186facc2d91a.jpg",0,0
Video,0,"vid.avi"
//Break Periods
//Storyboard Layer 0 (Background)
//Storyboard Layer 1 (Fail)
//Storyboard Layer 2 (Pass)
//Storyboard Layer 3 (Foreground)
//Storyboard Sound Samples
//Background Colour Transformations
3,100,163,162,255

[TimingPoints]
603,333.333333333333,4,2,1,60,1,0
603,-133.333333333333,4,2,1,60,0,0
2436,-133.333333333333,4,2,1,30,0,0
2602,-133.333333333333,4,2,1,60,0,0
3102,-133.333333333333,4,2,1,40,0,0
3269,-133.333333333333,4,2,1,60,0,0
5436,-133.333333333333,4,2,1,40,0,0
5602,-133.333333333333,4,2,1,60,0,0
8602,-100,4,2,1,60,0,0
11269,-142.857142857143,4,2,1,50,0,0
21936,-66.6666666666667,4,2,1,60,0,0
22269,-117.647058823529,4,2,1,60,0,0
22936,-80,4,2,1,60,0,0
23269,-117.647058823529,4,2,1,60,0,0
24602,-66.6666666666667,4,2,1,60,0,0
24936,-117.647058823529,4,2,1,60,0,0
25602,-80,4,2,1,60,0,0
25936,-117.647058823529,4,2,1,60,0,0
27269,-66.6666666666667,4,2,1,60,0,0
27602,-117.647058823529,4,2,1,60,0,0
28269,-80,4,2,1,60,0,0
28602,-117.647058823529,4,2,1,60,0,0
29936,-74.0740740740741,4,2,1,60,0,0
30436,-74.0740740740741,4,2,0,60,0,0
30602,-74.0740740740741,4,2,1,60,0,0
30936,-74.0740740740741,4,2,0,60,0,0
31102,-74.0740740740741,4,2,1,60,0,0
31269,-68.9655172413793,4,2,0,60,0,0
31436,-68.9655172413793,4,2,1,60,0,0
32269,-68.9655172413793,4,2,0,60,0,0
32602,-111.111111111111,4,2,1,60,0,0
43269,-95.2380952380952,4,2,1,60,0,0
48269,-95.2380952380952,4,2,1,5,0,0
48602,-86.9565217391304,4,2,1,60,0,1
50019,-86.9565217391304,4,2,1,5,0,1
50102,-86.9565217391304,4,2,1,60,0,1
58769,-86.9565217391304,4,2,0,60,0,1
58936,-86.9565217391304,4,2,1,60,0,1
59269,-86.9565217391304,4,2,1,60,0,0
69936,-86.9565217391304,4,2,1,60,0,1
83186,-86.9565217391304,4,2,1,60,0,0
83269,-86.9565217391304,4,2,1,60,0,1
84602,-86.9565217391304,4,2,1,30,0,1
85936,-86.9565217391304,4,2,1,60,0,1
88519,-86.9565217391304,4,2,1,25,0,1
88602,-86.9565217391304,4,2,1,60,0,0

[Colours]
Combo1 : 253,169,77
Combo2 : 255,60,60
Combo3 : 135,129,129

[HitObjects]
12,104,603,6,0,L|164:120,1,133.500005092621,12|8,0:0|0:0,0:0:0:0:
200,188,1102,1,2,0:0:0:0:
200,188,1269,2,0,P|188:232|200:280,1,66.7500025463105,8|0,0:0|0:0,0:0:0:0:
284,141,1602,2,0,P|251:108|204:95,1,66.7500025463105,8|2,0:0|0:0,0:0:0:0:
280,232,1936,6,0,L|412:245,1,133.500005092621,8|8,0:0|0:0,0:0:0:0:
200,280,2436,1,2,0:0:0:0:
200,280,2519,1,2,0:0:0:0:
200,280,2602,2,0,L|67:266,1,133.500005092621,8|4,0:0|0:3,0:0:0:0:
256,360,3102,1,8,0:3:0:0:
376,152,3269,6,0,P|368:104|292:48,1,133.500005092621,8|8,0:0|0:0,0:0:0:0:
306,50,3769,2,2,P|351:67|438:29,1,133.500005092621,2|0,0:0|0:0,0:0:0:0:
280,136,4269,2,0,L|200:144,1,66.7500025463105,8|2,0:0|0:0,0:0:0:0:
404,244,4602,6,0,L|470:237,1,66.7500025463105,8|2,0:0|0:0,0:0:0:0:
380,340,4936,2,2,P|352:360|232:352,1,133.500005092621,8|10,0:0|0:0,0:0:0:0:
176,264,5436,1,8,0:3:0:0:
280,136,5602,1,0,3:0:0:0:
303,138,5685,1,0,3:0:0:0:
326,141,5768,1,8,0:0:0:0:
349,144,5851,1,8,0:0:0:0:
372,147,5935,1,12,0:0:0:0:
256,192,6019,12,8,8269,0:0:0:0:
180,56,8602,5,0,1:0:0:0:
204,300,8769,1,4,0:2:0:0:
192,80,9102,1,0,1:0:0:0:
376,192,9436,1,0,1:0:0:0:
144,372,9769,5,4,0:0:0:0:
181,57,10102,1,4,0:0:0:0:
348,192,10436,1,4,2:0:0:0:
28,240,10769,1,0,1:0:0:0:
176,143,10936,2,0,P|189:95|176:47,1,89,4|0,0:0|0:0,0:0:0:0:
28,240,11269,6,0,L|52:312,1,62.2999980987549,0|0,1:0|0:0,0:0:0:0:
156,328,11602,2,0,L|137:269,1,62.2999980987549,0|0,1:0|0:0,0:0:0:0:
240,296,11936,2,0,L|264:368,1,62.2999980987549,0|0,1:0|0:0,0:0:0:0:
348,192,12269,2,0,L|328:132,1,62.2999980987549,2|2,1:2|0:0,0:0:0:0:
452,196,12602,6,0,P|444:240|420:268,1,62.2999980987549,0|0,1:0|0:0,0:0:0:0:
232,128,12936,2,0,P|240:84|264:56,1,62.2999980987549,0|0,1:0|0:0,0:0:0:0:
348,192,13269,2,0,L|208:216,1,124.59999619751,0|0,1:0|1:0,0:0:0:0:
132,164,13769,1,2,0:0:0:0:
192,44,13936,6,0,P|248:36|308:76,1,124.59999619751,0|0,1:0|1:0,0:0:0:0:
420,72,14436,1,0,0:0:0:0:
436,196,14602,2,0,P|433:226|417:253,1,62.2999980987549,0|0,1:0|0:0,0:0:0:0:
288,204,14936,2,0,P|315:191|346:191,1,62.2999980987549,2|2,1:2|0:0,0:0:0:0:
256,344,15269,6,0,L|128:356,1,124.59999619751,0|0,1:0|1:0,0:0:0:0:
256,344,15769,1,2,0:0:0:0:
288,204,15936,6,0,L|416:191,1,124.59999619751,0|0,1:0|1:0,0:0:0:0:
148,100,16436,1,2,0:0:0:0:
288,204,16602,6,0,P|304:172|304:128,1,62.2999980987549,0|0,1:0|0:0,0:0:0:0:
148,100,16936,2,0,P|167:129|205:151,1,62.2999980987549,0|0,1:0|0:0,0:0:0:0:
312,32,17269,2,0,P|276:34|238:56,1,62.2999980987549,0|0,1:0|0:0,0:0:0:0:
229,219,17602,2,0,P|264:216|302:194,1,62.2999980987549,2|2,1:2|0:0,0:0:0:0:
392,248,17936,6,0,P|381:293|425:385,1,124.59999619751,0|0,1:0|1:0,0:0:0:0:
392,248,18436,1,2,0:0:0:0:
456,144,18602,2,0,P|467:99|423:7,1,124.59999619751,0|0,1:0|1:0,0:0:0:0:
456,144,19102,1,0,0:0:0:0:
352,156,19269,6,0,L|272:136,1,62.2999980987549,0|0,1:2|0:0,0:0:0:0:
120,272,19602,2,0,L|180:287,1,62.2999980987549,2|0,1:2|0:0,0:0:0:0:
287,283,19936,2,0,L|272:344,1,62.2999980987549,0|0,1:0|0:0,0:0:0:0:
164,144,20269,2,2,L|180:84,1,62.2999980987549,2|0,1:2|2:0,2:0:0:0:
180,83,20519,1,2,2:0:0:0:
180,83,20602,6,0,P|120:44|16:116,1,186.899994296265,2|0,1:2|0:0,0:0:0:0:
72,196,21269,1,2,1:2:0:0:
264,104,21436,1,0,0:0:0:0:
288,284,21602,5,2,1:2:0:0:
266,305,21685,1,0,1:0:0:0:
239,320,21768,1,0,1:0:0:0:
209,328,21851,1,0,1:0:0:0:
180,328,21936,6,0,L|345:302,1,133.500005092621,4|0,1:2|0:0,0:0:0:0:
416,296,22269,6,0,P|432:336|428:372,1,75.6500014429093,0|2,1:0|0:0,0:0:0:0:
488,212,22602,2,0,P|487:168|504:136,1,75.6500014429093,2|0,0:3|0:0,0:0:0:0:
501,140,22936,22,0,L|369:160,1,111.25,4|0,1:2|0:0,0:0:0:0:
288,136,23269,22,0,P|272:104|356:8,1,151.300002885819,0|0,1:0|1:0,0:0:0:0:
288,136,23769,1,2,0:0:0:0:
192,192,23936,1,2,0:3:0:0:
340,287,24102,2,0,P|360:344|360:360,2,75.6500014429093,2|0|0,0:0|1:0|0:0,0:0:0:0:
340,287,24602,6,0,B|184:280,1,133.500005092621,4|0,1:2|0:0,0:0:0:0:
120,312,24936,6,0,P|104:352|108:396,1,75.6500014429093,0|2,1:0|0:0,0:0:0:0:
192,192,25269,2,0,P|176:157|176:119,1,75.6500014429093,2|0,0:3|0:0,0:0:0:0:
175,120,25602,22,0,L|305:138,1,111.25,4|0,1:2|0:0,0:0:0:0:
216,36,25936,22,0,L|50:13,1,151.300002885819,0|0,1:0|1:0,0:0:0:0:
216,36,26436,1,2,0:0:0:0:
332,4,26602,1,2,0:3:0:0:
424,112,26769,2,0,P|464:120|514:103,2,75.6500014429093,2|0|2,0:0|1:0|0:0,0:0:0:0:
424,112,27269,6,0,B|384:252,1,133.500005092621,4|0,1:2|0:0,0:0:0:0:
408,340,27602,6,0,P|456:348|496:336,1,75.6500014429093,0|2,1:0|0:0,0:0:0:0:
256,308,27936,2,0,P|284:347|321:367,1,75.6500014429093,2|0,0:3|0:0,0:0:0:0:
306,361,28269,22,0,L|188:338,1,111.25,4|0,1:2|0:0,0:0:0:0:
120,260,28602,22,0,L|45:245,1,75.6500014429093,0|0,1:0|0:0,0:0:0:0:
212,172,28936,2,0,L|286:186,1,75.6500014429093,0|2,1:0|0:0,0:0:0:0:
200,148,29186,1,2,0:0:0:0:
200,148,29269,2,0,L|125:133,1,75.6500014429093,2|8,0:3|0:3,0:0:0:0:
256,80,29519,1,0,1:0:0:0:
256,80,29602,2,0,L|330:94,1,75.6500014429093,4|8,1:3|0:3,0:0:0:0:
444,192,29936,21,4,1:2:0:0:
307,361,30102,1,0,1:0:0:0:
312,188,30269,1,0,1:0:0:0:
439,365,30435,1,0,1:0:0:0:
451,182,30602,5,0,1:0:0:0:
299,370,30768,1,0,1:0:0:0:
305,178,30936,1,0,1:0:0:0:
445,374,31101,1,0,1:0:0:0:
460,168,31269,6,0,P|428:108|432:40,1,129.050003938294,4|0,1:0|1:0,0:0:0:0:
384,308,31602,2,0,P|451:310|508:347,1,129.050003938294,4|0,1:2|1:0,0:0:0:0:
298,167,31936,5,0,1:0:0:0:
291,185,32019,1,0,1:0:0:0:
282,202,32102,1,0,1:0:0:0:
270,217,32185,1,0,1:0:0:0:
255,229,32269,1,0,1:0:0:0:
238,238,32352,1,0,1:0:0:0:
220,244,32435,1,0,1:0:0:0:
201,247,32519,1,0,1:0:0:0:
181,245,32602,6,0,L|73:221,1,80.0999975555421,4|0,1:0|0:0,0:0:0:0:
168,328,32936,2,0,L|254:347,1,80.0999975555421,2|0,0:0|1:0,0:0:0:0:
298,167,33269,2,0,L|190:143,1,80.0999975555421,8|0,0:1|0:0,0:0:0:0:
285,250,33603,2,0,L|371:269,1,80.0999975555421,0|2,0:0|1:2,0:0:0:0:
181,245,33936,6,0,L|73:221,1,80.0999975555421,0|0,0:0|1:0,0:0:0:0:
168,328,34270,2,0,L|254:347,1,80.0999975555421,2|0,0:0|1:0,0:0:0:0:
298,167,34603,2,0,L|190:143,1,80.0999975555421,8|0,0:1|0:0,0:0:0:0:
285,250,34937,2,0,L|371:269,1,80.0999975555421,2|0,0:0|0:0,0:0:0:0:
386,277,35186,1,2,0:0:0:0:
401,292,35269,6,0,P|417:340|408:381,1,80.0999975555421,0|0,1:0|0:0,0:0:0:0:
483,224,35602,2,0,P|457:193|420:178,1,80.0999975555421,2|0,0:0|1:0,0:0:0:0:
355,85,35936,2,0,P|391:70|431:72,1,80.0999975555421,8|2,0:1|0:0,0:0:0:0:
287,4,36269,2,0,P|256:29|241:66,1,80.0999975555421,2|0,0:0|1:0,0:0:0:0:
285,249,36602,5,2,0:0:0:0:
168,328,36769,2,0,L|88:317,1,80.0999975555421,8|0,0:1|0:0,0:0:0:0:
280,364,37102,1,2,1:2:0:0:
365,162,37269,2,0,P|369:125|343:71,1,80.0999975555421,8|0,0:1|1:0,0:0:0:0:
128,187,37602,1,2,0:0:0:0:
117,203,37685,1,2,0:0:0:0:
111,222,37768,1,2,0:0:0:0:
110,242,37852,1,2,0:0:0:0:
115,262,37936,6,0,L|39:348,1,80.0999975555421,4|0,1:0|0:0,0:0:0:0:
206,237,38269,2,0,L|259:176,1,80.0999975555421,2|0,0:0|1:0,0:0:0:0:
309,313,38602,2,0,L|233:399,1,80.0999975555421,8|2,0:1|0:0,0:0:0:0:
400,288,38935,2,0,L|453:227,1,80.0999975555421,2|0,0:0|1:0,0:0:0:0:
435,97,39269,6,0,P|399:77|338:82,1,80.0999975555421,0|0,1:0|0:0,0:0:0:0:
205,237,39602,2,0,P|239:256|279:259,1,80.0999975555421,0|0,1:0|0:0,0:0:0:0:
375,154,39936,2,0,L|359:57,1,80.0999975555421,8|0,0:1|0:0,0:0:0:0:
204,237,40269,1,2,0:0:0:0:
207,256,40352,1,2,0:0:0:0:
210,276,40435,1,2,0:0:0:0:
213,296,40519,1,2,0:0:0:0:
217,315,40602,6,0,P|266:336|310:328,1,80.0999975555421,0|0,1:0|0:0,0:0:0:0:
133,175,40936,2,0,P|112:224|120:268,1,80.0999975555421,2|0,0:0|1:0,0:0:0:0:
272,89,41269,2,0,P|223:68|179:76,1,80.0999975555421,8|2,0:1|0:0,0:0:0:0:
356,229,41603,2,0,P|376:179|369:136,1,80.0999975555421,2|0,0:0|1:0,0:0:0:0:
272,89,41936,5,2,0:0:0:0:
133,175,42102,1,0,1:0:0:0:
218,316,42269,1,0,1:0:0:0:
356,229,42435,1,2,0:0:0:0:
272,89,42602,6,0,L|176:101,1,80.0999975555421,8|0,0:1|1:0,0:0:0:0:
133,175,42852,1,0,1:0:0:0:
133,175,42936,2,0,L|54:185,1,80.0999975555421,8|0,0:1|0:0,0:0:0:0:
285,366,43269,6,0,P|302:321|298:273,1,93.4499971481324,4|0,1:0|1:0,0:0:0:0:
218,316,43602,1,8,0:1:0:0:
423,341,43769,2,0,L|516:322,1,93.4499971481324,2|0,0:0|1:0,0:0:0:0:
423,341,44102,1,0,1:0:0:0:
218,317,44269,2,0,L|113:338,1,93.4499971481324,8|0,0:1|1:0,0:0:0:0:
357,230,44602,6,0,P|401:211|448:211,1,93.4499971481324,0|0,1:0|1:0,0:0:0:0:
294,91,44936,2,0,P|275:46|275:0,1,93.4499971481324,8|2,0:1|0:0,0:0:0:0:
155,154,45269,2,0,P|110:172|63:172,1,93.4499971481324,0|0,1:0|1:0,0:0:0:0:
218,293,45603,2,0,P|236:337|236:384,1,93.4499971481324,8|0,0:1|0:0,0:0:0:0:
150,353,45936,5,4,1:2:0:0:
358,230,46102,1,4,1:2:0:0:
169,19,46436,5,4,1:2:0:0:
172,261,46602,1,4,1:2:0:0:
448,203,46936,5,4,1:2:0:0:
237,84,47102,1,4,1:2:0:0:
256,192,47186,12,2,48269,0:0:0:0:
7,222,48602,6,0,L|227:204,1,204.700003904343,4|8,1:2|0:1,0:0:0:0:
321,155,49102,1,0,0:0:0:0:
422,257,49269,2,0,P|426:325|384:381,1,102.350001952171,0|0,1:0|1:0,0:0:0:0:
321,155,49602,1,8,0:1:0:0:
360,35,49769,6,0,L|518:50,1,153.525002928257,4|0,1:0|0:0,0:0:0:0:
379,51,50102,2,0,L|249:38,1,102.350001952171,0|8,1:0|0:1,0:0:0:0:
116,149,50436,2,0,B|99:192|128:231|128:231|103:296|160:348,1,204.700003904343,0|0,1:0|1:0,0:0:0:0:
304,299,50936,2,0,P|256:269|202:272,1,102.350001952171,8|0,0:1|0:0,0:0:0:0:
24,115,51269,6,0,P|72:145|202:85,1,204.700003904343,0|8,1:0|0:1,0:0:0:0:
104,44,51769,1,0,0:0:0:0:
294,168,51936,2,0,L|406:150,1,102.350001952171,0|0,1:0|1:0,0:0:0:0:
448,352,52269,1,8,0:1:0:0:
305,298,52436,2,0,P|241:331|132:264,1,204.700003904343,0|0,1:0|1:0,0:0:0:0:
316,86,52936,6,0,P|370:128|376:171,1,102.350001952171,8|0,0:1|0:0,0:0:0:0:
53,110,53269,2,0,P|62:42|96:15,1,102.350001952171,0|0,1:0|1:0,0:0:0:0:
217,345,53602,1,8,0:1:0:0:
197,360,53685,1,0,3:0:0:0:
172,369,53768,1,0,3:0:0:0:
147,369,53852,1,0,3:0:0:0:
121,362,53936,6,0,L|220:176,1,204.700003904343,4|8,1:0|0:1,0:0:0:0:
100,20,54436,2,0,L|3:200,1,204.700003904343,0|0,1:0|1:1,0:0:0:0:
32,348,54936,1,8,1:0:0:0:
160,288,55102,6,0,L|326:266,1,153.525002928257,4|0,1:0|0:0,0:0:0:0:
335,264,55436,2,0,P|357:318|321:380,1,102.350001952171,0|8,1:0|0:1,0:0:0:0:
440,211,55769,2,0,B|391:167|387:110|387:110|440:127|456:117,1,153.525002928257,0|0,1:0|0:0,0:0:0:0:
442,114,56102,2,0,L|324:80,1,102.350001952171,0|8,1:0|0:1,0:0:0:0:
212,148,56436,1,0,0:0:0:0:
288,340,56602,6,0,P|352:352|418:237,1,204.700003904343,4|8,1:0|0:1,0:0:0:0:
355,119,57102,1,0,0:0:0:0:
212,148,57269,2,0,L|180:245,1,102.350001952171,0|0,1:0|1:0,0:0:0:0:
105,119,57602,2,0,L|136:21,1,102.350001952171,8|0,0:1|1:0,0:0:0:0:
442,112,57936,6,0,P|396:196|300:187,1,204.700003904343,4|8,1:0|0:1,0:0:0:0:
355,119,58436,1,0,1:0:0:0:
376,344,58602,5,4,1:2:0:0:
240,304,58769,5,0,1:0:0:0:
104,352,58936,5,8,0:1:0:0:
17,243,59102,5,0,1:0:0:0:
17,243,59186,1,0,1:0:0:0:
17,243,59269,6,0,L|35:140,2,102.350001952171,4|0|8,1:2|0:0|0:1,0:0:0:0:
104,352,59769,1,0,0:0:0:0:
172,152,59936,2,0,P|166:98|136:51,1,102.350001952171,0|0,1:0|1:0,0:0:0:0:
256,24,60269,2,0,P|300:55|355:63,1,102.350001952171,8|0,0:1|3:0,0:0:0:0:
376,217,60602,6,0,B|219:243|219:243|277:256,1,204.700003904343,0|8,1:0|0:1,0:0:0:0:
329,351,61102,1,0,0:0:0:0:
462,248,61269,2,0,P|465:189|431:142,1,102.350001952171,0|0,1:0|1:0,0:0:0:0:
139,207,61602,2,0,P|136:266|170:313,1,102.350001952171,8|0,0:1|0:0,0:0:0:0:
222,241,61936,6,0,B|5:199,1,204.700003904343,0|8,1:0|0:1,0:0:0:0:
346,100,62436,2,0,B|289:102|263:158|263:158|316:190|312:251,1,204.700003904343,0|0,1:0|1:0,0:0:0:0:
416,312,62936,2,0,P|474:325|521:297,1,102.350001952171,8|0,0:1|1:0,0:0:0:0:
462,243,63269,5,4,0:0:0:0:
312,336,63436,1,0,1:0:0:0:
346,100,63602,1,8,0:1:0:0:
220,240,63769,1,0,0:0:0:0:
368,196,63936,5,4,1:2:0:0:
164,88,64103,1,0,1:0:0:0:
88,312,64269,1,8,0:1:0:0:
220,240,64436,1,0,0:0:0:0:
84,168,64602,6,0,P|26:174|-13:217,1,102.350001952171,4|0,1:0|0:0,0:0:0:0:
231,138,64936,2,0,P|246:82|220:28,1,102.350001952171,8|0,0:1|0:0,0:0:0:0:
88,312,65269,2,0,P|128:352|264:316,1,204.700003904343,0|8,1:0|0:1,0:0:0:0:
232,138,65769,2,0,B|76:72|76:72|114:110,1,204.700003904343,0|0,1:0|1:0,0:0:0:0:
116,114,66186,1,0,0:0:0:0:
116,114,66269,6,0,P|168:92|212:28,1,102.350001952171,8|0,0:1|0:0,0:0:0:0:
336,104,66602,2,0,P|388:125|464:111,1,102.350001952171,0|0,1:0|0:0,0:0:0:0:
432,260,66936,2,0,P|454:312|518:356,1,102.350001952171,8|0,0:1|0:0,0:0:0:0:
255,358,67269,6,0,L|124:368,1,102.350001952171,4|0,1:0|0:0,0:0:0:0:
222,278,67602,1,8,0:1:0:0:
389,370,67769,1,0,0:0:0:0:
304,168,67936,1,0,1:0:0:0:
137,260,68103,1,0,1:0:0:0:
255,359,68269,1,8,0:1:0:0:
402,147,68436,1,0,1:0:0:0:
212,186,68602,5,8,0:1:0:0:
212,186,68686,1,8,0:1:0:0:
212,186,68769,1,0,1:0:0:0:
351,331,68936,5,8,0:1:0:0:
351,331,69020,1,8,0:1:0:0:
351,331,69103,1,0,1:0:0:0:
402,147,69269,5,0,1:0:0:0:
391,123,69352,1,0,3:0:0:0:
375,103,69435,1,8,0:1:0:0:
354,88,69518,1,0,3:0:0:0:
331,78,69602,1,0,1:1:0:0:
306,75,69685,1,8,0:1:0:0:
280,77,69768,1,0,1:1:0:0:
256,86,69852,1,8,2:0:0:0:
236,104,69936,6,0,P|180:104|136:140,1,102.350001952171,4|0,1:0|0:0,0:0:0:0:
308,160,70269,1,8,0:1:0:0:
120,32,70436,1,0,0:0:0:0:
40,264,70602,6,0,P|82:291|132:289,2,102.350001952171,0|0|8,3:0|1:0|0:1,0:0:0:0:
212,185,71102,2,0,P|252:231|248:367,1,204.700003904343,4|0,1:0|1:0,0:0:0:0:
132,289,71602,1,8,0:1:0:0:
300,232,71769,1,0,0:0:0:0:
452,284,71936,2,0,L|412:380,1,102.350001952171,0|0,1:0|1:0,0:0:0:0:
400,160,72269,2,0,L|439:65,1,102.350001952171,8|0,0:1|0:0,0:0:0:0:
452,284,72602,6,0,L|248:344,1,204.700003904343,4|8,1:0|0:1,0:0:0:0:
132,288,73102,1,0,0:0:0:0:
184,156,73269,2,0,P|170:100|120:67,1,102.350001952171,0|0,1:0|1:0,0:0:0:0:
24,256,73602,1,8,0:1:0:0:
296,192,73769,1,0,0:0:0:0:
296,192,73852,1,0,0:0:0:0:
296,192,73936,5,0,1:0:0:0:
132,288,74102,1,0,1:0:0:0:
320,332,74269,1,8,0:1:0:0:
104,152,74436,1,0,0:0:0:0:
256,40,74602,6,0,P|303:42|354:70,1,102.350001952171,0|0,1:0|1:0,0:0:0:0:
416,360,74936,2,0,P|368:357|317:329,1,102.350001952171,8|0,0:1|1:0,0:0:0:0:
296,328,75186,1,0,1:0:0:0:
296,328,75269,6,0,L|73:301,1,204.700003904343,4|8,1:2|0:1,0:0:0:0:
40,176,75769,1,0,0:0:0:0:
160,76,75936,2,0,P|220:81|250:108,1,102.350001952171,0|0,1:0|1:0,0:0:0:0:
396,60,76269,1,8,0:1:0:0:
451,211,76436,2,0,B|419:275|419:275|267:339,1,204.700003904343,4|0,1:0|1:0,0:0:0:0:
68,272,76936,6,0,P|44:224|44:160,1,102.350001952171,8|0,0:1|0:0,0:0:0:0:
92,100,77186,1,2,0:0:0:0:
92,100,77269,2,0,L|212:120,1,102.350001952171,0|0,1:0|1:0,0:0:0:0:
352,48,77602,1,8,0:1:0:0:
452,212,77769,1,8,0:1:0:0:
452,212,77852,1,8,0:1:0:0:
452,212,77936,5,4,1:0:0:0:
272,264,78102,1,2,2:0:0:0:
420,348,78269,1,8,0:1:0:0:
355,141,78435,1,2,0:0:0:0:
256,352,78602,2,0,P|196:368|152:360,1,102.350001952171,0|0,1:0|1:0,0:0:0:0:
256,151,78936,2,0,P|316:135|360:143,1,102.350001952171,8|0,0:1|1:0,0:0:0:0:
354,141,79186,1,2,0:0:0:0:
354,141,79269,6,0,B|319:103|319:103|412:112|467:35,1,204.700003904343,0|8,1:0|0:1,0:0:0:0:
256,152,79769,2,0,B|290:189|290:189|198:181|142:257,1,204.700003904343,0|0,1:0|1:0,0:0:0:0:
200,340,80269,1,8,0:1:0:0:
424,376,80436,1,0,0:0:0:0:
353,141,80602,6,0,B|297:81|297:81|328:16|417:9,1,204.700003904343,4|8,1:0|0:1,0:0:0:0:
203,96,81102,2,0,B|145:151|145:151|80:120|76:55,1,204.700003904343,4|8,1:0|0:1,0:0:0:0:
159,243,81602,2,0,B|215:303|215:303|184:368|95:375,1,204.700003904343,4|8,1:0|0:1,0:0:0:0:
308,287,82102,2,0,B|367:233|367:233|432:264|435:328,1,204.700003904343,4|8,1:0|0:1,0:0:0:0:
205,95,82602,6,0,L|212:156,1,51.1750009760857,8|8,0:1|0:1,0:0:0:0:
307,289,82769,2,0,L|301:238,1,51.1750009760857,8|8,0:1|0:1,0:0:0:0:
353,141,82936,2,0,L|302:146,1,51.1750009760857,8|8,0:1|0:1,0:0:0:0:
159,243,83102,2,0,L|209:237,1,51.1750009760857,8|8,0:1|0:1,0:0:0:0:
286,63,83269,1,4,1:0:0:0:
256,192,83352,12,0,84602,1:0:0:0:
100,184,85936,6,0,L|76:64,1,102.350001952171,8|0,0:1|1:0,0:0:0:0:
56,276,86269,1,0,1:0:0:0:
196,140,86436,6,0,L|172:20,1,102.350001952171,8|0,0:1|1:0,0:0:0:0:
152,296,86769,1,0,1:0:0:0:
292,104,86936,6,0,L|268:-16,1,102.350001952171,8|0,0:1|0:0,0:0:0:0:
251,316,87269,1,0,1:0:0:0:
424,344,87436,1,8,0:1:0:0:
292,188,87602,1,0,1:0:0:0:
119,216,87769,1,0,1:0:0:0:
292,104,87936,5,8,0:1:0:0:
317,108,88019,1,0,1:0:0:0:
339,120,88102,1,0,1:0:0:0:
358,137,88185,1,0,1:0:0:0:
370,159,88269,1,8,2:1:0:0:
376,184,88352,1,8,0:1:0:0:
374,210,88435,1,0,1:1:0:0:
365,234,88519,1,2,1:2:0:0:
