osu file format v14

[General]
AudioFilename: Gunslinger Stratos OP.mp3
AudioLeadIn: 0
PreviewTime: 62673
Countdown: 0
SampleSet: Soft
StackLeniency: 0.7
Mode: 0
LetterboxInBreaks: 0
WidescreenStoryboard: 1

[Editor]
Bookmarks: 78296,83765
DistanceSpacing: 1.1
BeatDivisor: 4
GridSize: 16
TimelineZoom: 2.1

[Metadata]
Title:Vanilla Sky ~TV Size~
TitleUnicode:Vanilla Sky ~TV Size~
Artist:Ayano Mashiro
ArtistUnicode:綾野ましろ
Creator:Padge14
Version:Insane
Source:Gunslinger Stratos: The Animation
Tags:Anime ガンスリンガー ストラトス Shoonskyres Kibbleru Kibboo
BeatmapID:681173
BeatmapSetID:302066

[Difficulty]
HPDrainRate:7
CircleSize:4
OverallDifficulty:7
ApproachRate:9
SliderMultiplier:1.7
SliderTickRate:1

[Events]
//Background and Video events
0,0,"BackGround.jpg",0,0
//Break Periods
//Storyboard Layer 0 (Background)
//Storyboard Layer 1 (Fail)
//Storyboard Layer 2 (Pass)
//Storyboard Layer 3 (Foreground)
//Storyboard Sound Samples

[TimingPoints]
805,312.467451307156,4,2,1,50,1,0
805,-200,4,2,1,50,0,0
5179,-111.111111111111,4,2,1,30,0,0
5804,-111.111111111111,4,2,1,60,0,0
18303,-100,4,2,1,90,0,0
29552,-111.111111111111,4,2,1,60,0,0
39550,-100,4,2,1,60,0,0
48456,-111.111111111111,4,2,1,60,0,0
54549,-100,4,2,1,60,0,0
59392,-111.111111111111,4,2,1,60,0,0
63298,-100,4,2,1,60,0,1
85796,-100,4,2,1,60,0,0
88139,-200,4,2,1,60,0,0
88295,-200,4,2,1,5,0,0

[Colours]
Combo1 : 0,0,255
Combo2 : 146,146,146
Combo3 : 255,0,0
Combo4 : 255,172,132

[HitObjects]
218,106,805,5,2,0:0:0:0:
268,177,2054,2,0,P|237:148|216:112,1,85,2|0,0:0|0:0,0:0:0:0:
236,259,2679,2,0,P|266:288|288:324,1,85,2|2,0:0|0:0,0:0:0:0:
163,202,3304,5,0,0:0:0:0:
305,100,3773,1,2,0:0:0:0:
200,344,4242,1,2,0:0:0:0:
200,344,4398,1,2,0:0:0:0:
132,268,5179,5,2,0:0:0:0:
132,268,5492,1,0,0:0:0:0:
132,268,5804,6,0,L|236:268,1,76.4999976654053,2|0,0:0|0:0,0:0:0:0:
272,324,6116,1,0,0:0:0:0:
340,276,6273,2,0,P|328:212|240:164,1,152.999995330811,2|0,0:0|0:0,0:0:0:0:
213,236,6741,2,0,L|136:228,1,76.4999976654053,2|0,0:0|0:0,0:0:0:0:
128,144,7054,6,0,L|52:160,1,76.4999976654053,2|0,0:0|0:0,0:0:0:0:
52,244,7366,1,0,0:0:0:0:
112,304,7523,2,0,L|260:252,1,152.999995330811,2|0,0:0|0:0,0:0:0:0:
288,176,7991,2,0,L|378:187,1,76.4999976654053,2|0,0:0|0:0,0:0:0:0:
262,335,8304,6,0,P|300:342|338:337,1,76.4999976654053,8|0,0:0|0:0,0:0:0:0:
363,185,8616,1,2,0:0:0:0:
418,259,8772,1,0,0:0:0:0:
454,174,8929,2,0,P|430:126|330:102,1,152.999995330811,10|0,0:0|0:0,0:0:0:0:
264,152,9397,1,0,0:0:0:0:
300,228,9554,5,8,0:0:0:0:
183,303,9710,1,2,0:0:0:0:
308,264,9866,1,0,0:0:0:0:
167,271,10022,1,2,0:0:0:0:
163,187,10179,2,0,P|159:143|171:111,1,76.4999976654053,10|0,0:0|0:0,0:0:0:0:
284,68,10491,2,0,L|360:80,1,76.4999976654053,2|0,0:0|0:0,0:0:0:0:
356,164,10803,6,0,L|268:194,1,76.4999976654053,10|8,0:0|0:0,0:0:0:0:
212,236,11116,1,8,0:0:0:0:
135,271,11272,2,0,P|123:307|128:344,1,76.4999976654053,2|0,0:0|0:0,0:0:0:0:
273,329,11585,1,10,0:0:0:0:
147,182,11741,1,2,0:0:0:0:
201,67,11897,1,10,0:0:0:0:
360,176,12991,6,0,L|375:250,1,76.4999976654053,0|0,0:0|0:0,0:0:0:0:
280,156,13303,1,10,0:0:0:0:
219,214,13459,1,8,0:0:0:0:
139,192,13616,2,0,L|123:117,1,76.4999976654053,10|10,0:0|0:0,0:0:0:0:
288,76,14084,5,2,0:0:0:0:
200,296,14397,1,10,0:0:0:0:
256,192,14553,12,0,17522,3:0:0:0:
256,192,17678,5,8,3:2:0:0:
256,192,17834,1,0,3:0:0:0:
256,192,18303,6,0,L|215:116,1,85,8|0,0:0|0:0,0:0:0:0:
207,318,18615,2,0,L|111:303,1,85,0|0,1:0|0:0,0:0:0:0:
16,240,18928,1,8,0:0:0:0:
124,168,19084,1,0,0:0:0:0:
124,305,19240,1,0,1:0:0:0:
124,305,19396,6,0,P|196:288|210:202,1,170,10|0,0:0|0:0,0:0:0:0:
168,53,19865,2,0,L|209:130,1,85,2|0,1:2|0:0,0:0:0:0:
278,268,20177,2,0,L|318:345,1,85,10|0,0:2|0:0,0:0:0:0:
108,260,20490,2,0,L|184:221,1,85,2|0,1:2|0:0,0:0:0:0:
328,156,20802,1,8,0:0:0:0:
328,156,21115,6,0,L|387:248,1,85,0|0,1:0|0:0,0:0:0:0:
279,267,21427,2,0,L|343:353,1,85,8|0,0:0|0:0,0:0:0:0:
172,244,21740,1,0,1:0:0:0:
328,156,21896,1,10,0:0:0:0:
112,144,22209,5,0,1:0:0:0:
112,144,22365,1,0,1:0:0:0:
300,112,22677,1,0,1:0:0:0:
376,144,22833,1,0,1:0:0:0:
368,64,22990,1,10,0:0:0:0:
344,284,23302,1,8,0:0:0:0:
344,284,23615,5,0,1:0:0:0:
344,104,23927,1,8,0:0:0:0:
208,192,24083,1,0,0:0:0:0:
376,188,24240,1,0,1:0:0:0:
244,104,24396,2,0,P|180:84|121:4,1,170,10|0,0:0|0:0,0:0:0:0:
104,125,24864,6,0,L|127:207,1,85,2|0,1:2|0:0,0:0:0:0:
232,259,25177,2,0,L|229:161,1,85,10|0,0:2|0:0,0:0:0:0:
314,52,25489,2,0,L|304:163,1,85,2|0,1:2|0:0,0:0:0:0:
460,100,25802,6,0,L|434:19,1,85,10|0,0:2|0:0,0:0:0:0:
392,180,26114,2,0,P|416:196|476:205,1,85,0|0,1:0|0:0,0:0:0:0:
248,208,26427,2,0,P|255:235|296:277,1,85,8|0,0:0|0:0,0:0:0:0:
364,312,26739,1,0,1:0:0:0:
462,204,26896,1,10,0:0:0:0:
314,65,27208,5,0,1:0:0:0:
216,173,27364,1,0,1:0:0:0:
256,192,27520,12,0,28927,0:0:0:0:
120,196,29552,6,0,L|208:216,1,76.4999976654053,8|0,0:2|0:0,0:0:0:0:
334,120,29864,2,0,P|302:141|280:172,1,76.4999976654053,8|0,1:0|0:0,0:0:0:0:
296,260,30176,2,0,P|344:308|364:316,1,76.4999976654053,8|0,0:2|0:0,0:0:0:0:
194,212,30489,2,0,P|171:181|139:160,1,76.4999976654053,8|0,1:0|0:0,0:0:0:0:
36,140,30801,6,0,P|56:100|88:72,1,76.4999976654053,8|0,0:2|0:0,0:0:0:0:
176,144,31113,2,0,P|156:184|124:212,1,76.4999976654053,8|0,1:0|0:0,0:0:0:0:
32,112,31426,2,0,P|52:72|84:44,1,76.4999976654053,8|0,0:2|0:0,0:0:0:0:
235,63,31739,2,0,P|197:70|160:64,1,76.4999976654053,8|0,1:0|0:0,0:0:0:0:
292,136,32051,6,0,P|336:228|312:284,1,152.999995330811,8|8,0:2|1:0,0:0:0:0:
228,336,32520,1,0,0:0:0:0:
228,336,32676,2,0,P|180:344|148:336,1,76.4999976654053,0|8,0:0|0:2,0:0:0:0:
192,240,32989,1,8,1:0:0:0:
153,137,33145,2,0,P|190:131|228:140,1,76.4999976654053,0|8,0:0|0:2,0:0:0:0:
376,84,33457,6,0,L|284:76,1,76.4999976654053,0|8,0:0|1:0,0:0:0:0:
280,216,33770,1,0,0:0:0:0:
280,216,33926,2,0,L|360:204,1,76.4999976654053,8|0,0:2|0:0,0:0:0:0:
224,56,34238,2,0,L|148:67,1,76.4999976654053,8|0,1:0|0:0,0:0:0:0:
104,184,34551,6,0,P|120:232|200:296,1,152.999995330811,8|8,0:2|1:0,0:0:0:0:
300,344,35020,1,0,0:0:0:0:
456,252,35176,2,0,L|368:280,1,76.4999976654053,8|0,0:2|0:0,0:0:0:0:
368,176,35488,2,0,L|312:100,1,76.4999976654053,8|0,1:0|0:0,0:0:0:0:
296,316,35801,6,0,P|244:321|219:312,1,76.4999976654053,8|0,0:2|0:0,0:0:0:0:
188,223,36113,1,8,1:0:0:0:
188,223,36270,1,0,0:0:0:0:
363,173,36426,2,0,L|356:256,1,76.4999976654053,8|0,0:2|0:0,0:0:0:0:
215,125,36738,2,0,L|291:113,1,76.4999976654053,8|0,1:0|0:0,0:0:0:0:
392,83,37051,6,0,P|436:127|432:231,1,152.999995330811,8|8,0:2|1:0,0:0:0:0:
359,290,37519,1,0,0:0:0:0:
359,290,37676,2,0,P|315:260|300:219,1,76.4999976654053,8|0,0:2|0:0,0:0:0:0:
355,129,37988,2,0,P|318:140|280:136,1,76.4999976654053,8|0,1:0|0:0,0:0:0:0:
185,180,38301,5,8,0:2:0:0:
166,283,38457,1,8,0:0:0:0:
238,359,38613,2,0,L|313:338,1,76.4999976654053,8|0,1:0|0:0,0:0:0:0:
401,282,38926,2,0,L|415:206,1,76.4999976654053,8|0,0:2|0:0,0:0:0:0:
385,107,39238,1,8,1:0:0:0:
295,54,39394,1,0,0:0:0:0:
232,217,39550,6,0,L|212:135,1,85,10|0,0:2|0:0,0:0:0:0:
92,200,39863,2,0,L|136:292,1,85,10|0,1:0|0:0,0:0:0:0:
241,330,40175,1,10,0:2:0:0:
241,330,40332,2,0,P|305:326|329:318,1,85,2|8,0:0|1:0,0:0:0:0:
456,200,40644,2,0,P|400:204|364:220,1,85,2|12,0:0|0:2,0:0:0:0:
112,124,41113,5,8,1:0:0:0:
112,124,41269,2,0,P|168:124|228:100,1,85,0|8,0:0|0:2,0:0:0:0:
317,69,41582,2,0,L|313:185,1,85,0|8,0:0|1:0,0:0:0:0:
152,320,42050,6,0,L|154:235,1,85,10|0,0:2|1:2,0:0:0:0:
296,240,42363,2,0,L|272:156,1,85,10|0,1:0|0:0,0:0:0:0:
153,235,42675,1,8,0:2:0:0:
244,329,42831,2,0,P|317:342|342:327,1,85,2|8,0:0|1:0,0:0:0:0:
415,253,43144,1,2,0:0:0:0:
415,253,43300,1,14,0:2:0:0:
415,253,43613,5,8,1:0:0:0:
332,160,43769,2,0,L|240:177,1,85,0|8,0:0|0:2,0:0:0:0:
129,123,44081,2,0,P|116:182|138:227,1,85,0|8,0:0|1:0,0:0:0:0:
308,312,44394,1,0,0:0:0:0:
308,312,44550,6,0,P|383:345|459:313,1,170,8|8,0:2|1:0,0:0:0:0:
460,120,45019,1,0,0:0:0:0:
312,176,45175,2,0,P|360:188|416:168,1,85,10|0,0:2|0:0,0:0:0:0:
408,48,45487,2,0,P|320:48|304:56,1,85,10|0,1:0|0:0,0:0:0:0:
230,132,45800,6,0,P|230:220|238:236,1,85,10|0,0:2|0:0,0:0:0:0:
395,264,46112,2,0,P|401:222|393:180,1,85,10|0,1:0|0:0,0:0:0:0:
324,46,46425,2,0,P|324:134|332:150,1,85,10|0,0:2|0:0,0:0:0:0:
404,91,46737,1,10,1:0:0:0:
233,54,47050,5,8,0:2:0:0:
133,34,47206,1,0,1:0:0:0:
60,104,47362,2,0,P|48:144|56:186,1,85,0|0,1:0|1:0,0:0:0:0:
112,280,47675,1,8,0:1:0:0:
152,272,47753,1,8,3:1:0:0:
192,244,47831,1,8,3:1:0:0:
240,236,47909,1,8,3:1:0:0:
288,252,47987,1,8,3:1:0:0:
232,324,48143,6,0,P|307:356|383:322,1,170,10|2,1:2|1:0,0:0:0:0:
447,230,48612,2,0,L|446:144,1,76.4999976654053,8|0,1:0|0:0,0:0:0:0:
331,181,48924,2,0,P|321:225|314:260,1,76.4999976654053,8|0,1:2|0:0,0:0:0:0:
221,351,49237,2,0,L|205:268,1,76.4999976654053,8|0,1:0|0:0,0:0:0:0:
112,224,49549,5,2,0:0:0:0:
112,224,49706,2,0,B|140:192|192:168,1,76.4999976654053,0|0,0:0|0:0,0:0:0:0:
312,101,50018,2,0,B|284:133|252:148,1,76.4999976654053,0|2,0:0|0:0,0:0:0:0:
298,278,50331,2,0,B|268:264|268:264|240:232,1,76.4999976654053,0|0,0:0|0:0,0:0:0:0:
172,177,50643,1,0,0:0:0:0:
172,177,50799,6,0,B|144:145|144:145|114:131,2,76.4999976654053,2|0|0,0:0|0:0|0:0,0:0:0:0:
220,108,51268,1,0,0:0:0:0:
220,108,51424,2,0,P|264:167|240:236,1,152.999995330811,2|0,0:0|0:0,0:0:0:0:
188,308,51893,1,0,0:0:0:0:
268,344,52049,5,2,0:0:0:0:
268,344,52205,2,0,L|420:276,1,152.999995330811,0|0,0:0|0:0,0:0:0:0:
447,202,52674,2,0,L|435:106,1,76.4999976654053,2|0,0:0|0:0,0:0:0:0:
354,108,52987,2,0,P|343:71|339:33,1,76.4999976654053,0|0,0:0|0:0,0:0:0:0:
219,108,53299,6,0,P|235:143|246:180,1,76.4999976654053,2|0,0:0|0:0,0:0:0:0:
110,228,53611,1,8,1:0:0:0:
303,255,53768,1,0,1:0:0:0:
303,255,53846,1,0,1:0:0:0:
303,255,53924,1,0,1:0:0:0:
229,330,54080,1,8,0:0:0:0:
127,144,54236,1,4,1:2:0:0:
416,270,54549,5,8,0:2:0:0:
319,336,54705,1,0,0:0:0:0:
319,336,54861,2,0,L|239:292,1,85,8|0,1:0|0:0,0:0:0:0:
88,208,55174,2,0,P|132:212|188:208,1,85,8|0,0:2|0:0,0:0:0:0:
348,170,55486,1,8,1:0:0:0:
348,170,55643,6,0,P|306:171|264:168,1,85,0|12,0:0|0:2,0:0:0:0:
216,84,55955,1,0,0:0:0:0:
172,210,56111,1,8,1:0:0:0:
124,128,56267,1,0,0:0:0:0:
264,168,56424,2,0,P|296:212|320:232,1,85,8|0,0:2|0:0,0:0:0:0:
124,128,56736,2,0,P|100:92|68:64,1,85,8|0,1:0|0:0,0:0:0:0:
80,232,57049,6,0,P|112:276|136:296,1,85,12|0,0:2|0:0,0:0:0:0:
228,244,57361,2,0,L|320:244,1,85,8|0,1:0|0:0,0:0:0:0:
160,192,57674,1,8,0:2:0:0:
212,336,57830,1,8,1:0:0:0:
212,336,57908,1,8,1:0:0:0:
212,336,57986,2,0,L|300:336,1,85,8|2,1:0|1:2,0:0:0:0:
400,280,58299,6,0,P|404:220|392:192,1,85,0|8,0:0|1:2,0:0:0:0:
432,104,58611,2,0,P|390:96|349:107,1,85,0|8,1:0|1:2,0:0:0:0:
272,43,58923,2,0,P|251:94|259:142,1,85,0|0,0:0|1:0,0:0:0:0:
252,122,59158,1,0,1:0:0:0:
252,122,59236,1,0,1:0:0:0:
317,240,59392,6,0,B|277:208|209:208|221:256|149:264|97:208,1,229.499992996216,8|10,3:2|0:0,0:0:0:0:
173,128,60017,1,2,3:2:0:0:
37,152,60173,2,0,P|20:225|49:295,2,152.999995330811,10|8|8,3:2|0:0|0:2,0:0:0:0:
101,88,60954,5,8,0:0:0:0:
153,160,61111,2,0,L|249:164,1,76.4999976654053,8|0,0:0|1:1,0:0:0:0:
289,32,61423,1,8,0:0:0:0:
361,90,61579,2,0,L|437:84,1,76.4999976654053,8|0,0:0|1:0,0:0:0:0:
400,201,61892,2,0,P|363:209|326:201,1,76.4999976654053,10|8,0:0|0:2,0:0:0:0:
230,165,62204,2,0,L|140:156,2,76.4999976654053,10|10|0,0:0|1:0|0:3,0:0:0:0:
276,152,63298,6,0,P|236:136|194:138,1,85,8|0,1:2|0:0,0:0:0:0:
120,252,63610,2,0,P|160:268|202:266,1,85,8|0,1:0|0:0,0:0:0:0:
360,176,63923,2,0,P|361:134|345:95,1,85,8|0,0:2|0:0,0:0:0:0:
384,268,64235,2,0,P|341:270|302:254,1,85,8|0,1:0|0:0,0:0:0:0:
216,324,64548,6,0,P|188:290|177:250,1,85,8|0,0:2|0:0,0:0:0:0:
240,152,64860,1,8,1:0:0:0:
177,251,65017,1,8,1:0:0:0:
240,152,65173,2,0,P|148:48|116:48,1,170,8|8,0:2|1:0,0:0:0:0:
120,165,65641,1,0,0:0:0:0:
240,152,65798,6,0,L|320:100,1,85,8|0,0:2|0:0,0:0:0:0:
443,37,66110,2,0,P|422:73|412:115,1,85,8|0,1:0|0:0,0:0:0:0:
395,215,66423,2,0,L|319:259,1,85,8|0,0:2|0:0,0:0:0:0:
323,359,66735,2,0,L|403:307,1,85,8|0,1:0|0:0,0:0:0:0:
259,191,67048,6,0,P|235:231|231:287,2,85,8|0|8,0:2|0:0|1:0,0:0:0:0:
348,240,67516,1,8,0:0:0:0:
315,337,67673,2,0,B|279:313|261:364|169:356|147:280,1,170,10|8,0:2|1:0,0:0:0:0:
152,202,68297,6,0,P|97:223|69:339,1,170,8|8,0:2|1:0,0:0:0:0:
240,244,68766,1,0,0:0:0:0:
260,76,68922,1,8,0:2:0:0:
168,108,69079,1,0,0:0:0:0:
260,164,69235,2,0,P|296:180|348:156,1,85,8|0,1:0|0:0,0:0:0:0:
76,164,69547,6,0,L|164:208,1,85,10|0,0:2|0:0,0:0:0:0:
289,298,69860,2,0,L|197:294,1,85,10|0,1:0|0:0,0:0:0:0:
376,256,70172,2,0,L|445:304,1,85,10|0,0:2|0:0,0:0:0:0:
414,166,70485,2,8,P|372:151|333:170,1,85,10|8,1:0|0:0,0:0:0:0:
290,297,70797,6,0,P|367:330|446:303,1,170,8|8,0:2|1:0,0:0:0:0:
414,166,71266,1,0,0:0:0:0:
414,166,71422,2,0,L|460:76,2,85,8|8|8,0:2|0:0|1:0,0:0:0:0:
288,33,71891,6,0,P|236:77|268:185,1,170,10|10,0:0|0:0,0:0:0:0:
268,261,72360,1,8,0:0:0:0:
336,137,72516,1,0,0:0:0:0:
360,273,72672,2,0,P|392:325|412:341,2,85,8|0|8,0:2|0:0|1:0,0:0:0:0:
249,170,73141,1,0,0:0:0:0:
408,201,73297,5,10,0:2:0:0:
268,261,73453,2,0,P|209:278|183:276,2,85,0|8|0,0:0|1:0|0:0,0:0:0:0:
336,136,73922,1,8,0:2:0:0:
249,170,74078,2,0,P|233:130|232:88,1,85,0|8,0:0|1:0,0:0:0:0:
304,29,74391,2,0,P|321:87|319:113,1,85,0|10,0:0|0:2,0:0:0:0:
167,186,74703,6,0,P|149:127|151:101,1,85,0|8,0:0|1:0,0:0:0:0:
368,188,75016,2,0,B|400:232|392:308|332:328|288:312,1,170,0|0,0:0|0:0,0:0:0:0:
199,237,75484,2,0,P|215:177|230:156,1,85,8|0,1:0|0:0,0:0:0:0:
312,92,75797,5,10,0:2:0:0:
324,188,75953,1,0,0:0:0:0:
228,159,76109,2,0,P|187:171|145:168,1,85,8|0,1:0|0:0,0:0:0:0:
80,96,76422,1,8,0:2:0:0:
176,72,76578,1,8,0:0:0:0:
145,168,76734,2,0,P|131:208|105:241,1,85,8|8,1:0|0:0,0:0:0:0:
152,320,77047,5,10,0:2:0:0:
244,327,77203,1,0,0:0:0:0:
328,280,77359,1,8,1:0:0:0:
324,188,77515,2,0,B|280:200|280:200|248:228,1,85,0|8,0:0|0:2,0:0:0:0:
145,168,77828,2,0,B|112:195|112:195|71:205,2,85,0|8|0,0:0|1:0|0:0,0:0:0:0:
190,86,78296,5,8,0:2:0:0:
238,168,78453,2,0,B|230:212|230:212|238:252,1,85,8|8,0:0|0:0,0:0:0:0:
338,331,78765,2,0,P|444:317|449:232,1,170,8|0,1:2|1:0,0:0:0:0:
332,193,79234,1,0,1:0:0:0:
400,100,79390,1,8,1:0:0:0:
250,94,79546,5,8,0:2:0:0:
428,184,79703,1,0,1:0:0:0:
324,60,79859,2,0,P|250:93|161:46,1,170,8|8,1:0|1:2,0:0:0:0:
148,280,80484,6,8,P|104:296|52:280,1,85,8|8,0:0|0:0,0:0:0:0:
40,144,80796,2,0,L|96:208,1,85,8|0,0:2|0:0,0:0:0:0:
208,216,81109,1,0,0:0:0:0:
256,332,81265,1,8,0:0:0:0:
256,332,81343,1,8,0:0:0:0:
256,332,81421,2,0,P|297:338|336:322,2,85,8|0|0,0:0|0:0|0:0,0:0:0:0:
160,260,81890,1,8,1:2:0:0:
160,260,82202,5,8,0:0:0:0:
351,167,82359,1,8,0:0:0:0:
351,167,82671,5,8,0:2:0:0:
203,125,82827,1,8,0:0:0:0:
237,215,82983,1,8,0:0:0:0:
373,94,83140,1,8,0:0:0:0:
475,166,83296,6,0,P|438:193|373:206,1,85,10|0,1:2|0:0,0:0:0:0:
311,145,83608,1,10,1:2:0:0:
289,252,83765,2,0,L|277:336,1,85,10|8,1:2|0:0,0:0:0:0:
176,177,84077,1,8,0:0:0:0:
311,145,84233,2,0,L|395:157,1,85,8|8,1:2|0:0,0:0:0:0:
484,268,84546,5,10,0:2:0:0:
324,236,84702,1,2,0:0:0:0:
424,352,84858,1,10,0:2:0:0:
420,176,85014,1,2,0:0:0:0:
322,329,85171,1,10,0:0:0:0:
484,268,85327,1,2,0:0:0:0:
280,225,85483,1,10,0:0:0:0:
356,36,85639,1,2,0:0:0:0:
420,176,85796,6,0,P|368:232|268:216,1,170,12|0,0:0|0:0,0:0:0:0:
148,116,86264,1,8,0:0:0:0:
284,116,86421,1,10,0:0:0:0:
176,208,86577,2,0,P|201:288|189:372,1,170,10|8,0:0|0:0,0:0:0:0:
324,264,87046,6,0,P|314:220|324:176,2,85,10|10|10,0:0|0:0|0:0,0:0:0:0:
416,224,87514,2,0,P|427:183|412:133,1,85,10|10,1:0|0:2,0:0:0:0:
180,173,87827,1,8,0:2:0:0:
244,265,87983,1,8,0:2:0:0:
417,142,88139,2,0,B|411:102|393:86|365:85|327:96|395:63,1,127.5,8|0,0:2|0:0,0:0:0:0:
