osu file format v9

[General]
AudioFilename: ADX33NL.OGG
AudioLeadIn: 1000
PreviewTime: 62579
Countdown: 0
SampleSet: Soft
StackLeniency: 0.6
Mode: 0
LetterboxInBreaks: 1

[Editor]
Bookmarks: 1195,17810,32579,47348,62579,63964,78733,93502
DistanceSpacing: 0.9
BeatDivisor: 4
GridSize: 8

[Metadata]
Title:ribbon
Artist:Ayane
Creator:impossiblexu
Version:Normal
Source:Memories Off After Rain
Tags:KID Cyberfront Yue Imasaka Shirakawa Hotaru

[Difficulty]
HPDrainRate:4
CircleSize:4
OverallDifficulty:4
ApproachRate:5
SliderMultiplier:1.3
SliderTickRate:2

[Events]
//Background and Video events
0,0,"BG2.jpg"
Video,0,"op 03.avi"
//Break Periods
//Storyboard Layer 0 (Background)
//Storyboard Layer 1 (Fail)
//Storyboard Layer 2 (Pass)
//Storyboard Layer 3 (Foreground)
//Storyboard Sound Samples
//Background Colour Transformations
3,100,163,162,255

[TimingPoints]
1186,461.538461538462,4,2,0,50,1,0
15839,-100,4,2,0,25,0,0
17686,-100,4,2,0,50,0,0
63955,-100,4,2,0,50,0,1
78666,-100,4,2,0,50,0,0
78724,-100,4,2,0,50,0,1
95109,-100,4,2,0,50,0,0
111839,-100,4,2,0,30,0,0
113801,-100,4,2,0,0,0,0

[Colours]
Combo1 : 255,255,255
Combo2 : 226,82,175
Combo3 : 60,218,34
Combo4 : 236,139,21
Combo5 : 148,94,202

[HitObjects]
107,62,1186,2,0,B|52:109|67:188,1,130,4|8
87,233,1878,1,0
145,233,2109,2,0,B|209:262|281:231,1,130,2|8
231,124,3032,6,0,B|328:87|328:164|429:126,2,195,2|2|2
181,154,4647,1,0
206,206,4878,6,0,B|164:261|183:332,1,130,4|8
236,351,5570,1,0
293,337,5801,2,0,B|356:329|348:285|426:276,1,130,2|8
343,182,6724,6,0,L|272:124|272:124|278:117|278:117|199:52,2,195,2|2|2
314,232,8339,1,0
256,222,8570,6,0,B|197:255|112:223,1,130,4|8
189,128,9493,2,0,B|124:95|55:127,1,130,2|8
28,170,10185,1,0
44,225,10416,6,0,B|6:262|28:325,2,97.5,2|0|2
113,279,11455,2,0,B|161:270|162:298|208:290,1,97.5,0|2
235,238,12032,1,0
292,247,12262,6,0,B|342:291|429:286,1,130,2|8
450,241,12955,1,0
435,184,13185,2,0,B|439:146|473:128,1,65,2|0
410,117,13647,2,0,B|436:93|433:56,1,65,8|0
376,73,14109,6,0,L|313:92|313:92|237:74,1,130,4|4
173,165,15032,2,0,L|236:149|236:149|305:168,1,130,4|4
222,252,15955,6,0,B|164:289|166:366,2,130,2|2|2
205,195,17109,1,0
147,207,17339,2,0,B|119:228|82:217,1,65,2|0
104,162,17801,6,0,B|87:98|133:36,1,130,4|8
170,81,18493,2,0,B|237:104|296:70,1,130,2|0
352,88,19186,1,8
372,142,19416,2,0,B|383:245|290:309,1,195,2|8
180,269,20570,2,0,B|156:291|116:286,2,65,2|0|8
140,225,21262,6,0,B|103:169|130:94,1,130,2|0
169,61,21955,1,8
223,82,22186,2,0,B|283:112|363:84,1,130,2|0
398,120,22878,1,8
408,177,23109,1,0
366,218,23339,2,0,B|309:227|321:278|250:286,2,130,2|8|2
334,168,24493,1,0
275,174,24724,2,0,B|252:199|210:193,1,65,8|0
159,209,25186,6,0,B|120:208|71:232|114:267|156:275,1,130,4|8
205,301,25878,1,0
263,302,26109,2,0,B|321:279|330:326|402:302,1,130,2|8
369,249,26801,2,0,B|349:181|408:120,1,130,2|0
386,71,27493,1,8
271,46,27955,2,0,B|221:84|143:71,1,130,2|8
101,108,28647,1,2
43,209,29109,6,0,B|68:234|60:274,1,65,0|8
65,327,29570,1,2
178,297,30032,2,0,B|210:289|214:309|247:302,2,65,0|8|0
162,240,30724,1,4
162,240,31186,1,4
228,147,31647,2,0,B|229:114|257:88,1,65,2|2
287,134,32109,2,0,B|308:109|349:111,1,65,8|0
336,168,32570,6,0,B|318:235|369:295,2,130,4|8|2
280,186,33724,2,0,B|254:207|261:249,1,65,0|8
204,227,34186,2,0,B|127:286|12:257,1,195,2|8
64,151,35339,2,0,B|64:80,1,65,2|0
112,119,35801,2,0,B|112:198,1,65,8|0
165,159,36262,6,0,B|226:189|300:166,1,130,2|8
278,111,36955,2,0,B|348:100|404:140,2,130,2|2|0
237,68,38109,2,0,B|200:61|173:87,1,65,2|0
140,129,38570,2,0,B|134:199|57:237,1,130,8|2
84,287,39262,1,0
137,311,39493,2,0,B|168:331|166:366,1,65,8|0
211,328,39955,6,0,B|269:368|352:343,2,130,2|8|2
190,273,41109,2,0,B|211:245|201:209,1,65,0|8
256,189,41570,2,0,B|314:175|300:131|371:112,1,130,2|0
416,99,42262,1,8
467,126,42493,2,0,B|454:192|498:251,1,130,2|0
465,299,43186,1,8
409,280,43416,6,0,L|347:280|347:280|348:290|348:290|282:289,1,130,2|0
243,253,44109,1,8
269,201,44339,2,0,L|269:139|269:139|279:140|279:140|278:74,1,130,2|0
251,29,45032,1,8
195,47,45262,2,0,B|130:75|61:31,2,130,2|2|0
183,104,46416,2,0,B|166:132|174:168,1,65,2|2
229,148,46878,2,0,B|239:183|224:213,1,65,8|0
276,237,47339,6,0,B|303:301|379:313,2,130,4|8|2
310,189,48493,2,0,B|282:121|207:107,1,130,0|0
207,166,49186,2,0,B|186:196|140:196,1,65,2|0
93,189,49647,1,8
128,301,50109,2,0,B|185:343|267:325,1,130,2|8
305,305,50801,1,0
352,270,51032,6,0,B|343:205|407:152,1,130,2|8
345,143,51724,2,0,B|394:84|383:18,2,130,2|2|0
307,98,52878,2,0,B|185:149|47:119,1,260,2|2
14,165,54032,1,0
14,223,54262,1,8
64,251,54493,1,0
119,232,54724,6,0,B|161:284|238:282,1,130,2|8
268,234,55416,2,0,B|324:271|409:254,1,130,2|0
449,238,56109,1,8
467,182,56339,2,0,B|454:149|472:117,2,65,2|0|0
413,158,57032,1,8
365,191,57262,2,0,B|306:181|301:217|237:204,2,130,2|2|0
338,138,58416,5,4
245,66,58878,1,8
135,106,59339,1,2
120,222,59801,1,8
160,263,60032,2,0,B|196:324|286:327,1,130,2|2
279,269,60724,2,2,B|338:305|416:282,1,130,8|2
441,239,61416,2,0,B|428:208|441:175,2,65,8|0|8
389,210,62109,1,4
283,69,62801,5,8
225,82,63032,2,0,B|167:102|189:137|118:154,1,130,2|2
108,210,63724,1,8
151,248,63955,2,0,B|184:306|281:304,1,130,4|8
318,288,64647,1,0
358,246,64878,2,0,B|339:180|379:107,2,130,2|8|2
257,186,66262,1,8
217,229,66493,1,0
158,221,66724,2,0,B|136:246|101:245,1,65,2|0
111,187,67186,2,0,B|72:189|55:159,1,65,8|0
105,129,67647,6,0,B|141:65|225:61,2,130,2|8|2
221,137,69032,1,8
274,113,69262,2,0,B|328:155|404:142,2,130,2|2|0
253,58,70416,2,0,B|223:35|180:46,1,65,2|0
132,38,70878,2,0,B|104:59|67:55,1,65,8|0
99,106,71339,6,0,B|57:156|102:177|52:234,1,130,4|8
116,228,72032,2,0,B|121:296|187:339,1,130,2|0
239,338,72724,1,8
289,309,72955,2,0,B|287:241|341:192,1,130,2|0
322,137,73647,2,0,B|259:101,1,65,8|0
254,162,74109,2,0,B|142:92,1,130,2|8
85,102,74801,1,0
69,158,75032,6,0,B|43:180|45:217,2,65,2|0|8
105,203,75724,2,0,B|143:252|110:276|157:326,1,130,2|0
209,337,76416,1,8
265,320,76647,2,0,L|331:343|331:343|408:312,2,130,2|2|8
287,265,77801,2,0,B|303:219|271:165,2,97.5,2|2|8
239,230,78724,6,0,B|176:262|99:229,1,130,4|8
74,189,79416,1,0
107,140,79647,2,0,B|103:87|56:57,2,97.5,2|2|8
162,121,80570,2,0,B|221:157|305:136,1,130,2|8
345,129,81262,1,0
388,168,81493,2,0,B|418:189|418:224,1,65,2|0
359,219,81955,2,0,B|357:292|296:333,1,130,8|2
242,335,82647,5,0
190,307,82878,2,0,B|141:259|145:187,2,130,8|2|8
210,252,84032,2,0,B|257:211|282:248|341:194,1,130,2|0
334,145,84724,2,0,B|301:136|293:97,1,65,8|0
235,86,85185,2,0,B|179:40|107:64,1,130,2|8
151,173,86109,6,0,B|99:222|117:300,1,130,4|8
170,271,86801,2,0,B|234:281|222:325|289:338,1,130,2|0
338,341,87493,1,8
390,315,87724,2,0,B|376:248|433:189,1,130,2|2
309,190,88647,2,0,B|359:140|345:70,1,130,2|2
303,30,89339,1,8
245,43,89570,1,0
238,101,89801,6,0,B|195:160|109:160,1,130,2|8
152,211,90493,2,0,B|220:211|267:156,1,130,2|0
304,201,91185,2,0,B|293:233|313:262,1,65,8|0
362,231,91647,2,0,B|406:220|438:255|420:301|369:303,1,130,2|8
329,333,92339,1,0
271,319,92570,2,0,B|236:327|209:306,1,65,2|0
196,249,93032,2,0,B|168:229|131:234,1,65,8|0
151,177,93493,6,0,B|129:111|178:44,1,130,4|8
226,32,94185,2,0,B|299:23|356:76,1,130,2|2
370,125,94878,1,8
322,159,95109,2,0,B|276:212|322:227|269:281,1,130,4|2
174,214,96032,2,0,B|117:252|42:232,1,130,2|2
65,177,96724,2,0,B|44:149|51:114,1,65,8|0
77,63,97185,5,4
130,38,97416,1,0
184,58,97647,1,8
189,116,97878,2,0,B|266:177|380:153,1,195,2|8
284,230,99032,6,0,B|188:268|79:226,1,195,2|2
135,121,100185,2,0,B|148:91|131:59,2,65,0|2|0
190,103,100878,6,0,B|238:148|326:127,1,130,4|8
364,156,101570,1,0
378,212,101801,2,0,B|398:282|347:345,1,130,2|8
262,262,102724,6,0,L|173:244|173:244|174:236|174:236|79:218,1,195,2|2
99,102,103878,2,0,B|83:75|83:75|47:75,2,65,0|2|0
156,103,104570,6,0,B|197:93|207:47,1,65,4|0
223,116,105032,2,0,B|239:146|218:178,1,65,8|0
275,166,105493,2,0,B|341:161|341:201|421:192,1,130,2|8
320,279,106416,6,0,B|358:339,2,65,2|0|0
261,277,107109,2,0,B|223:337,2,65,2|0|0
293,228,107801,1,2
293,228,108032,1,0
293,228,108262,6,0,B|261:164|295:99,1,130,2|8
260,53,108955,1,0
201,59,109185,2,0,B|170:74|137:58,1,65,2|0
150,115,109647,2,0,B|126:139|85:135,1,65,8|0
113,189,110109,5,4
166,292,110570,1,4
274,247,111032,1,4
227,140,111493,1,4
321,64,111955,6,0,B|384:51|387:94|468:75,2,130,2|2|2
279,105,113109,1,0
289,162,113339,2,0,B|298:196|273:221,1,65,2|0
256,192,113801,12,0,117493
