osu file format v9

[General]
AudioFilename: ADX33NL.OGG
AudioLeadIn: 1000
PreviewTime: 62579
Countdown: 0
SampleSet: Soft
StackLeniency: 0.6
Mode: 0
LetterboxInBreaks: 1

[Editor]
Bookmarks: 1195,17810,32579,47348,62579,63964,78733,93502
DistanceSpacing: 1
BeatDivisor: 4
GridSize: 8

[Metadata]
Title:ribbon
Artist:Ayane
Creator:impossiblexu
Version:Hard
Source:Memories Off After Rain
Tags:KID Cyberfront Yue Imasaka Shirakawa Hotaru

[Difficulty]
HPDrainRate:6
CircleSize:4
OverallDifficulty:6
ApproachRate:7
SliderMultiplier:1.7
SliderTickRate:2

[Events]
//Background and Video events
0,0,"BG1.jpg"
Video,0,"op 03.avi"
//Break Periods
//Storyboard Layer 0 (Background)
//Storyboard Layer 1 (Fail)
//Storyboard Layer 2 (Pass)
//Storyboard Layer 3 (Foreground)
//Storyboard Sound Samples
//Background Colour Transformations
3,100,163,162,255

[TimingPoints]
1186,461.538461538462,4,2,0,50,1,0
15826,-100,4,2,0,25,0,0
17673,-100,4,2,0,50,0,0
63942,-100,4,2,0,50,0,1
78666,-100,4,2,0,50,0,0
78724,-100,4,2,0,50,0,1
95109,-100,4,2,0,50,0,0
111826,-100,4,2,0,25,0,0
113788,-100,4,2,0,0,0,0

[Colours]
Combo1 : 255,255,255
Combo2 : 226,82,175
Combo3 : 60,218,34
Combo4 : 236,139,21
Combo5 : 148,94,202

[HitObjects]
92,37,1186,2,0,B|31:105|67:199,1,170,4|8
108,269,1878,1,0
192,280,2109,2,0,B|226:314|273:303,2,85,2|0|8
323,172,3032,6,0,B|311:118|360:114|344:42,1,127.5,2|0
257,141,3724,2,0,B|270:197|221:201|235:274,1,127.5,2|0
194,156,4416,2,0,B|152:138|156:85,1,85,2|0
95,26,4878,6,0,B|15:71|24:172,1,170,4|8
43,251,5570,1,0
125,271,5801,2,0,B|127:320|173:343,1,85,2|0
221,274,6262,2,0,B|255:307|305:299,1,85,8|0
279,216,6724,6,0,L|285:160|285:160|292:162|292:162|299:96,1,127.5,2|0
184,41,7416,2,0,L|178:97|178:97|171:95|171:95|164:158,1,127.5,2|0
36,164,8109,2,0,B|13:205|34:247,1,85,2|0
108,204,8570,6,0,B|189:234|189:173|274:204,1,170,4|8
351,238,9262,1,0
423,194,9493,2,0,B|432:148|484:138,2,85,2|0|8
374,123,10185,1,0
293,139,10416,6,0,B|249:182|168:171,1,127.5,2|0
271,88,11109,2,0,B|221:124|145:108,1,127.5,2|0
230,40,11801,2,0,B|194:60|146:47,1,85,2|0
62,53,12262,5,2
62,53,12493,1,0
29,131,12724,1,8
29,131,12955,1,0
68,206,13185,2,0,B|100:235|149:223,1,85,2|0
125,141,13647,2,0,B|173:131|206:168,1,85,8|0
247,238,14109,6,0,B|247:322,1,85,4|0
321,281,14570,2,0,B|389:334,1,85,4|0
395,248,15032,2,0,B|492:248,1,85,4|0
439,173,15493,2,0,B|511:106,1,85,4|0
454,43,15955,5,2
345,21,16185,1,0
273,105,16416,1,2
342,190,16647,1,0
342,190,16762,2,0,B|337:233|289:248,2,85,2|2|0
395,204,17339,2,0,B|411:246|465:251,1,85,2|0
432,331,17801,5,4
351,357,18032,1,0
280,309,18262,1,8
300,226,18493,2,0,B|301:204|316:189,2,42.5,0|0|2
236,168,18955,1,0
168,219,19186,1,8
175,303,19416,6,0,B|80:318|17:247,1,170,2|0
77,187,20109,2,0,L|120:128|120:128|109:120|109:120|158:46,1,170,8|2
236,26,20801,1,0
292,90,21032,1,8
236,156,21262,6,0,B|217:244|289:322,1,170,2|0
364,331,21955,1,8
439,291,22186,2,0,B|445:204|393:216|403:122,1,170,2|0
348,62,22878,1,8
269,93,23109,1,0
274,178,23339,6,0,B|213:236|107:225,1,170,2|8
35,197,24032,1,0
35,197,24147,1,8
35,197,24262,2,0,B|46:153|10:118,1,85,2|0
117,43,24724,2,0,B|84:71|96:122,1,85,8|0
197,100,25186,6,0,B|229:100|245:114|235:136|201:148,1,85,4|0
154,213,25647,1,8
211,275,25878,1,0
288,239,26109,2,0,B|328:267|374:252,2,85,2|0|8
346,177,26801,6,0,B|285:112|315:16,1,170,2|0
233,44,27493,2,0,B|190:122|80:117,1,170,8|2
49,192,28186,2,0,B|27:194|8:182,2,42.5,0|0|8
45,277,28647,2,0,B|82:309|134:294,1,85,2|0
197,252,29109,6,0,B|212:272|235:278,2,42.5,0|0|8
239,178,29570,2,0,B|251:136|223:134|237:91,1,85,2|0
299,37,30032,1,0
379,63,30262,1,8
407,143,30493,1,0
355,210,30724,6,0,B|303:289|199:278,1,170,4|4
33,214,31647,1,2
63,116,31878,1,2
162,67,32109,1,8
277,92,32339,1,0
329,208,32570,6,0,B|259:252|314:293|226:340,1,170,4|8
144,333,33262,1,0
90,267,33493,1,2
133,193,33724,2,0,B|116:177|112:151,2,42.5,0|0|8
217,207,34186,6,0,B|313:191|346:94,1,170,2|0
426,93,34878,1,8
469,165,35109,1,0
427,238,35339,2,0,B|388:263|391:314,2,85,2|0|8
341,230,36032,1,0
288,296,36262,6,0,B|216:343|109:315,1,170,2|8
75,248,36955,1,0
75,248,37070,1,8
75,248,37186,2,0,B|101:205|81:159,2,85,2|0|8
157,228,37878,6,0,B|223:184|252:239|330:190,1,170,2|0
370,127,38570,2,0,B|332:103|337:52,1,85,8|0
266,102,39032,2,0,B|245:61|267:19,2,85,2|0|8
180,101,39724,1,0
126,167,39955,6,0,B|90:196|93:242,1,85,2|0
176,225,40416,2,0,B|154:293|204:351,1,127.5,8|0
230,315,40878,2,0,B|276:304|271:340|326:323,1,85,2|0
391,295,41339,1,8
444,228,41570,6,0,L|393:167|393:167|401:161|401:161|349:89,1,170,2|0
282,46,42262,1,8
208,89,42493,2,0,L|132:88|132:88|132:98|132:98|47:98,1,170,2|0
10,175,43186,1,8
61,242,43416,6,0,B|96:321|207:329,1,170,2|0
282,331,44109,1,8
341,270,44339,2,0,B|306:184|346:95,1,170,2|0
274,52,45032,1,8
202,97,45262,2,0,B|168:125|115:114,1,85,2|0
48,159,45724,6,0,B|74:234|18:247|66:323,1,170,2|0
152,344,46416,1,2
256,328,46647,1,2
136,304,46878,1,8
280,288,47109,1,0
120,264,47339,6,0,B|153:229|138:177,1,85,4|0
138,99,47801,1,8
214,61,48032,2,0,B|217:37|234:16,2,42.5,0|0|2
288,102,48493,1,0
370,80,48724,1,8
346,161,48955,6,0,B|425:173|412:218|504:241,1,170,2|0
419,278,49647,2,0,B|387:306|396:356,1,85,8|0
330,300,50109,1,2
330,300,50224,1,8
330,300,50339,1,0
258,254,50570,2,0,B|224:284|174:273,1,85,8|0
202,191,51032,5,2
134,140,51262,1,0
179,68,51493,1,8
248,116,51724,2,0,B|431:90,1,170,2|0
478,150,52416,1,8
410,202,52647,6,0,B|480:361,1,170,2|0
398,327,53339,2,0,B|406:356|426:367,2,42.5,8|0|0
319,294,53801,2,0,B|274:288|238:321,1,85,2|0
150,263,54262,2,0,B|196:279|229:245,1,85,8|0
175,178,54724,6,0,B|153:141|176:136|155:94,1,85,2|0
209,29,55186,2,0,B|261:60|334:35,1,127.5,8|0
370,54,55647,2,0,B|366:93|398:89|392:134,1,85,2|0
475,149,56109,1,8
463,232,56339,6,0,B|380:244|414:304|313:314,1,170,2|0
241,297,57032,1,8
206,219,57262,1,0
206,219,57378,1,8
206,219,57493,2,0,B|152:151,1,85,2|0
100,219,57955,2,0,B|32:273,1,85,8|0
34,186,58416,6,0,B|20:142|55:102,1,85,2|0
93,180,58878,2,0,B|92:135|131:105,1,85,4|0
156,187,59339,2,0,B|162:142|212:121,1,85,2|0
294,128,59801,1,4
351,190,60032,6,2,B|284:247|330:291|242:351,1,170,2|8
228,256,60724,2,2,B|158:316|55:294,1,170,4|2
28,221,61416,1,0
28,221,61532,1,8
28,221,61647,1,2
42,137,61878,1,8
114,91,62109,1,4
285,305,62801,5,8
210,223,63032,1,2
210,223,63147,1,8
281,138,63378,2,0,B|261:78|302:78|283:14,1,127.5,2|8
180,40,63955,5,4
56,156,64416,2,0,B|101:170|85:189|128:202,1,85,8|0
154,281,64878,1,2
154,281,64993,2,0,B|189:316|236:307,1,85,8|2
305,265,65455,1,0
305,265,65570,1,8
277,184,65801,6,0,B|254:97|324:20,1,170,2|8
403,28,66493,1,0
471,78,66724,1,2
471,78,66839,2,0,B|452:120|484:161,1,85,8|2
428,225,67301,1,0
428,225,67416,1,8
343,238,67647,6,0,B|316:271|264:263,2,85,2|0|8
285,175,68339,1,0
285,175,68455,1,8
285,175,68570,1,2
200,180,68801,1,0
163,256,69032,1,8
200,331,69262,6,0,B|121:376|25:337,1,170,2|0
14,258,69955,1,8
76,200,70186,2,0,B|73:172|83:144,2,42.5,0|0|2
159,182,70647,2,0,B|202:189|188:209|236:225,2,85,0|8|0
222,85,71339,6,0,B|299:45|402:77,1,170,4|8
320,127,72032,2,0,B|423:124|484:194,1,170,2|0
483,268,72724,1,8
411,313,72955,6,0,L|370:354|309:353|266:309,1,170,2|0
217,252,73647,1,8
252,174,73878,2,0,B|271:131|251:92,1,85,0|2
175,130,74339,1,0
175,130,74455,1,0
175,130,74570,1,8
92,110,74801,1,0
49,183,75032,6,0,B|19:216|32:264,1,85,2|0
96,316,75493,1,8
178,296,75724,2,0,B|253:276|262:323|353:303,1,170,2|0
413,254,76416,1,8
371,180,76647,6,0,L|342:108|342:108|355:103|355:103|319:11,2,170,2|2|8
320,248,77801,1,2
320,248,77916,2,0,B|275:261|240:236,2,85,8|2|0
320,248,78493,1,8
260,163,78724,6,0,B|231:74|120:56,1,170,4|8
60,98,79416,1,0
96,174,79647,1,2
96,174,79762,1,8
100,258,79993,1,2
178,290,80224,1,0
178,290,80339,1,8
236,227,80570,6,0,B|271:258|320:246,2,85,2|0|8
296,166,81262,1,0
378,185,81493,1,2
378,185,81609,2,0,B|371:230|403:267,1,85,8|2
316,278,82070,1,0
316,278,82185,2,0,B|289:308|236:301,1,85,8|2
156,327,82647,5,0
81,286,82878,1,8
163,264,83109,1,0
87,225,83339,2,0,B|67:185|91:139,2,85,2|0|8
161,183,84032,6,0,B|243:159|244:212|344:184,1,170,2|0
289,112,84724,2,0,B|302:67|353:49,1,85,8|0
429,41,85185,1,2
429,41,85301,1,8
429,41,85416,1,0
499,88,85647,2,0,B|481:125|505:133|481:169,1,85,8|0
372,163,86109,6,0,B|318:234|341:330,1,170,4|8
269,276,86801,2,0,B|207:334|108:325,1,170,2|0
49,268,87493,1,8
57,184,87724,6,0,B|83:149|67:101,1,85,2|0
147,72,88185,1,0
219,116,88416,1,8
208,201,88647,2,0,B|283:245|383:219,1,170,2|0
435,162,89339,1,8
435,162,89455,1,0
435,162,89570,1,0
388,100,89801,6,0,B|363:64|380:16,2,85,2|0|8
303,93,90493,2,0,B|228:139|131:115,1,170,2|0
64,158,91185,1,8
64,158,91301,1,0
64,158,91416,1,0
97,245,91647,6,0,B|50:321,1,85,2|0
144,301,92109,2,0,B|195:221,1,85,8|0
264,148,92570,1,2
264,258,92801,1,2
328,147,93032,1,8
200,145,93262,1,0
263,34,93493,6,0,B|299:60|348:50,2,85,4|0|8
177,34,94185,2,0,B|90:69|71:168,1,170,2|0
60,199,94762,1,0
65,241,94878,1,8
149,233,95109,6,0,B|231:218|233:263|326:249,1,170,4|0
400,238,95801,1,8
376,156,96032,2,0,L|295:179|204:158,1,170,2|0
141,208,96724,1,8
141,208,96839,1,0
141,208,96955,1,0
189,277,97185,6,0,B|182:324|225:349,1,85,4|0
272,278,97647,1,8
347,238,97878,2,0,B|386:166|434:195|479:118,1,170,2|0
394,93,98570,2,0,B|402:71|425:56,2,42.5,8|0|0
308,90,99032,6,0,B|247:68|246:109|176:85,1,127.5,2|8
274,175,99724,2,0,B|335:197|336:156|406:180,1,127.5,2|8
309,268,100416,1,2
309,268,100647,1,8
248,327,100878,6,0,B|151:336|90:259,1,170,4|8
73,184,101570,1,0
121,113,101801,2,0,B|101:97|99:68,2,42.5,2|0|0
195,72,102262,2,0,B|237:67|237:87|287:80,1,85,8|0
248,160,102724,6,0,L|227:221|227:221|248:279,1,127.5,2|8
183,160,103416,2,0,L|162:221|162:221|183:279,1,127.5,2|8
89,193,104109,2,0,L|59:225|59:225|89:254,1,85,2|8
26,306,104570,6,0,B|45:350|94:348,1,85,4|0
162,297,105032,2,0,B|243:278|246:332|334:313,1,170,8|2
397,269,105724,1,0
397,269,105839,1,0
397,269,105955,1,8
373,187,106185,1,0
288,179,106416,6,0,B|263:142|279:91,1,85,2|0
277,97,106762,1,8
187,188,107109,2,0,B|162:227|176:272,1,85,2|0
175,270,107455,1,8
87,176,107801,2,0,L|45:169|45:169|48:163|48:163|0:156,1,85,2|8
30,74,108262,5,2
105,34,108493,1,0
175,81,108724,2,0,B|206:119|266:107,1,85,8|0
333,87,109185,2,0,B|333:173,1,85,2|2
401,121,109647,2,0,B|401:31,1,85,8|0
488,88,110109,5,4
488,88,110339,1,0
488,190,110570,1,4
488,190,110801,1,0
385,249,111032,2,0,B|368:289|385:332,1,85,4|0
297,251,111493,2,0,B|314:291|297:334,1,85,4|0
184,294,111955,5,2
100,275,112185,1,0
72,195,112416,2,0,B|87:152|60:109,1,85,2|0
104,106,112762,2,0,B|139:87|119:66|158:44,1,85,2|2
243,33,113224,1,0
243,33,113339,2,0,B|264:74|242:119,1,85,2|0
256,192,113801,8,0,117493
