osu file format v9

[General]
AudioFilename: ADX33NL.OGG
AudioLeadIn: 1000
PreviewTime: 62579
Countdown: 0
SampleSet: Soft
StackLeniency: 0.6
Mode: 0
LetterboxInBreaks: 1

[Editor]
Bookmarks: 1195,17810,32579,47348,62579,63964,78733,93502
DistanceSpacing: 0.9
BeatDivisor: 2
GridSize: 8

[Metadata]
Title:ribbon
Artist:Ayane
Creator:impossiblexu
Version:Easy
Source:Memories Off After Rain
Tags:KID Cyberfront Yue Imasaka Shirakawa Hotaru

[Difficulty]
HPDrainRate:2
CircleSize:3
OverallDifficulty:2
ApproachRate:3
SliderMultiplier:0.88
SliderTickRate:1

[Events]
//Background and Video events
0,0,"BG3.jpg"
Video,0,"op 03.avi"
//Break Periods
//Storyboard Layer 0 (Background)
//Storyboard Layer 1 (Fail)
//Storyboard Layer 2 (Pass)
//Storyboard Layer 3 (Foreground)
//Storyboard Sound Samples
//Background Colour Transformations
3,100,163,162,255

[TimingPoints]
1186,461.538461538462,4,2,0,50,1,0
15839,-100,4,2,0,25,0,0
17686,-100,4,2,0,50,0,0
63955,-100,4,2,0,50,0,1
78666,-100,4,2,0,50,0,0
78724,-100,4,2,0,50,0,1
95109,-100,4,2,0,50,0,0
111839,-100,4,2,0,25,0,0
113916,-100,4,2,0,0,0,0

[Colours]
Combo1 : 255,255,255
Combo2 : 226,82,175
Combo3 : 60,218,34
Combo4 : 236,139,21
Combo5 : 148,94,202

[HitObjects]
131,67,1186,2,0,B|66:133|90:236,1,176,4|8
135,293,2570,1,0
210,270,3032,2,0,B|276:297|357:264,2,132,2|2|2
159,208,4878,6,0,B|195:172|182:124,1,88,4|0
264,144,5801,2,0,B|277:101|332:94,1,88,8|0
338,179,6724,2,0,L|378:229|378:229|373:234|373:234|416:282,2,132,2|2|2
287,241,8570,6,0,B|262:278|207:269,1,88,4|0
132,249,9493,1,8
121,170,9955,1,0
175,112,10416,2,0,B|233:138|249:99|317:129,2,132,2|2|2
107,69,12262,6,0,B|52:79|40:129,1,88,2|0
101,174,13185,2,0,B|75:211|96:260,1,88,8|0
164,219,14109,5,4
232,258,14570,1,4
311,258,15032,1,4
379,218,15493,1,4
366,139,15955,6,0,B|389:48|492:20,2,176,2|2|4
300,94,18262,5,0
223,114,18724,2,0,B|192:151|131:137,1,88,8|0
174,211,19647,2,0,B|257:240|223:291|310:325,1,176,2|8
381,343,21032,1,0
433,283,21493,5,2
387,219,21955,2,0,B|360:184|377:134,1,88,0|8
334,68,22878,1,0
256,81,23339,2,0,B|191:132|157:87|88:141,1,176,2|8
65,212,24724,1,0
119,269,25185,6,0,B|161:290|163:341,1,88,4|0
222,287,26109,2,0,B|229:334|286:342,1,88,8|0
303,265,27032,2,0,B|352:189|384:234|448:149,1,176,2|8
423,81,28416,1,0
346,61,28878,6,0,B|270:114|172:97,1,176,2|8
111,140,30262,1,0
148,209,30724,2,0,L|143:243|143:243|152:244|152:244|146:288,1,88,4|4
224,274,31647,2,0,B|246:318|309:313,1,88,8|0
293,234,32570,6,0,B|264:148|331:55,1,176,4|8
251,32,33955,1,0
188,81,34416,2,0,B|129:146|24:136,1,176,2|8
47,213,35801,1,0
113,255,36262,6,0,B|95:297|109:341,1,88,2|0
188,340,37186,2,0,B|174:296|192:254,1,88,8|0
259,295,38109,2,0,B|305:216|262:126,1,176,2|8
323,76,39493,1,0
392,114,39955,6,0,B|429:140|476:123,1,88,2|0
433,195,40878,2,0,B|354:241|401:286|304:336,1,176,8|2
264,271,42262,2,0,B|186:316|77:291,1,176,0|0
72,217,43647,6,0,B|50:176|72:131,1,88,2|0
142,166,44570,2,0,B|167:129|218:127,1,88,8|0
223,206,45493,2,0,B|313:205|303:261|401:262,1,176,2|8
465,251,46878,1,0
477,172,47339,6,0,B|454:132|479:84,2,88,4|0|8
405,138,48724,2,0,B|326:189|224:157,1,176,2|0
165,196,50109,2,0,B|121:217|110:267,1,88,8|0
34,241,51032,5,2
21,162,51493,2,0,B|102:118|120:19,1,176
184,68,52878,2,0,B|257:124|369:108,1,176,2|8
411,160,54262,1,0
358,219,54724,6,0,B|333:260|354:302,1,88,2|0
275,297,55647,2,0,B|299:254|276:212,1,88,8|0
211,257,56570,2,0,B|125:286|30:259,2,176,2|8|2
169,189,58878,5,0
229,137,59339,2,0,B|271:188|356:183,2,132,8|2|8
299,99,61186,2,0,B|311:57|282:56|297:13,2,88,2|8|4
429,188,63032,6,0,B|408:229|424:273,2,88,2|8|4
374,131,64416,1,8
300,160,64878,2,0,B|259:179|211:159,2,88,2|8|2
336,230,66262,1,8
269,273,66724,2,0,B|247:316|189:317,1,88,2|8
192,237,67647,5,2
114,254,68109,1,8
49,208,68570,2,0,B|70:139|29:142|53:61,2,132,2|2|8
118,169,70416,2,0,B|157:189|204:172,1,88,2|8
168,101,71339,6,0,B|251:82|258:123|354:107,1,176,4|2
412,145,72724,1,8
375,215,73186,2,0,B|352:257|375:306,3,88,2|8|2|8
295,280,75032,6,0,B|242:322|151:301,2,132,2|2|8
232,230,76878,1,2
180,169,77339,1,8
229,107,77801,2,0,B|263:75|257:22,2,88,2|8|4
307,118,79186,5,8
308,195,79647,2,0,B|295:243|330:275,2,88,2|8|2
230,179,81032,1,8
191,247,81493,2,0,B|159:282|110:275,1,88,2|8
49,225,82416,5,2
48,145,82878,1,8
125,127,83339,2,0,B|175:120|192:68,1,88,2|8
251,124,84262,2,0,B|351:110|427:177,1,176,2|2
404,247,85647,1,8
327,267,86109,6,0,B|282:277|265:327,1,88,4|8
219,260,87032,2,0,B|170:269|136:235,1,88,2|8
196,183,87955,2,0,B|194:87|298:34,1,176,2|2
362,49,89339,1,8
410,114,89801,6,0,L|446:172|446:172|429:244,2,132,2|2|8
368,181,91647,1,2
307,231,92109,1,8
231,208,92570,1,2
213,130,93032,1,8
262,69,93493,6,0,B|232:35|170:34,1,88,4|8
113,72,94416,2,0,B|119:137|68:132|80:209,2,132,2|4|8
37,94,96262,1,2
14,170,96724,1,8
41,244,97186,6,0,L|104:260|104:260|106:250|106:250|185:269,2,132,4|2|8
88,180,99032,2,0,B|94:94|196:97,2,132,2|2|2
167,178,100878,6,0,B|188:221|244:225,1,88,4|8
316,230,101801,1,2
359,163,102262,1,8
308,102,102724,2,0,L|239:103|239:103|181:58,2,132,2|2|2
384,82,104570,6,0,B|426:57|470:85,1,88,4|8
425,150,105493,2,0,B|401:187|423:234,1,88,2|8
344,224,106416,2,0,B|282:231|287:276|209:282,2,132,2|2|2
292,163,108262,6,0,B|292:74,1,88,2|8
225,118,109186,2,0,B|224:206,1,88,2|8
148,180,110109,1,4
79,219,110570,1,4
108,292,111032,1,4
176,253,111493,1,4
236,303,111955,6,0,B|316:349|421:322,2,176,2|2|2
256,192,114032,8,0,117493
