osu file format v9

[General]
AudioFilename: Ayane - Shinjitsu he no Requiem.mp3
AudioLeadIn: 0
PreviewTime: 61230
Countdown: 0
SampleSet: Soft
StackLeniency: 0.4
Mode: 0
LetterboxInBreaks: 0

[Editor]
Bookmarks: 13361,26844,33417,61910,72686,85832,99614,110401
DistanceSpacing: 1.1
BeatDivisor: 4
GridSize: 8

[Metadata]
Title:Shinjitsu he no Requiem
Artist:Ayane
Creator:poisonchan
Version:Fleeting Life
Source:11eyes
Tags:MathiasXII Charles445 Mafiamaster Roddie

[Difficulty]
HPDrainRate:7
CircleSize:4
OverallDifficulty:8
ApproachRate:8
SliderMultiplier:1.6
SliderTickRate:1

[Events]
//Background and Video events
0,0,"9e9ccad09141cea810dd3d643aadb48b65ea66c2.jpg"
//Break Periods
//Storyboard Layer 0 (Background)
//Storyboard Layer 1 (Fail)
//Storyboard Layer 2 (Pass)
//Storyboard Layer 3 (Foreground)
//Storyboard Sound Samples
//Background Colour Transformations
3,100,163,162,255

[TimingPoints]
1615,387.096774193548,4,2,1,70,1,0
2409,400,4,2,1,70,1,0
7089,-133.333333333333,4,2,1,60,0,0
9809,-133.333333333333,4,2,1,5,0,0
10599,-133.333333333333,4,2,1,50,0,0
13365,337.078651685393,4,2,1,70,1,0
41601,-100,4,1,1,50,0,0
43027,-100,4,2,1,70,0,0
52977,-100,4,1,1,50,0,0
53814,-100,4,2,1,70,0,0
61910,-100,4,2,1,90,0,0
66545,-100,4,1,1,50,0,0
67297,-100,4,2,1,90,0,0
71938,-100,4,1,1,50,0,0
72690,-100,4,2,1,90,0,0
88824,337.078651685393,4,2,1,80,1,0
98519,-100,4,1,1,60,0,0
99610,-100,4,2,1,80,0,0
108968,-100,4,1,1,70,0,0
110401,-100,4,2,1,5,0,0

[Colours]
Combo1 : 255,150,0
Combo2 : 5,240,5
Combo3 : 5,5,240
Combo4 : 240,5,5
Combo5 : 255,0,128

[HitObjects]
216,168,1615,2,0,B|216:256,1,80
296,168,2002,2,0,B|296:256,1,80
296,328,2409,6,0,B|376:328|376:240|376:240|376:136,1,240,2|0
136,136,3209,2,0,B|136:240|136:240|136:328|216:328,1,240
256,256,4009,1,2
168,72,4409,5,0
304,168,4809,1,0
344,72,5209,1,0
208,168,5609,1,2
256,16,6009,1,0
256,96,6209,2,0,B|256:256,2,160
128,136,7209,6,0,B|168:24|256:-8|344:24|384:136,1,359.999989271164,2|0
128,248,8809,2,0,B|168:360|256:392|344:360|384:248,1,359.999989271164,2|0
256,192,10609,12,0,13009
136,288,13365,5,4
184,224,13533,1,0
256,192,13702,1,8
328,224,13870,1,0
376,288,14039,1,0
408,312,14123,1,0
440,336,14207,1,0
504,288,14376,1,8
472,216,14544,1,0
376,288,14713,5,0
328,224,14881,1,0
256,192,15050,1,8
184,224,15218,1,0
136,288,15387,1,0
104,312,15471,1,0
72,336,15556,1,0
8,288,15724,1,8
40,216,15893,1,0
176,64,16061,6,0,B|112:112,1,80
336,64,16398,2,0,B|400:112,1,80,8|0
256,192,16735,2,0,B|248:208|264:216|256:232,2,40
200,136,17072,1,8
256,80,17241,1,0
312,136,17409,6,0,B|352:224,1,80
200,136,17747,2,0,B|160:224,1,80,8|0
136,280,18084,1,0
152,320,18168,1,0
192,328,18252,1,0
256,376,18421,1,8
320,328,18589,1,0
360,320,18673,1,0
376,280,18758,6,0,B|344:256|344:256|328:216,1,80,4|0
136,280,19095,2,0,B|168:256|168:256|184:216,1,80,8|0
256,272,19432,2,0,B|256:216,2,40
320,328,19769,1,8
256,376,19938,1,0
192,328,20106,6,0,B|128:376,1,80
320,328,20443,2,0,B|384:376,1,80,8|0
256,272,20780,2,0,B|256:320,2,40
256,192,21117,1,8
256,112,21286,1,0
184,80,21454,5,0
320,152,21623,1,0
192,152,21791,1,8
328,80,21960,1,0
256,112,22129,2,0,B|248:96|264:88|256:72,2,40
256,192,22466,1,8
256,272,22634,1,0
360,296,22803,5,0
216,344,22971,1,0
296,344,23140,1,8
152,296,23308,1,0
136,136,23477,1,0
152,176,23561,1,0
168,216,23645,1,0
296,280,23814,1,8
216,280,23982,1,0
376,136,24151,1,2
360,176,24236,1,0
344,216,24320,1,0
192,296,24488,5,8
320,296,24657,1,0
88,344,24825,1,2
128,360,24910,1,0
168,376,24994,1,0
424,344,25162,1,8
384,360,25246,1,0
344,376,25331,1,0
256,384,25499,5,2
256,352,25836,1,2
256,320,26173,1,0
256,312,26258,1,0
256,304,26342,1,0
256,296,26426,1,0
256,288,26511,1,0
256,208,26679,1,0
256,128,26848,6,0,B|176:128,1,80,4|0
216,56,27185,2,0,B|136:56,1,80,8|0
256,128,27522,1,0
296,120,27606,1,0
336,128,27690,1,0
256,128,27859,1,8
256,208,28027,1,0
256,288,28196,6,0,B|336:288,1,80
296,360,28533,2,0,B|376:360,1,80,8|0
256,288,28870,1,0
216,296,28954,1,0
176,288,29039,1,0
216,360,29207,5,8
136,216,29376,1,0
176,288,29544,2,0,B|129:312|113:344|113:344|89:344|81:320|81:320|49:336|49:336,2,160,0|8|0
216,296,30303,1,0
256,288,30387,1,0
296,360,30556,1,8
376,216,30724,1,0
336,288,30893,2,0,B|383:312|399:344|399:344|423:344|431:320|431:320|463:336|463:336,1,160,0|8
496,264,31398,1,0
472,192,31567,5,0
456,152,31651,1,0
472,112,31735,1,0
360,152,31904,1,8
248,192,32072,1,0
264,152,32157,1,0
248,112,32241,6,0,B|168:112,1,80,4|0
200,40,32578,2,0,B|120:40,1,80,8|0
40,40,32915,1,0
24,80,32999,1,0
40,120,33084,1,0
112,80,33252,2,0,B|192:80,1,80,8|0
152,152,33589,6,0,B|232:152,2,80,0|0|8
112,224,34095,1,0
72,296,34263,1,0
112,312,34348,1,0
152,296,34432,1,0
192,224,34600,5,8
256,176,34769,1,0
320,224,34938,1,0
256,80,35275,1,8
192,224,35612,1,0
200,264,35696,1,0
208,304,35780,1,0
320,224,35949,1,8
192,224,36117,5,0
304,304,36286,2,0,B|376:368|448:304,1,160,0|8
376,264,36791,1,0
432,208,36960,1,0
464,232,37044,1,0
496,256,37129,1,0
488,152,37297,1,8
432,96,37466,1,0
464,72,37550,1,0
496,48,37634,1,4
376,152,37971,5,2
336,80,38140,1,0
256,80,38308,1,2
216,152,38477,1,0
336,224,38645,1,2
256,80,38814,1,0
176,80,38982,5,2
336,80,39320,1,2
216,152,39657,1,2
256,80,39825,1,0
296,152,39994,1,2
256,224,40162,1,0
136,152,40331,5,6
176,224,40499,1,0
256,224,40668,1,2
296,152,40836,1,0
176,80,41005,1,2
256,224,41173,1,0
336,224,41342,1,2
376,152,41511,1,0
336,80,41679,6,0,B|328:32,3,40,0|0|0|0
296,152,42016,2,0,B|288:104,3,40
216,152,42353,2,0,B|224:104,3,40
176,80,42690,2,0,B|184:32,3,40,0|0|0|0
152,16,43027,5,4
360,16,43364,1,0
120,192,43702,1,8
392,192,44039,2,0,B|408:288,1,80,0|8
120,192,44376,2,0,B|104:288,1,80,0|8
256,152,44713,2,0,B|256:240,1,80
256,272,44966,1,0
256,312,45050,1,8
256,312,45387,1,0
256,152,45724,5,0
128,64,46061,1,0
96,136,46230,1,0
128,208,46398,2,0,B|168:224|168:224|208:224,1,80,8|0
384,64,46735,2,0,B|344:48|344:48|304:48,1,80,0|8
307,224,47072,2,0,B|344:224|344:224|384:208,1,80,0|8
204,48,47409,2,0,B|168:48|168:48|128:64,1,80
104,96,47662,1,0
96,136,47747,1,8
256,112,48084,2,0,B|256:200,2,80,8|0|4
256,272,48758,5,0
256,352,48926,1,0
184,312,49095,2,0,B|152:256|152:256|152:160,1,160,8|0
328,312,49769,2,0,B|360:256|360:256|360:160,1,160
296,120,50275,1,0
256,128,50359,1,0
216,120,50443,1,8
64,72,50780,5,0
192,192,51117,2,0,B|152:264,1,80
320,192,51623,2,0,B|360:264,1,80,0|8
448,72,52129,1,0
256,56,52466,1,0
64,72,52803,1,8
128,288,53140,5,0
160,312,53224,1,0
200,328,53308,1,0
232,352,53393,1,0
256,384,53477,1,0
280,352,53561,1,0
312,328,53645,1,0
352,312,53730,1,0
384,288,53814,1,4
432,224,53982,6,0,B|512:224,2,80,0|8|0
400,152,54488,2,0,B|360:152,2,40
432,80,54825,2,0,B|512:80,1,80,8|0
344,32,55162,5,0
168,32,55331,1,0
256,48,55499,1,8
192,112,55668,1,0
224,136,55752,1,8
256,160,55836,1,0
288,136,55921,1,0
320,112,56005,1,0
384,160,56173,5,8
320,216,56342,1,0
368,280,56511,1,0
256,272,56679,1,0
256,352,56848,1,8
192,216,57016,1,0
144,280,57185,1,0
136,280,57269,1,0
128,280,57353,1,0
64,232,57522,1,8
64,152,57690,1,0
112,88,57859,5,0
256,16,58196,1,8
400,88,58533,1,0
400,128,58617,1,0
400,168,58702,1,0
472,128,58870,5,4
472,168,58954,1,0
472,208,59039,1,0
472,248,59123,1,0
472,288,59207,1,4
472,288,59713,1,4
472,288,60218,1,4
472,288,60387,1,4
112,136,61230,5,0
192,144,61398,1,0
256,96,61567,1,0
320,144,61735,1,0
400,136,61904,6,0,B|440:64,1,80,4|0
320,144,62241,2,0,B|358:213,1,80,8|0
256,96,62578,2,0,B|248:80|264:72|256:56,2,40,0|0|0
256,176,62915,1,8
256,256,63084,1,0
192,144,63252,2,0,B|153:213,1,80
112,136,63589,6,0,B|72:64,1,80,8|0
24,128,63926,1,0
8,168,64011,1,0
24,208,64095,1,0
96,248,64263,6,0,B|134:317,1,80,8|0
216,336,64600,1,0
256,352,64685,1,0
296,336,64769,1,0
416,248,64938,2,0,B|377:317,1,80,8|0
488,128,65275,1,0
504,168,65359,1,0
488,208,65443,2,0,B|408:192,1,80,0|8
328,128,65780,6,0,B|256:64|184:128,1,160,4|0
256,168,66286,2,0,B|256:256,1,80,8|0
208,312,66623,5,0
192,344,66707,1,0
160,360,66791,1,0
128,344,66876,1,0
112,312,66960,1,0
96,280,67044,1,0
64,264,67129,1,0
32,280,67213,1,0
16,312,67297,1,4
120,184,67634,6,0,B|40:184,1,80,8|0
80,112,67971,2,0,B|-8:112,2,80,0|0|8
120,40,68477,2,0,B|208:40,2,80,4|0|0
160,112,68982,2,0,B|240:112,1,80,8|0
312,144,69320,6,0,B|360:160|380:200|360:240|312:256,1,160,0|8
256,200,69825,1,0
200,144,69994,2,0,B|152:160|132:200|152:240|200:256,1,160,0|8
256,312,70499,1,0
336,312,70668,2,0,B|368:336,2,40
216,384,71005,1,8
296,384,71173,1,0
176,312,71342,2,0,B|144:336,2,40,4|0|0
296,240,71679,1,8
216,240,71848,1,0
336,168,72016,5,0
312,136,72100,1,0
320,96,72185,1,0
296,64,72269,1,0
256,56,72353,1,0
216,64,72438,1,0
192,96,72522,1,0
200,136,72606,1,0
176,168,72690,1,4
56,64,73027,6,0,B|96:72|96:72|128:112,1,80,8|0
24,192,73364,2,0,B|112:192,1,80
55,320,73702,2,0,B|96:312|96:312|120:281,1,80,8|0
192,320,74039,2,0,B|232:328|256:364|256:364|280:328|320:320,1,160,0|8
392,280,74544,1,0
464,320,74713,2,0,B|480:368,2,40
504,248,75050,1,8
408,152,75218,6,0,B|392:58|298:58,1,160,4|0
213,58,75724,2,0,B|119:58|104:152,1,160,8|0
216,264,76398,2,0,B|208:320|256:344|304:320|296:264,1,160,8|0
344,200,76904,2,0,B|296:120,1,80,0|8
256,192,77241,2,0,B|256:280,1,80
209,131,77578,2,0,B|168:200,1,80,0|8
216,56,77915,5,0
256,40,77999,1,0
296,56,78084,2,0,B|376:56,1,80,4|0
336,128,78421,2,0,B|424:128,1,80,8|0
376,200,78758,2,0,B|392:248|432:268|472:248|488:200,1,160,0|8
432,144,79263,1,0
376,200,79432,2,0,B|328:216|308:256|328:296|376:312,1,160,0|8
432,256,79938,1,0
376,200,80106,6,0,B|296:200,1,80
232,248,80443,1,8
168,296,80612,1,0
103,344,80780,6,0,B|17:304|53:212,1,160,4|8
408,344,81454,2,0,B|494:304|458:212,1,160,2|8
136,192,82129,2,0,B|96:105|176:54,1,160,2|8
376,192,82803,2,0,B|415:105|335:54,1,160,2|8
256,72,83308,5,0
304,136,83477,2,0,B|304:200|304:200|320:232|320:232|320:296,1,160,4|8
208,136,84151,2,0,B|208:200|208:200|192:232|192:232|192:296,1,160,0|8
256,344,84657,1,0
256,264,84825,2,0,B|256:208,2,40
256,184,85162,2,0,B|224:160|224:160|216:120,1,80,8|0
256,184,85499,2,0,B|288:160|288:160|296:120,1,80
256,192,85836,12,0,88364
400,32,88824,5,4
472,72,88992,1,0
472,152,89161,1,2
400,192,89329,1,0
328,152,89498,1,0
328,72,89666,1,0
400,112,89835,1,2
400,192,90003,1,0
328,152,90172,5,0
256,192,90340,1,0
256,272,90509,1,2
328,312,90677,1,0
400,272,90846,1,0
400,192,91015,1,0
328,232,91183,1,2
256,272,91352,1,0
256,192,91520,5,4
184,152,91689,1,0
184,72,91857,1,2
256,32,92026,1,0
328,72,92194,1,0
328,152,92363,1,0
256,112,92531,1,2
256,192,92700,1,0
184,232,92868,5,0
256,272,93037,1,0
328,232,93206,1,2
256,288,93374,1,0
184,248,93543,1,0
256,304,93711,1,0
328,248,93880,1,2
256,320,94048,1,0
184,264,94217,6,0,B|104:264,1,80,4|0
328,264,94554,2,0,B|408:264,1,80,2|0
88,224,94891,2,0,B|168:224,1,80,0|0
424,224,95228,2,0,B|344:224,1,80,2|0
256,224,95565,2,0,B|248:240|264:248|256:264,2,40
216,144,95902,2,0,B|136:168,2,80,2|0|0
296,144,96408,2,0,B|376:168,2,80,0|4|0
256,72,96913,5,4
216,144,97082,1,0
296,144,97250,1,2
176,216,97419,1,0
336,216,97588,1,0
216,288,97756,1,0
296,288,97925,1,2
256,216,98093,1,0
336,216,98262,5,8
176,216,98430,1,8
96,136,98599,5,0
112,104,98683,1,0
144,88,98767,1,0
184,88,98852,1,0
216,72,98936,1,0
240,40,99020,1,0
256,8,99104,1,0
272,40,99189,1,0
296,72,99273,1,0
328,88,99357,1,0
368,88,99441,1,0
400,104,99526,1,0
416,136,99610,1,4
256,136,99779,6,0,B|256:224,2,80,0|8|0
96,152,100453,6,0,B|80:192|96:232,1,80,0|8
160,272,100790,2,0,B|176:232|160:192,1,80
216,328,101127,1,0
296,328,101295,1,8
351,193,101464,2,0,B|336:232|352:272,1,80
416,230,101801,2,0,B|432:192|416:152,1,80,0|8
376,16,102307,5,4
296,16,102475,1,0
216,16,102644,1,8
136,16,102812,1,0
216,216,103149,6,0,B|192:216|176:192|192:168|216:168,1,80,0|8
296,168,103486,2,0,B|320:168|336:192|320:216|296:216,1,80
256,288,103823,1,0
256,96,103992,1,8
352,192,104161,1,0
256,288,104329,1,0
160,192,104498,1,0
256,96,104666,1,8
192,376,105003,6,0,B|120:344,1,80,4|0
176,288,105340,2,0,B|104:256,1,80,8|0
320,376,105677,2,0,B|392:344,1,80
336,288,106015,2,0,B|408:256,1,80,8|0
160,200,106352,2,0,B|88:168,1,80,0|0
352,200,106689,2,0,B|424:168,1,80,8|0
184,120,107026,1,0
256,88,107194,1,0
328,120,107363,1,8
256,264,107700,5,4
312,320,107868,1,0
256,376,108037,1,8
200,320,108206,1,0
104,192,108543,2,0,B|24:192,2,80,0|8|0
146,74,109048,6,0,B|132:112,3,40
219,64,109385,2,0,B|216:104,3,40,0|0|0|0
292,64,109722,2,0,B|296:104,3,40,0|0|0|0
365,74,110059,2,0,B|380:112,3,40
256,192,110397,12,0,114441
