osu file format v9

[General]
AudioFilename: Ayane - Shinjitsu he no Requiem.mp3
AudioLeadIn: 0
PreviewTime: 61230
Countdown: 0
SampleSet: Soft
StackLeniency: 0.4
Mode: 0
LetterboxInBreaks: 0

[Editor]
Bookmarks: 13361,26844,33417,61910,72686,85832,99614,110401
DistanceSpacing: 1
BeatDivisor: 4
GridSize: 8

[Metadata]
Title:Shinjitsu he no Requiem
Artist:Ayane
Creator:poisonchan
Version:Dark Moon
Source:11eyes
Tags:MathiasXII Charles445 Mafiamaster Roddie

[Difficulty]
HPDrainRate:2
CircleSize:3
OverallDifficulty:2
ApproachRate:2
SliderMultiplier:0.7
SliderTickRate:1

[Events]
//Background and Video events
0,0,"bg.jpg"
//Break Periods
2,13565,17198
2,89024,92657
//Storyboard Layer 0 (Background)
//Storyboard Layer 1 (Fail)
//Storyboard Layer 2 (Pass)
//Storyboard Layer 3 (Foreground)
//Storyboard Sound Samples
//Background Colour Transformations
3,100,163,162,255

[TimingPoints]
1615,387.096774193548,4,2,1,70,1,0
2409,400,4,2,1,70,1,0
13365,337.078651685393,4,2,1,70,1,0
88824,337.078651685393,4,2,1,80,1,0

[Colours]
Combo1 : 255,150,0
Combo2 : 5,240,5
Combo3 : 5,5,240
Combo4 : 240,5,5
Combo5 : 255,0,128

[HitObjects]
104,160,2409,2,0,B|160:216|128:288,2,140,2|0|2
80,96,4409,2,0,B|160:96|216:32,1,140
248,96,5609,6,0,B|264:192|336:240,1,140,2|0
168,224,7209,2,0,B|96:192|24:256,1,140,2|0
152,328,8809,2,0,B|304:328,1,140,2|0
256,192,10809,12,4,13365
256,64,18758,6,0,B|184:120,1,70,0|8
144,144,19432,2,0,B|128:216,1,70,0|8
144,280,20106,2,0,B|216:336|280:344,2,140,0|0|2
256,192,22129,6,0,B|256:112,2,70,0|8|2
376,256,23477,2,0,B|328:312,2,70,0|8|2
416,120,24825,2,0,B|344:48,2,70,0|8|2
296,192,26173,2,0,B|224:168|200:72,2,140,0|4|0
384,304,28196,5,0
256,248,28870,1,0
128,304,29544,2,0,B|32:240|80:112,1,210,2|8
128,72,30893,2,0,B|192:128|272:120,1,140,2|0
376,192,32241,5,4
256,264,32915,2,0,B|184:240|112:288,1,140,0|2
64,160,34263,1,0
176,80,34938,2,0,B|224:136|304:112,1,140,2|2
424,48,36286,2,0,B|376:88|448:136|384:184,1,140,0|2
256,216,37634,6,0,B|240:144|264:64,1,140,4|2
128,32,38982,2,0,B|128:112|48:160,1,140,2|2
72,288,40331,2,0,B|144:288|208:336,1,140,4|0
256,192,41679,12,4,43027
120,96,43702,5,8
256,136,44376,1,2
392,96,45050,1,8
456,224,45724,1,2
320,224,46398,6,0,B|304:312,2,70,8|0|2
224,120,47747,2,0,B|160:152|88:168,1,140,8|4
48,304,49095,1,8
184,296,49769,2,0,B|240:256|256:176,1,140,2|8
256,40,51117,2,0,B|184:64|144:144,2,140,2|8|2
400,40,53140,2,0,B|400:120|480:160,1,140,8|4
336,192,54488,6,0,B|400:232|432:320,1,140,2|0
288,288,55836,2,0,B|292:322|320:352,2,70,2|0|2
160,224,57185,2,0,B|176:144|256:104,1,140,0|2
296,72,58196,2,0,B|317:97|360:120,1,70,8|0
256,192,58870,12,0,60556
168,128,61230,5,0
224,168,61567,1,0
296,168,61904,2,0,B|368:152|408:72,1,140,4|0
488,192,63252,1,0
456,256,63589,6,0,B|408:312|312:312,1,140,8|8
264,288,64600,2,0,B|120:336|48:200,1,245,2|4
136,152,66286,1,8
256,72,66960,2,0,B|256:152,1,70,8|4
256,280,67971,6,0,B|344:256|384:200,2,140,0|2|0
144,192,69994,2,2,B|120:120|40:80,2,140
184,328,72016,2,0,B|264:304|296:240,1,140,8|4
320,184,73027,6,0,B|304:104|224:72,1,140,0|8
176,112,74039,2,0,B|112:200,2,105,2|0|8
240,240,75724,2,0,B|304:253|392:248,2,140,8|8|8
336,136,77747,2,0,B|392:80,1,70,8|4
256,40,78758,6,0,B|192:128|80:152,2,210,2|0|4
256,176,81454,1,0
312,304,82129,1,0
448,304,82803,2,0,B|464:216|424:160,1,140,0|4
384,112,83814,6,0,B|312:144|232:136,1,140,8|8
184,112,84825,2,0,B|104:112|40:168,1,140,2|0
256,192,85836,12,4,88824
144,112,94217,6,0,B|112:176|40:216,1,140,4|0
184,256,95565,2,0,B|248:296|320:256,1,140,2|0
456,256,96913,2,0,B|448:176|480:96,1,140,4|0
328,120,98262,2,0,B|264:80|192:120,1,140,2|0
256,192,99610,12,4,102307
176,192,102981,5,0
256,304,103655,1,2
336,192,104329,1,2
256,80,105003,1,4
120,80,105677,5,0
32,192,106352,1,2
152,272,107026,1,2
224,152,107700,1,4
320,248,108374,5,0
424,160,109048,1,2
328,56,109722,1,2
224,152,110397,1,4
