osu file format v9

[General]
AudioFilename: Romancing Story.mp3
AudioLeadIn: 0
PreviewTime: 89764
Countdown: 0
SampleSet: Soft
StackLeniency: 0.7
Mode: 0
LetterboxInBreaks: 1

[Editor]
Bookmarks: 15723,29442,46585,50013,67156,70585,84294,91156,118585,132299,149442,152871,170014,173442,180299,194009,194014,221442,242014,257442,291728
DistanceSpacing: 0.7
BeatDivisor: 4
GridSize: 8

[Metadata]
Title:Romancing Story
Artist:Ayane
Creator:azuki
Version:Normal
Source:Memories Off #5
Tags:tsunamayo taka1235 miccoliasms

[Difficulty]
HPDrainRate:3
CircleSize:4
OverallDifficulty:4
ApproachRate:5
SliderMultiplier:1.19999990463257
SliderTickRate:1

[Events]
//Background and Video events
0,0,"Romancing Story.jpg"
//Break Periods
2,15922,28236
2,46779,48808
2,67351,69379
2,118779,131093
2,149636,151665
2,170208,172236
//Storyboard Layer 0 (Background)
//Storyboard Layer 1 (Fail)
//Storyboard Layer 2 (Pass)
//Storyboard Layer 3 (Foreground)
//Storyboard Sound Samples
//Background Colour Transformations
3,100,255,255,255

[TimingPoints]
294,428.571428571429,4,2,1,70,1,0
44865,-100,4,2,1,50,0,0
45294,-100,4,2,1,70,0,0
65436,-100,4,2,1,50,0,0
65865,-100,4,2,1,70,0,0
70579,-100,4,2,1,50,0,0
70686,-100,4,2,1,70,0,0
77436,-100,4,2,1,50,0,0
77544,-100,4,2,1,70,0,0
90722,-100,4,2,1,0,0,0
91151,-100,4,2,1,70,0,1
91258,-100,4,2,1,70,0,0
147722,-100,4,2,1,50,0,0
148151,-100,4,2,1,70,0,0
168294,-100,4,2,1,50,0,0
168722,-100,4,2,1,70,0,0
173436,-100,4,2,1,50,0,0
173544,-100,4,2,1,70,0,0
180294,-100,4,2,1,50,0,0
180401,-100,4,2,1,70,0,0
193579,-100,4,2,1,0,0,0
194008,-100,4,2,1,70,0,1
194115,-100,4,2,1,70,0,0

[Colours]
Combo1 : 154,250,164
Combo2 : 255,255,255
Combo3 : 253,255,151
Combo4 : 131,219,252

[HitObjects]
312,176,2008,2,0,B|336:232|312:296,2,119.999990463257,0|2|0
248,232,3293,1,2
184,288,3722,2,0,B|128:320|64:288,1,119.999990463257,0|2
72,208,4579,2,0,B|128:176|192:208,1,119.999990463257,0|2
272,208,5436,2,0,B|209:120|279:34,2,179.999985694886,0|0|0
352,176,7151,2,0,B|415:264|345:350,2,179.999985694886,0|0|0
272,144,8865,5,0
216,80,9294,1,2
152,136,9722,1,0
96,72,10151,1,2
96,160,10579,2,0,B|208:216,1,119.999990463257,0|2
136,264,11436,2,0,B|248:320,1,119.999990463257,0|2
328,320,12293,5,0
440,256,12936,1,0
368,152,13579,1,2
296,200,14008,1,0
192,272,14651,1,0
144,208,15079,1,0
144,208,15293,1,2
200,144,15722,1,4
96,216,29436,6,0,B|72:272|96:336,2,119.999990463257,4|2|0
160,272,30722,1,2
248,272,31151,2,0,B|312:272,4,59.9999952316285,0|0|2|0|0
248,184,32436,1,2
248,96,32865,2,0,B|304:72|368:96,2,119.999990463257,0|2|0
304,160,34151,1,2
304,248,34579,2,0,B|304:336,4,59.9999952316285,0|0|2|0|0
392,248,35865,1,2
392,168,36294,6,0,B|336:144|272:168,1,119.999990463257,4|2
272,248,37151,2,0,B|216:272|152:248,1,119.999990463257,0|2
72,248,38008,2,0,B|16:168|72:80,2,179.999985694886,0|0|0
120,176,39722,6,0,B|176:152|240:176,1,119.999990463257,0|2
240,256,40579,2,0,B|296:280|360:256,1,119.999990463257,0|2
440,256,41436,2,0,B|496:176|440:88,2,179.999985694886,0|0|0
360,256,43151,5,0
328,176,43579,1,2
264,232,44008,1,0
232,152,44436,1,2
168,208,44865,1,4
256,192,45294,12,4,46579
416,216,50008,6,0,B|440:272|416:336,2,119.999990463257,4|2|0
352,272,51294,1,2
264,272,51722,2,0,B|200:272,4,59.9999952316285,0|0|2|0|0
264,184,53008,1,2
264,96,53436,2,0,B|208:72|144:96,2,119.999990463257,0|2|0
208,160,54722,1,2
208,248,55151,2,0,B|208:336,4,59.9999952316285,0|0|2|0|0
120,248,56436,1,2
120,168,56865,6,0,B|176:144|240:168,1,119.999990463257,4|2
240,248,57722,2,0,B|296:272|360:248,1,119.999990463257,0|2
440,248,58579,2,0,B|496:168|440:80,2,179.999985694886,0|0|0
392,176,60294,6,0,B|336:152|272:176,1,119.999990463257,0|2
272,256,61151,2,0,B|216:280|152:256,1,119.999990463257,0|2
72,256,62008,2,0,B|16:176|72:88,2,179.999985694886,0|0|0
152,256,63722,5,0
184,176,64151,1,2
248,232,64579,1,0
280,152,65008,1,2
344,208,65436,1,4
256,192,65865,12,4,67151
328,112,70579,6,0,B|200:64|104:176,2,239.999980926514,4|0|0
400,160,72722,1,2
432,240,73151,1,0
392,312,73579,1,2
304,312,74008,6,0,B|176:360|80:248,2,239.999980926514,0|0|0
376,264,76151,1,2
408,184,76579,1,0
368,112,77008,1,2
288,112,77436,6,0,B|232:88|168:112,3,119.999990463257,4|0|0|2
136,192,79151,2,0,B|208:176|296:288|368:256,1,239.999980926514
424,200,80436,1,2
360,144,80865,6,0,B|336:200|360:264,3,119.999990463257,0|0|0|2
424,200,82579,2,0,B|352:184|264:296|192:264,1,239.999980926514
116,264,83865,1,2
64,192,84294,1,4
64,108,84722,6,0,B|64:20,2,59.9999952316285,0|0|0
64,108,85579,1,2
64,192,86008,1,4
64,276,86436,2,0,B|64:340,2,59.9999952316285,0|0|0
64,276,87294,1,2
64,192,87722,5,4
144,104,88151,1,0
256,56,88579,1,4
368,104,89008,1,0
448,192,89436,1,4
256,192,89651,12,0,90722
424,224,91151,6,0,B|368:200|304:224,1,119.999990463257,4|8
264,272,91793,2,0,B|176:304|80:272,1,179.999985694886,0|8
88,208,92651,1,0
88,208,92865,1,0
152,208,93079,1,0
152,208,93293,1,8
152,144,93508,2,0,B|152:104,2,29.9999976158143
216,144,93936,1,8
216,144,94151,1,8
352,144,94579,6,0,B|408:120|472:144,2,119.999990463257,4|8|0
352,208,95651,1,0
352,272,95865,2,0,B|352:344,2,59.9999952316285,8|0|0
216,272,96722,5,8
216,272,96936,1,0
152,272,97151,1,0
152,272,97365,1,8
88,272,97579,1,8
88,272,97793,1,0
88,208,98008,2,0,B|64:144|88:88,1,119.999990463257,4|8
152,88,98651,2,0,B|240:56|336:88,1,179.999985694886,0|8
328,152,99508,5,0
328,152,99722,1,0
328,280,100151,5,8
328,216,100365,1,0
200,216,100793,5,8
264,216,101008,1,8
256,192,101436,12,0,103151
160,120,103579,5,2
160,120,103793,2,0,B|224:96|280:120,2,119.999990463257,0|0|0
160,184,104865,2,0,B|136:248|160:304,1,119.999990463257,4|8
224,304,105508,2,0,B|96:304,2,119.999990463257,0|0|0
224,304,106579,1,8
288,304,106793,1,0
288,304,107008,1,8
288,240,107222,2,0,B|336:240,2,29.9999976158143
288,176,107651,1,8
288,176,107865,1,8
184,96,108293,6,0,B|112:104|104:200,1,119.999990463257,4|8
112,240,108936,2,0,B|176:264|232:240,1,119.999990463257,0|0
232,176,109579,2,0,B|320:176,2,59.9999952316285,8|0|0
96,176,110436,5,8
96,176,110651,1,0
96,240,110865,1,0
96,240,111079,1,8
96,304,111293,1,8
96,304,111508,1,0
160,304,111722,2,0,B|224:328|280:304,1,119.999990463257,4|8
280,240,112365,2,0,B|216:216|160:240,1,119.999990463257,0|0
162,238,113008,1,8
256,336,113436,5,4
256,208,113865,5,8
256,272,114079,1,0
384,272,114508,5,8
320,272,114722,1,8
320,144,115151,5,4
256,144,115365,1,0
192,144,115579,1,2
72,192,116008,5,4
256,56,116436,1,2
440,192,116865,1,4
256,192,117079,12,4,118579
80,112,132293,6,0,B|144:88|200:112,1,119.999990463257,4|2
144,176,133151,1,0
144,264,133579,1,2
232,264,134008,2,0,B|352:320|464:264,2,239.999980926514
232,184,136151,1,2
320,184,136579,1,0
408,184,137008,1,2
408,104,137436,2,0,B|288:48|176:104,2,239.999980926514,0|0|4
408,192,139579,5,2
408,280,140008,2,0,B|344:304|288:280,1,119.999990463257,0|2
224,224,140865,2,0,B|160:200|104:224,3,119.999990463257,0|2|0|2
104,136,142579,5,0
192,136,143008,1,2
192,216,143436,2,0,B|168:280|192:336,1,119.999990463257,0|2
272,336,144293,2,0,B|296:272|272:216,3,119.999990463257,0|2|0|2
256,136,146008,5,0
320,192,146436,1,2
296,272,146865,1,0
216,272,147293,1,2
192,192,147722,1,4
256,192,148151,12,4,149436
432,112,152865,6,0,B|368:88|312:112,1,119.999990463257,4|2
368,176,153722,1,0
368,264,154151,1,2
280,264,154579,2,0,B|160:320|48:264,2,239.999980926514
280,184,156722,1,2
192,184,157151,1,0
104,184,157579,1,2
104,104,158008,2,0,B|224:48|336:104,2,239.999980926514,0|0|4
104,192,160151,5,2
104,280,160579,2,0,B|168:304|224:280,1,119.999990463257,0|2
288,224,161436,2,0,B|352:200|408:224,3,119.999990463257,0|2|0|2
408,136,163151,5,0
320,136,163579,1,2
320,216,164008,2,0,B|344:280|320:336,1,119.999990463257,0|2
240,336,164865,2,0,B|216:272|240:216,3,119.999990463257,0|2|0|2
256,136,166579,5,0
192,192,167008,1,2
216,272,167436,1,0
296,272,167865,1,2
320,192,168293,1,4
256,192,168722,12,4,170008
232,200,173436,6,0,B|288:224|352:200,1,119.999990463257,4|2
288,136,174293,1,0
288,48,174722,2,0,B|160:48,1,119.999990463257,2|0
168,136,175579,2,0,B|48:136,1,119.999990463257,2|0
48,136,176222,1,0
48,136,176436,1,2
48,224,176865,6,0,B|24:280|48:344,1,119.999990463257,0|2
112,280,177722,1,0
192,280,178151,2,0,B|320:280,1,119.999990463257,2|0
312,192,179008,2,0,B|440:192,1,119.999990463257,2|0
432,192,179651,1,0
432,192,179865,1,2
432,112,180294,6,0,B|344:64|256:112,2,179.999985694886,4|0|2
432,192,182008,2,0,B|360:176|272:288|200:256,1,239.999980926514
136,216,183293,1,2
80,152,183722,6,0,B|32:240|80:328,2,179.999985694886,0|0|2
136,216,185436,2,0,B|208:200|296:312|368:280,1,239.999980926514
448,280,186722,1,2
448,192,187151,1,4
448,104,187579,6,0,B|448:16,2,59.9999952316285,0|0|0
448,104,188436,1,2
448,192,188865,1,4
448,280,189293,2,0,B|448:344,2,59.9999952316285,0|0|0
448,280,190151,1,2
448,192,190579,5,4
368,104,191008,1,0
256,56,191436,1,4
144,104,191865,1,0
64,192,192293,1,4
256,192,192508,12,0,193579
424,160,194008,6,0,B|368:184|304:160,1,119.999990463257,4|8
264,112,194651,2,0,B|176:80|80:112,1,179.999985694886,0|8
88,176,195508,1,0
88,176,195722,1,0
152,176,195936,1,0
152,176,196151,1,8
152,240,196365,2,0,B|152:280,2,29.9999976158143
216,240,196793,1,8
216,240,197008,1,8
352,240,197436,6,0,B|408:264|472:240,2,119.999990463257,4|8|0
352,176,198508,1,0
352,112,198722,2,0,B|352:40,2,59.9999952316285,8|0|0
216,112,199579,5,8
216,112,199793,1,0
152,112,200008,1,0
152,112,200222,1,8
88,112,200436,1,8
88,112,200651,1,0
88,176,200865,2,0,B|64:240|88:296,1,119.999990463257,4|8
152,296,201508,2,0,B|240:328|336:296,1,179.999985694886,0|8
328,232,202365,5,0
328,232,202579,1,0
328,104,203008,5,8
328,168,203222,1,0
200,168,203651,5,8
264,168,203865,1,8
256,192,204293,12,0,206008
160,264,206436,5,2
160,264,206651,2,0,B|224:288|280:264,2,119.999990463257,0|0|0
160,200,207722,2,0,B|136:136|160:80,1,119.999990463257,4|8
224,80,208365,2,0,B|96:80,2,119.999990463257,0|0|0
224,80,209436,1,8
288,80,209651,1,0
288,80,209865,1,8
288,144,210079,2,0,B|336:144,2,29.9999976158143
288,208,210508,1,8
288,208,210722,1,8
184,288,211151,6,0,B|112:280|104:184,1,119.999990463257,4|8
112,144,211793,2,0,B|176:120|232:144,1,119.999990463257,0|0
232,208,212436,2,0,B|320:208,2,59.9999952316285,8|0|0
96,208,213293,5,8
96,208,213508,1,0
96,144,213722,1,0
96,144,213936,1,8
96,80,214151,1,8
96,80,214365,1,0
160,80,214579,2,0,B|224:56|280:80,1,119.999990463257,4|8
280,144,215222,2,0,B|216:168|160:144,1,119.999990463257,0|0
162,146,215865,1,8
256,48,216293,5,4
256,176,216722,5,8
256,112,216936,1,0
384,112,217365,5,8
320,112,217579,1,8
320,240,218008,5,4
256,240,218222,1,0
192,240,218436,1,2
72,192,218865,5,4
256,328,219293,1,2
440,192,219722,1,4
