osu file format v9

[General]
AudioFilename: Romancing Story.mp3
AudioLeadIn: 0
PreviewTime: 89871
Countdown: 0
SampleSet: Normal
StackLeniency: 0.7
Mode: 0
LetterboxInBreaks: 1

[Editor]
Bookmarks: 2014,15728,29228,39514,49799,60085,70156,84299,103585,116871,132085,142371,152656,162942,173228,187156,206228
DistanceSpacing: 1
BeatDivisor: 2
GridSize: 8

[Metadata]
Title:Romancing Story
Artist:Ayane
Creator:azuki
Version:Easy
Source:Memories Off #5
Tags:tsunamayo taka1235 miccoliasms

[Difficulty]
HPDrainRate:2
CircleSize:3
OverallDifficulty:3
ApproachRate:3
SliderMultiplier:0.79999990463257
SliderTickRate:0.5

[Events]
//Background and Video events
0,0,"Romancing Story.jpg"
//Break Periods
2,15922,27568
2,118779,130425
//Storyboard Layer 0 (Background)
//Storyboard Layer 1 (Fail)
//Storyboard Layer 2 (Pass)
//Storyboard Layer 3 (Foreground)
//Storyboard Sound Samples
//Background Colour Transformations
3,100,163,162,255

[TimingPoints]
294,428.571428571429,4,2,0,60,1,0
8651,-100,4,1,0,60,0,0
28794,-100,4,1,0,70,0,0
44651,-100,4,1,0,50,0,0
46365,-100,4,1,0,70,0,0
65222,-100,4,1,0,50,0,0
66936,-100,4,1,0,70,0,0
70365,-100,4,1,0,60,0,0
84936,-100,4,1,0,70,0,0
85794,-100,4,1,0,80,0,0
86651,-100,4,1,0,90,0,0
87508,-100,4,1,0,100,0,0
89651,-100,4,1,0,80,0,1
90079,-100,4,1,0,70,0,0
90936,-100,4,1,0,90,0,0
117079,-100,4,1,0,60,0,0
131651,-100,4,1,0,70,0,0
147508,-100,4,1,0,50,0,0
149222,-100,4,1,0,70,0,0
168079,-100,4,1,0,50,0,0
169794,-100,4,1,0,70,0,0
173222,-100,4,1,0,60,0,0
187794,-100,4,1,0,70,0,0
188651,-100,4,1,0,80,0,0
189508,-100,4,1,0,90,0,0
190365,-100,4,1,0,100,0,0
192508,-100,4,1,0,80,0,1
192936,-100,4,1,0,70,0,0
193794,-100,4,1,0,90,0,0
219936,-100,4,1,0,0,0,0

[Colours]
Combo1 : 154,250,164
Combo2 : 255,255,255
Combo3 : 253,255,151
Combo4 : 131,219,252

[HitObjects]
128,48,2008,2,0,B|48:24|48:24,2,79.999990463257,0|2|0
192,80,3294,1,2
224,144,3722,2,0,B|240:224|192:272|192:272,2,119.999985694885
152,152,5436,6,0,B|24:192|24:192,1,119.999985694885,0|2
360,232,7151,6,0,B|488:192|488:192,1,119.999985694885,0|2
512,296,8436,5,2
456,344,8865,2,0,B|408:360|368:328|368:328,1,79.999990463257,0|0
424,280,9722,2,0,B|376:248|392:200|392:200,1,79.999990463257,0|0
464,216,10579,2,0,B|440:144|496:96|496:96,2,119.999985694885
472,288,12293,6,0,B|360:352|360:352,1,119.999985694885
40,96,14008,6,0,B|152:32|152:32,1,119.999985694885
256,192,15293,5,0
256,192,15722,1,4
256,192,29008,5,0
320,160,29436,2,0,B|368:144|384:96|384:96,2,79.999990463257,0|0|0
256,192,30722,1,0
184,200,31151,2,0,B|104:240|80:336|80:336,1,159.999980926514
84,320,32436,1,8
56,256,32865,6,0,B|24:176|24:176,2,79.999990463257,0|0|0
84,322,34151,1,0
152,336,34579,2,0,B|328:360|328:360,1,159.999980926514
384,368,35865,1,8
408,296,36294,6,0,B|440:200|440:200,1,79.999990463257,0|0
376,176,37151,2,0,B|344:272|344:272,1,79.999990463257,0|0
408,296,38008,2,0,B|464:120|464:120,1,159.999980926514
480,72,39294,1,8
408,56,39722,6,0,B|320:40|320:40,1,79.999990463257
288,104,40579,2,0,B|376:120|376:120,1,79.999990463257
408,56,41436,2,0,B|224:24|224:24,1,159.999980926514
176,16,42722,1,8
160,88,43151,6,0,B|136:176|136:176,1,79.999990463257
200,200,44008,2,0,B|224:112|224:112,1,79.999990463257
160,88,44865,1,4
144,160,45294,5,0
128,232,45722,1,0
112,304,46151,1,4
176,336,46579,6,0,B|256:368|360:336|360:336,1,159.999980926514
400,320,47865,1,0
448,264,48294,2,0,B|496:192|496:192,2,79.999990463257
400,320,49579,1,8
344,272,50008,6,0,B|296:240|312:168|312:168,1,79.999990463257
296,136,50865,1,0
328,72,51294,1,0
296,136,51722,2,0,B|240:208|144:192|144:192,1,159.999980926514
80,176,53008,1,8
64,248,53436,6,0,B|48:328|48:328,2,79.999990463257
80,176,54722,1,0
112,112,55151,2,0,B|160:40|256:48|256:48,1,159.999980926514
320,56,56436,1,8
368,104,56865,6,0,B|432:160|432:160,1,79.999990463257
384,216,57722,2,0,B|320:160|320:160,1,79.999990463257
368,104,58579,2,0,B|496:216|496:216,1,159.999980926514
488,209,59865,1,8
440,264,60294,6,0,B|384:320|384:320,1,79.999990463257
328,272,61151,2,0,B|384:216|384:216,1,79.999990463257
440,264,62008,2,0,B|320:376|320:376,1,159.999980926514
323,373,63294,1,8
272,320,63722,6,0,B|208:248|208:248,1,79.999990463257
272,208,64579,2,0,B|336:280|336:280,1,79.999990463257
272,320,65436,1,4
224,264,65865,5,0
176,208,66294,1,0
128,152,66722,1,4
56,152,67151,6,0,B|0:232|56:304|56:304,1,159.999980926514
54,301,68436,1,0
120,264,68865,2,0,B|144:304|120:344|120:344,2,79.999990463257
120,264,70151,1,8
112,192,70579,6,0,B|152:112|256:104|256:104,1,159.999980926514
312,104,71865,1,0
384,120,72294,2,0,B|464:136|464:136,2,79.999990463257
312,104,73579,1,8
328,176,74008,6,0,B|360:264|304:344|304:344,1,159.999980926514
264,384,75294,1,0
192,376,75722,2,0,B|96:360|96:360,2,79.999990463257
264,384,77008,1,8
280,312,77436,6,0,B|312:208|264:128|264:128,1,159.999980926514
256,88,78722,1,0
208,32,79151,6,0,B|176:136|224:216|224:216,1,159.999980926514
232,256,80437,1,8
216,328,80865,6,0,B|184:368|112:360|112:360,2,79.999990463257
232,256,82151,1,0
288,216,82579,2,0,B|360:152|464:176|464:176,1,159.999980926514
437,172,83865,1,8
464,240,84294,6,0,B|472:296|432:328|432:328,1,79.999990463257,4|0
376,344,85151,2,0,B|336:368|272:344|272:344,1,79.999990463257
232,320,86008,2,0,B|184:304|176:240|176:240,1,79.999990463257,4|0
168,192,86865,2,0,B|168:136|216:104|216:104,1,79.999990463257
248,64,87722,2,0,B|288:16|288:16,6,39.9999952316285
248,64,89436,1,4
248,136,89865,5,0
248,208,90294,1,0
248,280,90722,1,4
192,328,91151,6,0,B|104:360|104:360,1,79.999990463257,0|8
64,312,92008,2,0,B|72:264|32:232|32:232,1,79.999990463257,0|8
32,168,92865,1,0
64,104,93294,1,8
128,72,93722,1,0
200,80,94151,1,8
256,128,94579,2,0,B|288:168|336:160|336:160,1,79.999990463257,0|8
384,120,95436,2,0,B|352:80|304:88|304:88,1,79.999990463257,0|8
256,128,96294,1,4
256,200,96722,5,8
256,272,97151,1,0
256,344,97579,1,8
328,368,98008,6,0,B|416:384|416:384,2,79.999990463257,4|8|0
256,344,99294,1,8
184,328,99722,2,0,B|136:328|112:272|112:272,1,79.999990463257,0|8
104,216,100579,2,0,B|104:160|56:136|56:136,1,79.999990463257,0|8
24,200,101436,2,0,B|24:256|72:280|72:280,1,79.999990463257,0|8
128,280,102294,2,0,B|176:256|176:208|176:208,1,79.999990463257,0|8
192,152,103151,1,0
208,80,103579,5,8
208,80,104008,1,0
208,80,104436,1,8
272,48,104865,6,0,B|304:16|360:32|360:32,2,79.999990463257,4|8|0
320,96,106151,1,8
344,160,106579,2,0,B|368:208|336:256|336:256,1,79.999990463257,0|8
304,296,107436,2,0,B|256:336|200:320|200:320,1,79.999990463257,0|8
232,248,108294,1,0
168,208,108722,1,8
240,192,109151,5,0
224,120,109579,1,8
288,152,110008,5,0
320,88,110436,1,8
368,32,110865,1,0
368,32,111294,1,8
440,24,111722,6,0,B|496:32|512:80|512:80,2,79.999990463257,0|8|0
440,96,113008,2,0,B|456:152|408:192|408:192,1,79.999990463257,8|0
368,128,113865,2,0,B|336:160|272:152|272:152,1,79.999990463257,8|0
304,80,114722,1,8
232,56,115151,2,0,B|128:32|128:32,2,79.999990463257,0|8|0
256,128,116436,1,8
256,200,116865,1,4
256,200,117294,5,0
256,272,117722,1,0
256,344,118151,1,0
256,344,118579,1,4
256,192,131865,5,0
192,224,132293,2,0,B|144:240|128:288|128:288,2,79.999990463257,0|0|0
256,192,133579,1,0
328,184,134008,2,0,B|408:144|432:48|432:48,1,159.999980926514
428,64,135293,1,8
456,128,135722,6,0,B|488:208|488:208,2,79.999990463257,0|0|0
428,62,137008,1,0
360,48,137436,2,0,B|184:24|184:24,1,159.999980926514
128,16,138722,1,8
104,88,139151,6,0,B|72:184|72:184,1,79.999990463257,0|0
136,208,140008,2,0,B|168:112|168:112,1,79.999990463257,0|0
104,88,140865,2,0,B|48:264|48:264,1,159.999980926514
32,312,142151,1,8
104,328,142579,6,0,B|192:344|192:344,1,79.999990463257
224,280,143436,2,0,B|136:264|136:264,1,79.999990463257
104,328,144293,2,0,B|288:360|288:360,1,159.999980926514
336,368,145579,1,8
352,296,146008,6,0,B|376:208|376:208,1,79.999990463257
312,184,146865,2,0,B|288:272|288:272,1,79.999990463257
352,296,147722,1,4
368,224,148151,5,0
384,152,148579,1,0
400,80,149008,1,4
336,48,149436,6,0,B|256:16|152:48|152:48,1,159.999980926514
112,64,150722,1,0
64,120,151151,2,0,B|16:192|16:192,2,79.999990463257
112,64,152436,1,8
168,112,152865,6,0,B|216:144|200:216|200:216,1,79.999990463257
216,248,153722,1,0
184,312,154151,1,0
216,248,154579,2,0,B|272:176|368:192|368:192,1,159.999980926514
432,208,155865,1,8
448,136,156293,6,0,B|464:56|464:56,2,79.999990463257
432,208,157579,1,0
400,272,158008,2,0,B|352:344|256:336|256:336,1,159.999980926514
192,328,159293,1,8
144,280,159722,6,0,B|80:224|80:224,1,79.999990463257
128,168,160579,2,0,B|192:224|192:224,1,79.999990463257
144,280,161436,2,0,B|16:168|16:168,1,159.999980926514
24,175,162722,1,8
72,120,163151,6,0,B|128:64|128:64,1,79.999990463257
184,112,164008,2,0,B|128:168|128:168,1,79.999990463257
72,120,164865,2,0,B|192:8|192:8,1,159.999980926514
189,11,166151,1,8
240,64,166579,6,0,B|304:136|304:136,1,79.999990463257
240,176,167436,2,0,B|176:104|176:104,1,79.999990463257
240,64,168293,1,4
288,120,168722,5,0
336,176,169151,1,0
384,232,169579,1,4
456,232,170008,6,0,B|512:152|456:80|456:80,1,159.999980926514
458,83,171293,1,0
392,120,171722,2,0,B|368:80|392:40|392:40,2,79.999990463257
392,120,173008,1,8
400,192,173436,6,0,B|360:272|256:280|256:280,1,159.999980926514
200,280,174722,1,0
128,264,175151,2,0,B|48:248|48:248,2,79.999990463257
200,280,176436,1,8
184,208,176865,6,0,B|152:120|208:40|208:40,1,159.999980926514
248,0,178151,1,0
320,8,178579,2,0,B|416:24|416:24,2,79.999990463257
248,0,179865,1,8
232,72,180293,6,0,B|200:176|248:256|248:256,1,159.999980926514
256,296,181579,1,0
304,352,182008,6,0,B|336:248|288:168|288:168,1,159.999980926514
280,128,183294,1,8
296,56,183722,6,0,B|328:16|400:24|400:24,2,79.999990463257
280,128,185008,1,0
224,168,185436,2,0,B|152:232|48:208|48:208,1,159.999980926514
75,212,186722,1,8
48,144,187151,6,0,B|40:88|80:56|80:56,1,79.999990463257,4|0
136,40,188008,2,0,B|176:16|240:40|240:40,1,79.999990463257
280,64,188865,2,0,B|328:80|336:144|336:144,1,79.999990463257,4|0
344,192,189722,2,0,B|344:248|296:280|296:280,1,79.999990463257
264,320,190579,2,0,B|224:368|224:368,6,39.9999952316285
264,320,192293,1,4
264,248,192722,5,0
264,176,193151,1,0
264,104,193579,1,4
320,56,194008,6,0,B|408:24|408:24,1,79.999990463257,0|8
448,72,194865,2,0,B|440:120|480:152|480:152,1,79.999990463257,0|8
480,216,195722,1,0
448,280,196151,1,8
384,312,196579,1,0
312,304,197008,1,8
256,256,197436,2,0,B|224:216|176:224|176:224,1,79.999990463257,0|8
128,264,198293,2,0,B|160:304|208:296|208:296,1,79.999990463257,0|8
256,256,199151,1,4
256,184,199579,5,8
256,112,200008,1,0
256,40,200436,1,8
176,48,200865,6,0,B|128:40|88:64|88:64,2,79.999990463257,4|8|0
256,40,202151,1,8
328,56,202579,2,0,B|376:56|400:112|400:112,1,79.999990463257,0|8
408,168,203436,2,0,B|408:224|456:248|456:248,1,79.999990463257,0|8
488,184,204293,2,0,B|488:128|440:104|440:104,1,79.999990463257,0|8
384,104,205151,2,0,B|336:128|336:176|336:176,1,79.999990463257,0|8
320,232,206008,1,0
304,304,206436,5,8
304,304,206865,1,0
304,304,207293,1,8
240,336,207722,6,0,B|208:368|152:352|152:352,2,79.999990463257,4|8|0
192,288,209008,1,8
168,224,209436,2,0,B|144:176|176:128|176:128,1,79.999990463257,0|8
208,88,210293,2,0,B|256:48|312:64|312:64,1,79.999990463257,0|8
280,136,211151,1,0
344,176,211579,1,8
272,192,212008,5,0
288,264,212436,1,8
224,232,212865,5,0
192,296,213293,1,8
144,352,213722,1,0
144,352,214151,1,8
72,360,214579,6,0,B|16:352|0:304|0:304,2,79.999990463257,0|8|0
72,288,215865,2,0,B|56:232|104:192|104:192,1,79.999990463257,8|0
144,256,216722,2,0,B|176:224|240:232|240:232,1,79.999990463257,8|0
208,304,217579,1,8
280,328,218008,2,0,B|384:352|384:352,2,79.999990463257,0|8|0
256,256,219293,1,8
256,184,219722,1,4
256,192,220151,12,0,221436
