osu file format v9

[General]
AudioFilename: Romancing Story.mp3
AudioLeadIn: 0
PreviewTime: 89871
Countdown: 0
SampleSet: Normal
StackLeniency: 0.7
Mode: 0
LetterboxInBreaks: 1

[Editor]
Bookmarks: 2014,15728,29228,39514,49799,60085,70156,84299,103585,116871,132085,142371,152656,162942,173228,187156,206228
DistanceSpacing: 1
BeatDivisor: 4
GridSize: 8

[Metadata]
Title:Romancing Story
Artist:Ayane
Creator:azuki
Version:Collab
Source:Memories Off #5
Tags:tsunamayo taka1235 miccoliasms

[Difficulty]
HPDrainRate:8
CircleSize:5
OverallDifficulty:8
ApproachRate:8
SliderMultiplier:1.59999990463257
SliderTickRate:0.5

[Events]
//Background and Video events
0,0,"Romancing Story.jpg"
//Break Periods
2,117065,131329
//Storyboard Layer 0 (Background)
//Storyboard Layer 1 (Fail)
//Storyboard Layer 2 (Pass)
//Storyboard Layer 3 (Foreground)
Sprite,Foreground,Centre,"SB\azuki.png",320,240 S,0,2008,,0.8 F,0,2008,2436,0,1 M,0,2008,103579,142,380 F,0,2436,15294,1 F,0,15294,15722,1,0 F,0,15722,29222,0 F,0,29222,29436,0,1 F,0,29436,39294,1 F,0,39294,39508,1,0 F,0,39508,49794,0 F,0,49794,50008,0,1 F,0,50008,59865,1 F,0,59865,60079,1,0 F,0,60079,70151,0 F,0,70151,70365,0,1 F,0,70365,83865,1 F,0,83865,84294,1,0 F,0,84294,103579,0 F,0,103579,103794,0,1 F,0,103794,116865,1 F,0,116865,116972,1,0 F,0,116972,142365,0 F,0,142365,142579,0,1 F,0,142579,152222,1 F,0,152222,152651,1,0 F,0,152651,162936,0 F,0,162936,163151,0,1 F,0,163151,172794,1 F,0,172794,173222,1,0 F,0,173222,187151,0 F,0,187151,187365,0,1 F,0,187365,205794,1 F,0,205794,206222,1,0
Sprite,Foreground,Centre,"SB\taka.png",320,240 S,0,15722,,0.7 F,0,15722,16151,0,1 M,0,15722,219936,138,382 F,0,16151,28794,1 F,0,28794,29222,1,0 F,0,29222,39508,0 F,0,39508,39722,0,1 F,0,39722,49365,1 F,0,49365,49794,1,0 F,0,49794,60079,0 F,0,60079,60294,0,1 F,0,60294,69936,1 F,0,69936,70151,1,0 F,0,70151,84294,0 F,0,84294,84508,0,1 F,0,84508,103151,1 F,0,103151,103579,1,0 F,0,103579,131651,0 F,0,131651,132079,0,1 F,0,132079,142151,1 F,0,142151,142365,1,0 F,0,142365,152651,0 F,0,152651,152865,0,1 F,0,152865,162722,1 F,0,162722,162936,1,0 F,0,162936,173222,0 F,0,173222,173436,0,1 F,0,173436,186936,1 F,0,186936,187151,1,0 F,0,187151,206222,0 F,0,206222,206436,0,1 F,0,206436,219722,1 F,0,219722,219829,1,0
//Storyboard Sound Samples
//Background Colour Transformations
3,100,163,162,255

[TimingPoints]
294,428.571428571429,4,1,0,100,1,0
1901,-200,4,2,0,65,0,0
4901,-100,4,2,0,40,0,0
5330,-200,4,1,0,40,0,0
5544,-100,4,2,0,65,0,0
7044,-200,4,1,0,40,0,0
7258,-200,4,2,0,65,0,0
11758,-100,4,2,0,40,0,0
12187,-200,4,1,0,40,0,0
12401,-200,4,2,0,65,0,0
13901,-200,4,1,0,40,0,0
14115,-200,4,2,0,65,0,0
15615,-100,4,2,0,65,0,0
27830,-100,4,1,0,44,0,0
29115,-100,4,2,0,64,0,0
39401,-100,4,2,0,69,0,0
45187,-100,4,1,0,48,0,0
46472,-100,4,2,0,68,0,0
65758,-100,4,1,0,43,0,0
67044,-100,4,2,0,66,0,0
68758,-100,4,1,0,44,0,0
70472,-100,4,2,0,64,0,0
89329,-100,4,2,0,61,0,0
89866,-100,4,1,0,80,0,0
89972,-100,4,1,0,50,0,0
91151,-100,4,1,0,50,0,1
91258,-100,4,1,0,50,0,0
95759,-100,4,1,0,60,0,0
96401,-100,4,1,0,50,0,0
104865,-100,4,1,0,50,0,1
104972,-100,4,1,0,50,0,0
110330,-100,4,1,0,40,0,0
131972,-100,4,2,0,65,0,0
142472,-100,4,1,0,50,0,0
142794,-100,4,2,0,65,0,0
145901,-100,4,1,0,55,0,0
146222,-100,4,2,0,65,0,0
151901,-100,4,1,0,40,0,0
152544,-100,4,2,0,65,0,0
163044,-100,4,1,0,45,0,0
163258,-100,4,2,0,65,0,0
168187,-100,4,1,0,35,0,0
168401,-100,4,2,0,70,0,0
172472,-100,4,1,0,45,0,0
173115,-100,4,2,0,60,0,0
187044,-100,4,1,0,46,0,0
187258,-100,4,2,0,66,0,0
190044,-100,4,1,0,46,0,0
190473,-100,4,2,0,79,0,0
191222,-100,4,2,0,89,0,0
192294,-100,4,1,0,75,0,0
192615,-100,4,1,0,59,0,0
194008,-100,4,1,0,59,0,1
194115,-100,4,1,0,59,0,0
207722,-100,4,1,0,66,0,1
207830,-100,4,1,0,66,0,0
219615,-100,4,1,0,51,0,0
220151,-100,4,1,0,36,0,0
220579,-100,4,1,0,21,0,0
220901,-100,4,1,0,11,0,0
221329,-100,4,1,0,19,0,0

[Colours]
Combo1 : 154,250,164
Combo2 : 255,255,255
Combo3 : 253,255,151
Combo4 : 131,219,252

[HitObjects]
408,152,2008,2,0,B|360:136|336:112,1,79.9999952316285,0|2
216,160,2865,2,0,B|264:176|288:200,1,79.9999952316285,0|2
376,296,3722,2,0,B|376:344,2,39.9999976158142,0|0|2
328,256,4365,2,0,B|328:208,2,39.9999976158142,0|0|0
280,304,5008,1,4
168,192,5436,6,0,B|120:208|80:176,1,79.9999952316285,4|2
56,136,6079,1,2
96,80,6293,1,0
160,80,6508,1,2
192,136,6722,1,2
344,192,7151,6,0,B|392:176|432:208,1,79.9999952316285,4|2
456,248,7793,1,2
416,304,8008,1,0
352,304,8222,1,2
320,248,8436,1,2
104,152,8865,6,0,B|152:136|176:112,1,79.9999952316285,0|2
296,160,9722,2,0,B|248:176|224:200,1,79.9999952316285,0|2
136,296,10579,2,0,B|136:344,2,39.9999976158142,0|0|2
184,256,11222,2,0,B|184:208,2,39.9999976158142,0|0|0
232,304,11865,1,4
344,192,12293,6,0,B|392:208|432:176,1,79.9999952316285,4|2
456,136,12936,1,2
416,80,13151,1,0
352,80,13365,1,2
320,136,13579,1,2
168,192,14008,6,0,B|120:176|80:208,1,79.9999952316285,0|2
56,248,14651,1,2
96,304,14865,1,0
160,304,15079,1,2
192,248,15293,1,2
392,72,15722,5,4
392,72,15936,1,0
392,72,16151,2,0,B|288:72|288:176,2,159.999990463257,8|0|8
456,120,17222,1,0
392,168,17436,2,0,B|392:256,1,79.9999952316285
456,296,17865,1,8
392,352,18079,2,0,B|232:352,1,159.999990463257
168,304,18722,1,8
168,304,18936,1,0
104,352,19151,6,0,B|0:352|0:240,2,159.999990463257,4|8|0
168,304,20222,1,0
168,224,20436,1,8
104,176,20651,1,0
104,256,20865,5,0
40,216,21079,1,0
40,216,21186,1,0
40,216,21294,1,8
40,136,21508,1,0
104,88,21722,5,0
200,176,21936,1,2
104,88,22151,1,0
200,176,22365,1,2
256,120,22579,6,0,B|352:120|352:16,2,159.999990463257,4|8|0
200,176,23651,2,0,B|200:272,1,79.9999952316285,0|8
256,312,24079,1,0
328,344,24294,2,0,B|488:344,1,159.999990463257,0|8
456,272,24936,2,0,B|456:192,1,79.9999952316285
384,160,25365,1,0
384,160,25579,1,8
384,160,25794,1,0
312,192,26008,6,0,B|264:112|312:32,1,159.999990463257,4|2
456,40,26651,2,0,B|504:120|448:208,1,159.999990463257,0|2
384,248,27294,2,0,B|384:336,1,79.9999952316285,2|0
304,312,27722,5,0
304,312,27936,2,0,B|272:344|192:272|136:320,1,159.999990463257,0|0
149,310,28472,1,0
149,310,28579,1,0
48,320,28794,2,0,B|24:280|48:232,1,79.9999952316285
96,104,29222,5,0
152,160,29436,1,4
224,120,29651,1,0
280,176,29865,1,8
360,176,30079,2,0,B|384:256,1,79.9999952316285
288,336,30508,2,0,B|304:248,1,79.9999952316285,0|8
320,176,30936,5,0
184,216,31151,1,0
296,128,31365,1,0
160,160,31579,1,8
192,40,31794,1,0
240,176,32008,2,0,B|240:248|336:256,2,119.999992847443,2|2|2
240,176,32865,5,0
184,232,33079,2,0,B|96:232,1,79.9999952316285,0|8
32,272,33508,2,0,B|32:184,1,79.9999952316285
88,128,33936,1,0
152,72,34151,1,8
232,48,34365,5,0
336,144,34579,1,0
192,160,34794,1,0
296,264,35008,1,8
160,296,35222,1,0
88,168,35436,2,0,B|80:96|8:56,2,119.999992847443,2|2|2
176,144,36294,6,0,B|208:96|264:120,1,79.9999952316285,4|0
328,248,36722,2,0,B|296:296|240:272,1,79.9999952316285,2|0
280,136,37151,2,0,B|312:88|368:112,1,79.9999952316285,0|0
216,280,37579,2,0,B|184:328|128:304,1,79.9999952316285,2|0
344,184,38008,2,0,B|280:48|128:64,1,239.999985694885,0|0
240,184,38865,2,0,B|248:264|344:256,2,119.999992847443,2|2|2
152,200,39722,6,0,B|128:160|136:96,1,79.9999952316285
160,48,40151,2,0,B|184:24|248:16,1,79.9999952316285,2|0
304,48,40579,2,0,B|344:72|400:56,1,79.9999952316285
416,128,41008,2,0,B|440:176|432:224,1,79.9999952316285,2|0
352,200,41436,5,0
400,264,41651,1,0
352,328,41865,1,2
272,304,42079,1,0
280,224,42294,2,0,B|160:160,2,119.999992847443,2|2|2
128,296,43151,6,0,B|88:272|96:224,1,79.9999952316285
136,160,43579,2,0,B|168:120|208:128,1,79.9999952316285,2|0
272,176,44008,2,0,B|304:208|360:200,1,79.9999952316285,0|0
424,184,44436,2,0,B|456:144|448:104,1,79.9999952316285,2|0
384,64,44865,5,4
72,88,45293,5,0
152,88,45722,1,0
232,88,46151,1,0
232,216,46579,5,4
232,216,46793,2,0,B|200:304,2,79.9999952316285,0|8|0
280,152,47436,1,0
280,152,47651,2,0,B|312:64,1,79.9999952316285,0|8
216,104,48079,6,0,B|48:104,1,159.999990463257,2|0
104,224,48722,2,2,B|272:224,2,159.999990463257
152,136,49793,6,0,B|144:88|176:56,1,79.9999952316285,0|4
248,104,50222,1,0
320,56,50436,1,8
368,128,50651,1,0
320,200,50865,1,0
296,288,51079,2,0,B|208:280,1,79.9999952316285,0|8
216,192,51508,2,0,B|136:200,1,79.9999952316285
88,272,51936,1,0
72,184,52151,1,8
104,104,52365,1,0
176,152,52579,2,0,B|216:112,4,39.9999976158142,0|0|0|0|8
120,240,53222,6,0,B|208:224,1,79.9999952316285
296,296,53651,2,0,B|208:280,1,79.9999952316285,0|8
312,208,54079,2,0,B|400:192,1,79.9999952316285
464,144,54508,1,0
400,80,54722,1,8
320,40,54936,1,0
312,128,55151,1,0
272,208,55365,1,0
272,208,55579,2,0,B|176:208,1,79.9999952316285,8|0
120,152,56008,2,0,B|104:104,4,39.9999976158142,0|0|0|0|8
152,256,56651,5,0
224,208,56865,2,0,B|248:128,1,79.9999952316285,4|0
288,56,57293,2,0,B|192:56,1,79.9999952316285,2|0
128,24,57722,2,0,B|128:120,1,79.9999952316285
144,192,58151,2,0,B|224:168,1,79.9999952316285,2|0
240,256,58579,2,0,B|336:296,2,79.9999952316285,0|0|2
168,208,59222,1,0
144,296,59436,2,0,B|72:304|16:264,2,119.999992847443,2|2|2
216,272,60293,5,0
240,200,60508,1,0
296,256,60722,1,2
336,184,60936,1,0
392,240,61151,2,0,B|440:224|464:176,1,79.9999952316285
496,120,61579,2,0,B|448:88|440:40,1,79.9999952316285,2|0
368,32,62008,5,0
328,104,62222,1,0
272,48,62436,1,2
240,120,62651,1,0
296,176,62865,2,0,B|320:224|320:304,2,119.999992847443,2|2|2
416,128,63722,6,0,B|352:64,1,79.9999952316285
392,224,64151,2,0,B|352:296,1,79.9999952316285,8|0
336,144,64579,2,0,B|256:88,1,79.9999952316285
304,224,65008,2,0,B|256:296,1,79.9999952316285,8|0
192,192,65436,5,4
40,96,65865,5,0
112,56,66293,1,0
184,88,66722,1,0
112,232,67151,6,0,B|112:320,1,79.9999952316285,4|0
184,280,67579,2,0,B|184:368,1,79.9999952316285,2|0
256,320,68008,1,0
256,192,68222,1,2
256,320,68436,1,0
256,192,68651,1,0
320,240,68865,5,0
344,256,68972,1,0
368,240,69079,1,0
392,256,69186,1,0
416,240,69293,1,0
480,192,69508,1,0
480,192,69615,1,0
480,192,69722,1,0
416,144,69936,1,0
392,160,70043,1,0
368,144,70151,1,0
344,160,70258,1,0
320,144,70365,1,0
232,120,70579,6,0,B|200:64|152:96,1,79.9999952316285,4|0
144,176,71008,2,0,B|168:232|104:256,1,79.9999952316285,8|0
56,192,71436,1,0
104,120,71651,1,0
184,144,71865,1,8
152,224,72079,2,0,B|152:288,2,39.9999976158142,0|0|0
232,200,72508,1,0
296,256,72722,1,8
376,288,72936,2,0,B|296:216|472:160|320:80,1,239.999985694885,2|8
240,88,73793,5,0
240,88,74008,2,0,B|128:120|168:240,1,159.999990463257,0|8
200,288,74651,1,0
248,216,74865,1,0
312,272,75079,1,0
392,232,75293,2,0,B|312:192|448:80|336:104,1,159.999990463257,8|0
280,176,75936,1,0
176,128,76151,2,0,B|256:168|120:280|232:256,1,159.999990463257,8|0
296,264,76793,1,0
296,264,76901,1,0
296,264,77008,1,8
352,200,77222,5,0
296,136,77436,1,4
336,56,77651,1,0
416,96,77865,1,8
480,152,78079,1,0
408,200,78293,2,0,B|352:248|320:160|232:216,1,159.999990463257,0|8
233,118,78936,1,0
256,202,79151,2,0,B|200:250|168:162|80:218,1,159.999990463257,0|8
88,120,79793,1,0
88,120,80008,2,0,B|184:144|248:48,2,159.999990463257,0|8|0
96,208,81079,5,0
168,264,81293,1,8
248,296,81508,1,0
328,264,81722,2,0,B|368:208|336:168,1,79.9999952316285,0|0
432,152,82151,2,0,B|416:96|352:80,1,79.9999952316285,8|0
264,96,82579,6,0,B|200:32|136:176|40:48,1,239.999985694885,2|2
96,160,83436,2,0,B|96:256,1,79.9999952316285,0|0
208,216,83865,2,0,B|296:232,1,79.9999952316285,8|0
160,312,84293,6,0,B|80:272|80:160,2,159.999990463257,4|8|0
208,248,85365,2,0,B|248:232|248:184,1,79.9999952316285,0|8
208,120,85793,1,0
96,192,86008,6,0,B|40:112|96:40,1,159.999990463257,4|8
208,248,86651,1,0
208,248,86865,2,0,B|264:176|208:96,1,159.999990463257,4|8
96,328,87508,1,0
96,328,87722,6,0,B|264:328,1,159.999990463257,4|8
456,272,88365,1,0
456,272,88579,2,0,B|272:272,1,159.999990463257,4|8
216,272,89222,1,0
256,96,89436,5,6
320,256,89865,5,4
320,256,90079,2,0,B|296:296|256:304|216:296|184:248,2,159.999990463257,2|2|4
256,192,91151,6,0,B|224:112,1,79.9999952316285,4|0
128,256,91579,2,0,B|216:256,1,79.9999952316285,8|0
96,120,92008,2,0,B|64:208,1,79.9999952316285
208,56,92436,2,0,B|128:56,1,79.9999952316285,8|0
168,160,92865,5,0
256,160,93079,1,0
360,96,93293,1,8
280,96,93508,2,0,B|240:24,2,79.9999952316285,0|0|0
216,200,94151,2,0,B|200:240,2,39.9999976158142,8|0|0
168,120,94579,6,0,B|72:88|24:200,1,159.999990463257,4|8
35,177,95222,1,0
128,320,95436,2,0,B|64:256,1,79.9999952316285
200,280,95865,2,0,B|184:200,1,79.9999952316285,8|0
112,128,96293,5,4
192,32,96508,1,0
312,56,96722,1,4
240,184,96936,6,0,B|296:344,1,159.999990463257,2|2
440,224,97579,2,0,B|352:224,1,79.9999952316285,2|0
280,88,98008,6,0,B|352:136,1,79.9999952316285,4|0
346,132,98436,1,8
346,132,98651,1,0
200,136,98865,2,0,B|224:224,1,79.9999952316285
104,128,99293,2,0,B|72:208,1,79.9999952316285,8|0
152,48,99722,5,0
152,48,99936,1,0
256,88,100151,1,8
256,88,100365,2,0,B|352:88,2,79.9999952316285
168,152,101008,1,8
160,168,101115,1,0
152,184,101222,1,0
64,152,101436,6,0,B|24:224|24:312,1,159.999990463257,4|2
24,305,102079,1,0
144,264,102293,2,0,B|192:328,1,79.9999952316285,0|2
248,144,102722,2,0,B|256:224,1,79.9999952316285,0|2
280,296,103151,5,0
304,312,103258,1,0
328,312,103365,1,0
352,304,103472,1,0
368,280,103579,1,0
392,144,103793,6,0,B|384:48|512:48,2,159.999990463257,2|2|4
376,224,104865,5,0
280,280,105079,1,0
192,240,105293,2,0,B|152:144,1,79.9999952316285,8|0
88,104,105722,2,0,B|32:104,4,39.9999976158142,0|0|0|0|8
168,136,106365,6,0,B|248:184,1,79.9999952316285,0|0
96,208,106793,2,0,B|120:304,1,79.9999952316285,0|8
192,328,107222,1,0
192,328,107436,1,0
280,328,107651,1,0
280,328,107758,1,0
280,328,107865,1,8
280,240,108079,1,0
232,168,108293,6,0,B|192:96|88:96,1,159.999990463257,2|8
280,216,108936,2,0,B|320:288|424:288,1,159.999990463257,2|2
472,224,109579,1,8
400,176,109793,1,0
448,104,110008,1,0
448,104,110115,1,0
448,104,110222,1,0
368,80,110436,6,0,B|328:48|264:80,1,79.9999952316285,8|0
296,160,110865,2,0,B|272:208|304:248,1,79.9999952316285,0|0
328,320,111293,1,8
256,272,111508,1,0
184,320,111722,2,0,B|96:352|40:248,2,159.999990463257,0|8|0
376,48,113008,5,0
408,128,113222,1,0
408,128,113436,2,0,B|336:200|240:144,1,159.999990463257,4|0
320,88,114079,1,0
320,88,114293,2,0,B|288:184|392:232,1,159.999990463257,4|0
448,176,114936,5,0
328,120,115151,1,0
216,176,115365,1,0
96,120,115579,1,0
256,192,115686,12,0,116865
120,96,132079,5,0
184,48,132293,2,0,B|264:48,1,79.9999952316285
312,112,132722,2,0,B|224:112,1,79.9999952316285,8|0
184,176,133151,2,0,B|272:176,1,79.9999952316285
312,240,133579,2,0,B|224:240,1,79.9999952316285,8|0
168,280,134008,5,0
216,344,134222,1,0
296,344,134436,1,8
344,280,134651,1,0
304,208,134865,2,0,B|304:120|376:72,1,159.999990463257,0|8
432,128,135508,5,0
464,56,135722,1,0
464,56,135936,1,0
400,8,136151,1,8
400,8,136365,1,0
328,40,136579,1,0
328,40,136793,2,0,B|256:80|256:184,1,159.999990463257
320,224,137436,2,0,B|400:224,1,79.9999952316285
264,296,137865,2,0,B|344:296,1,79.9999952316285,8|0
416,336,138293,6,0,B|472:304|464:200,2,119.999992847443,2|2|2
376,264,139151,6,0,B|304:224|216:264,1,159.999990463257,4|2
168,320,139793,1,0
168,320,140008,2,0,B|88:352|8:312,1,159.999990463257,0|2
16,232,140651,1,0
88,192,140865,6,0,B|88:152|56:120,1,79.9999952316285,0|0
168,112,141293,2,0,B|144:72|104:64,1,79.9999952316285,2|0
168,192,141722,2,0,B|200:232|200:312,2,119.999992847443,2|2|2
104,128,142579,5,4
272,80,143008,5,2
360,104,143222,1,0
288,160,143436,5,0
392,200,143651,1,0
296,256,143865,5,2
416,320,144079,1,0
328,352,144293,6,0,B|240:352,1,79.9999952316285
192,264,144722,2,0,B|280:264,1,79.9999952316285,2|0
256,160,145151,2,0,B|256:16,2,119.999992847443,2|2|2
256,264,146008,5,4
240,80,146436,5,2
152,104,146651,1,0
224,160,146865,5,0
120,200,147079,1,0
216,256,147294,5,2
96,320,147508,1,0
232,352,147722,5,4
448,80,148365,6,0,B|328:24|168:144|40:64,1,399.999976158142,0|4
32,248,149865,5,2
112,88,150294,1,0
264,184,150722,1,2
264,184,150936,2,0,B|344:184,1,79.9999952316285
392,112,151365,2,0,B|312:112,1,79.9999952316285,0|2
240,64,151794,1,0
168,112,152008,1,0
144,128,152115,1,0
120,112,152222,1,0
96,128,152329,1,0
72,112,152436,1,0
56,192,152651,5,0
56,192,152865,2,0,B|56:280,2,79.9999952316285,4|0|8
128,160,153508,1,0
128,160,153722,2,0,B|128:72,2,79.9999952316285,0|2|8
128,160,154365,1,0
216,80,154579,5,0
216,80,154794,1,0
304,160,155008,1,8
304,160,155222,1,0
352,32,155436,2,0,B|472:48,1,119.999992847443,0|0
470,47,155865,1,8
470,47,156079,1,0
472,128,156294,6,0,B|472:208,2,79.9999952316285,0|0|8
400,88,156936,1,0
400,88,157151,2,0,B|296:88,2,79.9999952316285,0|0|8
400,88,157794,1,0
440,192,158008,5,0
440,192,158222,1,0
312,160,158436,1,8
312,160,158651,1,0
352,280,158865,2,0,B|224:312,1,119.999992847443,0|0
235,309,159294,1,8
235,309,159508,1,0
192,176,159722,6,0,B|104:152|48:232,1,159.999990463257,4|2
51,226,160365,1,0
128,264,160579,2,0,B|128:344,2,79.9999952316285,0|0|2
128,264,161222,1,0
184,168,161436,6,0,B|264:176,2,79.9999952316285,0|0|2
144,104,162079,1,0
208,56,162294,6,0,B|288:72|272:160,1,119.999992847443,2|0
274,140,162722,1,2
96,104,162936,5,0
96,104,163151,1,4
96,280,163579,5,2
216,40,164008,1,0
216,344,164436,1,2
216,192,164865,5,0
216,192,165079,2,0,B|256:216|256:280,2,79.9999952316285,0|2|0
136,160,165722,2,0,B|56:136|96:56,2,119.999992847443,2|2|2
216,192,166579,5,0
376,88,167008,1,2
176,224,167436,1,0
416,48,167865,1,2
296,144,168294,5,4
448,304,168936,6,0,B|328:360|168:240|40:320,1,399.999976158142,0|4
176,48,170436,5,2
312,144,170865,1,0
176,240,171294,1,2
176,240,171508,2,0,B|256:240,1,79.9999952316285
328,296,171936,2,0,B|248:296,1,79.9999952316285,0|2
168,336,172365,1,0
88,304,172579,1,0
112,288,172686,1,0
88,272,172794,1,0
112,256,172901,1,0
88,240,173008,1,0
48,168,173222,5,0
112,120,173436,2,0,B|112:40,2,79.9999952316285,4|0|8
192,120,174079,2,0,B|240:192|240:296,1,159.999990463257
192,336,174722,2,0,B|96:336,1,79.9999952316285,8|0
48,288,175151,5,0
48,288,175365,1,0
160,224,175579,1,8
160,224,175794,1,0
48,152,176008,2,0,B|32:160|16:184,4,39.9999976158142,0|0|0|0|8
64,80,176651,5,0
64,80,176865,2,0,B|232:80,1,159.999990463257,4|8
223,80,177508,1,0
256,152,177722,2,0,B|256:232,2,79.9999952316285,0|0|8
256,152,178365,1,0
176,152,178579,5,0
256,240,178794,1,0
352,216,179008,1,8
384,120,179222,1,0
272,64,179436,2,0,B|256:32|232:16,4,39.9999976158142,0|0|0|0|8
288,160,180079,5,0
192,112,180294,2,0,B|144:136|128:192,1,79.9999952316285,4|0
48,128,180722,2,0,B|16:200|48:288,1,159.999990463257,8|0
112,328,181365,2,0,B|192:328,1,79.9999952316285,0|8
192,328,181794,1,0
232,176,182008,6,0,B|296:232|312:320,1,159.999990463257,4|8
310,312,182651,1,0
408,272,182865,2,0,B|424:312|424:352,2,79.9999952316285,0|0|8
408,272,183508,1,0
328,224,183722,6,0,B|264:152,1,79.9999952316285
408,176,184151,2,0,B|384:96,1,79.9999952316285,8|0
312,72,184579,1,0
312,72,184794,1,0
232,64,185008,1,8
232,64,185222,1,0
160,112,185436,6,0,B|160:208,2,79.9999952316285,0|0|8
80,136,186079,1,0
80,136,186294,2,0,B|80:240,1,79.9999952316285
144,264,186722,2,0,B|144:360,1,79.9999952316285,8|0
256,192,187151,5,4
432,192,187579,1,8
432,192,187794,1,0
376,240,188008,6,0,B|376:288|416:312,1,79.9999952316285
480,136,188436,2,0,B|480:88|440:56,1,79.9999952316285,8|0
432,192,188865,1,4
432,192,189294,5,8
328,152,189508,1,0
224,192,189722,1,0
224,192,190151,1,4
96,304,190579,6,0,B|72:352,3,39.9999976158142,4|0|0|0
72,264,191008,2,0,B|16:272,3,39.9999976158142,2|0|0|0
88,216,191436,2,0,B|48:192,3,39.9999976158142,4|0|0|0
120,192,191865,2,0,B|112:144,3,39.9999976158142,2|0|0|0
136,296,192294,5,4
136,296,192722,6,0,B|96:256,5,39.9999976158142,0|0|2|0|0|0
136,296,193365,2,0,B|200:360|296:304|296:304,1,159.999990463257,2|4
336,200,194008,6,0,B|304:160|328:112,1,79.9999952316285,4|0
392,240,194436,2,0,B|432:208|480:232,1,79.9999952316285,8|0
328,272,194865,2,0,B|304:320|232:304,1,79.9999952316285,0|0
184,248,195294,1,8
88,248,195508,5,0
152,120,195722,1,0
216,248,195936,1,0
152,120,196151,2,0,B|200:128|240:96,1,79.9999952316285,8|0
256,192,196579,1,0
344,152,196794,2,0,B|392:144|432:176,2,79.9999952316285,0|8|0
272,224,197436,6,0,B|376:296|400:192,1,159.999990463257,4|2
240,160,198079,2,0,B|136:88|112:192,1,159.999990463257,0|2
184,248,198722,2,0,B|152:296|112:288,1,79.9999952316285,0|2
24,264,199151,2,0,B|40:216|120:216,1,79.9999952316285,4|0
112,112,199579,6,0,B|88:56,5,39.9999976158142,0|0|2|0|0|0
112,112,200222,2,0,B|144:192|264:136,1,159.999990463257,2|4
320,80,200865,2,4,B|344:104|336:168,1,79.9999952316285,0|4
272,232,201294,2,0,B|312:256|376:248,1,79.9999952316285,8|0
416,184,201722,2,0,B|432:136|496:136,2,79.9999952316285,0|0|8
336,240,202365,5,0
264,112,202579,1,0
256,256,202794,1,0
184,136,203008,1,8
184,136,203222,2,0,B|192:88|104:72,1,79.9999952316285
88,160,203651,2,0,B|88:256,1,79.9999952316285,0|8
168,288,204079,1,0
264,288,204294,6,0,B|344:224|448:240,1,159.999990463257,4|2
416,112,204936,2,0,B|336:176|232:160,1,159.999990463257,0|2
104,232,205579,2,0,B|144:264|192:256,1,79.9999952316285,0|2
264,208,206008,5,0
248,176,206115,1,0
216,152,206222,1,0
176,144,206329,1,0
136,152,206436,1,0
136,152,206651,2,0,B|88:176|88:232|104:272|144:288,1,159.999990463257,4|2
344,224,207294,2,0,B|376:200|376:160|344:128,1,79.9999952316285,0|2
296,64,207722,5,4
400,56,207936,2,0,B|416:104|368:168|304:160,2,159.999990463257,2|2|2
264,32,209008,2,0,B|224:32|208:56|216:104,1,79.9999952316285,8|2
136,72,209436,6,0,B|48:48,1,79.9999952316285
80,128,209865,1,8
160,144,210079,2,0,B|120:224,1,79.9999952316285
208,208,210508,1,0
264,152,210722,2,0,B|288:232,1,79.9999952316285,8|0
216,88,211151,6,0,B|264:56|328:72|352:144,1,159.999990463257,4|8
296,296,211794,2,0,B|248:328|184:312|160:240,1,159.999990463257,0|0
216,192,212436,1,8
216,192,212651,1,0
296,216,212865,2,0,B|344:240,2,39.9999976158142,0|0|0
280,136,213294,6,0,B|192:88,1,79.9999952316285,8|0
136,240,213722,2,0,B|224:288,1,79.9999952316285
184,120,214151,1,8
168,112,214258,1,0
152,104,214365,1,0
136,96,214472,1,0
120,88,214579,6,0,B|32:232,1,159.999990463257,4|8
64,304,215222,2,0,B|152:160,1,159.999990463257
147,167,215865,1,8
147,167,216294,6,0,B|224:216,1,79.9999952316285,4|0
240,288,216722,1,8
336,232,216936,1,0
432,288,217151,1,0
432,288,217579,1,8
432,288,218008,6,0,B|432:184,1,79.9999952316285
368,56,218436,1,2
368,136,218651,1,0
256,288,218865,6,0,B|256:192,1,79.9999952316285
176,56,219294,1,2
176,136,219508,1,0
104,288,219722,6,0,B|40:288,3,39.9999976158142
104,288,220151,2,0,B|160:288,3,39.9999976158142
104,288,220579,2,0,B|104:224,4,39.9999976158142
256,192,221436,5,4
